#TITLE:なにやってもうまくいかない;
#SUBTITLE:;
#ARTIST:meiyo;
#TITLETRANSLIT:nani yatte mo umaku ikanai;
#SUBTITLETRANSLIT:;
#ARTISTTRANSLIT:meiyo;
#GENRE:POP;
#CREDIT:;
#MUSIC:nani yatte mo umaku ikanai.ogg;
#BANNER:nani yatte mo umaku ikanai.png;
#BACKGROUND:nani yatte mo umaku ikanai-bg.png;
#CDTITLE:;
#SAMPLESTART:3.549;
#SAMPLELENGTH:15.360;
#SELECTABLE:YES;
#OFFSET:1.731;
#BPMS:0.000=125.000
,42.000=62.500
,45.000=125.000
,71.000=62.500
,72.000=125.000
,95.000=62.500
,99.500=125.000
,161.500=62.500
,167.500=125.000
,189.500=62.500
,190.500=125.000
,284.500=62.500
,287.000=125.000
;
#STOPS:;
#LASTBEATHINT:1.522917;
#BGCHANGES:3.500=nani yatte mo umaku ikanai.avi=1.000=0=0=0=StretchNoLoop====,
99999.000=-nosongbg-=1.000=0=0=0=StretchNoLoop====
;
#FGCHANGES:;

//--------------- dance-single - ----------------
#NOTES:
     dance-single:
     :
     Hard:
     13:
     0.572402,0.59753,0.306644,0.320273,0.265758,588,543,45,47,0,0,0.572402,0.59753,0.306644,0.320273,0.265758,588,543,45,47,0,0:
0000
0000
0000
0000
,
0000
0000
0000
0000
,
0000
0000
0000
2000
,
3001
0000
0100
0000
0001
0000
1000
0000
0100
0000
0010
0000
0001
0000
1000
0010
,
0000
0100
0000
0010
1000
0000
0001
0010
0000
0100
0000
0010
0001
0000
0010
0000
,
0100
0000
1000
0000
0010
0000
1000
0000
0002
0000
0000
0000
0103
0000
0000
1010
,
0000
0000
1000
0000
0100
0000
0000
0011
0000
0000
0001
0000
0002
0000
0000
0000
,
1003
0000
0100
0000
1000
0000
0001
0000
0100
0000
0010
0000
1000
0000
0001
0100
,
0000
0010
0000
0100
0001
0000
1000
0100
0000
0010
0000
0100
1000
0000
0010
0000
,
0100
1000
0100
0001
2000
0000
3002
0000
,
1003
0100
0001
0100
2000
3002
1003
0011
,
1010
1000
0001
0100
0020
0000
0000
0000
1030
0000
0000
0000
0100
0000
0010
0000
,
0100
1000
0002
0000
0103
0001
0020
0000
,
0130
1000
0010
0100
1000
0100
0001
0010
,
1000
0010
0001
0101
1010
1000
0010
0100
,
0010
0001
0010
0010
1000
1000
0001
0010
,
0100
1000
1001
0000
0101
0000
1010
0000
,
0110
0000
1000
0001
0100
0001
0020
0230
,
0301
0100
1000
0010
1000
0100
0001
1000
,
0010
0100
1000
0010
0110
0000
0100
0001
,
0011
0100
1000
0010
1010
1000
0100
0010
,
0110
0100
1000
0001
1001
1000
0100
0001
,
0200
0000
2300
0000
3001
0100
0010
0100
,
1000
0000
0100
0000
0010
0000
1000
0000
0100
0000
2000
0000
3002
0000
0103
0100
,
0010
0010
1000
0100
0010
0001
1000
1000
0001
0001
1001
0000
2000
0000
3001
0000
,
0010
0000
0001
0000
1000
0000
0010
0000
0100
0000
0001
0000
1000
0100
0000
0010
,
0000
0100
1000
0000
0001
0100
0000
0010
0000
0100
0001
0000
0100
0000
0010
0000
,
1000
0000
0100
0000
1000
0000
0002
0000
0000
0000
0013
0000
0000
1100
0000
0000
,
1000
0000
0010
0000
0000
0101
0000
0000
0001
0000
0002
0000
0000
0000
1003
0000
,
0010
0000
1000
0000
0001
0000
0010
0000
0100
0000
1000
0000
0001
0010
0000
0100
,
0000
0010
0001
0000
1000
0010
0000
0100
0000
0010
1000
0000
0100
0000
0010
0000
,
1000
0010
0001
2000
0000
3002
0000
1003
,
0010
0001
0010
2000
0000
3002
0000
1003
,
0010
0000
0100
0000
0001
0000
0010
0000
0100
0000
1000
0000
0001
0100
0000
0001
,
0010
0000
0100
0000
1000
0010
0000
0100
0000
0001
1000
0000
0100
0000
0010
0000
,
1000
0000
0010
0000
0001
0000
0200
0000
0000
0000
0310
0000
0000
0101
0000
0000
,
0001
0000
0010
0000
0000
1100
0000
0000
0001
0000
2000
0000
0000
0000
3100
0000
,
0001
0000
0100
0000
1000
0000
0001
0000
0100
0000
1000
0000
0100
0010
0000
1000
,
0000
0001
0010
0000
0100
0001
0000
0100
0000
1000
0010
0000
0100
0000
0001
0000
,
0010
0100
1000
0002
0000
2003
0000
3010
,
0100
0001
0010
2000
3002
0203
1300
0011
,
0101
0000
0001
0100
0010
0100
0001
0010
0100
0010
0002
0000
2003
0000
3010
0000
,
0010
1000
0001
0010
0010
0100
1000
0001
,
0001
1000
1000
0010
0100
0010
0100
0110
,
0000
0000
1010
0000
0010
0100
0000
0001
0000
1000
0100
0000
0010
0000
0001
0000
,
0100
1000
0001
0010
1000
1010
0100
0101
,
0010
0011
0100
1100
1000
1001
0001
0100
,
0010
1000
0001
2001
3001
0101
0001
0100
,
0001
1100
1000
0100
1000
1001
0001
1100
,
1000
0102
0000
1003
0000
0011
0001
0010
,
0001
1010
1000
0010
1000
1001
0001
1010
,
1000
0011
0000
1001
0000
0100
0001
1000
,
0001
0010
0001
0100
0100
1000
0001
1000
,
0010
1000
0001
1000
0100
0100
0001
0100
,
1000
0100
0001
0010
1000
0010
0001
1000
,
0100
0020
0000
0032
0000
0103
0010
1000
,
0001
0000
0100
0000
0001
0000
0010
0000
0100
1000
0000
0010
0000
0100
1000
0000
,
0100
0001
0000
0010
0000
0100
0001
0000
0100
0000
1000
0000
0001
0000
0010
0000
,
0100
0000
2000
0000
0000
0000
3001
0000
0000
1010
0000
0000
1000
0000
0100
0000
,
0000
0011
0000
0000
0001
0000
2000
0000
0000
0000
3010
0000
0100
0000
0010
0000
,
1000
0000
0100
0000
0010
0000
0001
0000
0010
1000
0000
0001
0000
0100
1000
0000
,
0010
0001
0000
1000
0000
0100
0001
0000
0010
0000
0100
0000
1000
0000
0010
0000
,
0100
0002
0000
2003
0000
3010
0100
0001
,
1000
0002
0000
2003
0000
3001
0100
1000
,
0100
0000
0001
0000
0100
0000
1000
0000
0100
0001
0000
0010
0000
1000
0010
0000
,
0001
0100
0000
1000
0000
0100
0001
0000
1000
0000
0001
0000
0010
0000
1000
0000
,
0010
0000
0002
0000
0000
0000
1003
0000
0000
0110
0000
0000
0001
0000
1000
0010
,
0100
0001
0000
0001
0010
0000
0200
0000
0000
0000
1300
0000
0100
0000
0001
0000
,
0100
0000
1000
0000
0100
0000
0001
0000
0100
1000
0000
0010
0001
0000
0010
0000
,
1000
0100
0000
0001
0000
0100
1000
0000
0010
0000
0001
0000
0010
0000
1000
0000
,
0001
2000
0000
3002
0000
0013
1000
0010
,
0001
0000
2000
0000
3001
0100
0001
1000
0010
0100
0001
0000
1001
0000
0000
0000
;

//--------------- dance-single - ----------------
#NOTES:
     dance-single:
     :
     Challenge:
     15:
     0.832319,0.857325,0.647359,0.470187,0.916525,855,760,95,69,0,0,0.832319,0.857325,0.647359,0.470187,0.916525,855,760,95,69,0,0:
0000
0000
0000
0000
,
0000
0000
0000
0000
,
0000
0000
0000
0000
0000
0000
0000
0000
0000
0000
0000
0000
2000
0000
0000
3001
,
0010
0000
0001
0100
0001
1000
0001
0010
0100
0000
1100
0000
1010
0000
1000
0010
,
0000
0101
0000
0001
0100
0010
1000
0001
0000
0011
0000
0010
0200
0000
0010
0301
,
1000
0000
1000
0100
1000
0001
1000
0010
0200
0000
0000
0000
1300
0000
0100
0002
,
0000
0000
1003
0000
0001
0000
0010
2000
0000
0000
3001
0000
0200
0000
0000
1300
,
0100
0000
0010
0001
0100
0001
1000
0001
0010
0000
0011
0000
1100
0000
1000
0001
,
0000
0110
0000
1000
0001
0000
0100
0001
0000
0001
0010
0100
2000
0000
0010
3100
,
0001
0000
0001
0100
0001
0010
0100
0010
0002
0000
1000
0000
2003
0000
0000
3100
,
0010
0000
0010
0100
1000
0010
0100
0010
2000
0000
3002
0000
0103
0000
1001
0000
,
1001
0000
0001
0100
0001
0000
1000
0000
0210
0000
0000
0000
0000
0000
0301
0000
1000
0000
0000
0000
0100
0000
0000
0000
0010
0000
0000
0000
0100
0000
1000
0000
,
0010
0000
0100
0000
0020
0000
0000
0130
0001
0000
0010
0100
2000
0000
0000
3010
,
0100
0001
0010
0100
1000
0100
0011
0100
,
1010
0000
0100
0000
0110
0000
1001
0000
1001
0000
0001
0100
0010
0000
1000
0000
,
0010
0000
0001
0000
0010
0000
1000
0100
0010
0000
0010
0001
1000
0000
0101
0000
,
0001
0000
1100
0000
1001
0000
0000
1000
0001
0000
0000
0000
1001
0000
0000
0000
,
0110
0000
0000
0000
0000
0000
0010
0000
1000
0000
0100
0000
0010
0000
1000
0000
0001
0000
1000
0000
0001
0000
0100
0000
0020
0000
0000
0000
0230
0000
0000
1300
,
0001
0000
0001
0100
0010
0000
0101
0000
0110
0000
1000
0000
0110
0000
0001
1000
,
0010
0100
0110
0010
1001
0000
0002
0103
,
1010
0000
0100
0000
0001
0010
0100
0000
0011
0000
0010
0100
1000
0000
0001
0000
,
1001
0100
0010
0100
1001
1000
0001
0100
,
2010
0000
0000
0000
3002
0000
0000
0000
0013
0000
0100
1000
0010
0000
0100
0000
,
0010
0000
1000
0000
0100
0000
0010
0000
0001
0000
1000
0000
0001
0000
0100
0000
0010
0000
0000
0000
0100
0000
0001
0000
2000
0000
0000
0000
3100
1000
0100
1000
,
0001
0100
0001
0100
0001
0010
0100
1000
0001
0100
0001
0100
0010
1000
0100
0010
0001
1000
0001
1000
0020
0000
0000
0000
2030
0000
0000
3001
0010
0000
0000
0000
,
0100
1000
0010
1000
0001
0010
0100
0000
1100
0000
0011
0000
0001
0100
0000
1010
,
0000
0100
0001
0010
0100
1000
0000
1010
0000
0001
0200
0000
0310
1000
0001
0000
,
1000
0010
1000
0001
1000
0100
0020
0000
0000
0000
0130
0000
1000
0020
0000
0000
,
0130
0000
1000
0000
0100
0020
0000
0000
1030
0000
0002
0000
0000
0013
0100
0000
,
1000
0010
1000
0001
1000
0100
0010
0000
0011
0000
1100
0000
1000
0010
0000
1001
,
0000
1000
0001
0000
0010
0100
0000
0100
1000
0100
0020
0000
0100
1030
0001
0000
,
0100
0010
1000
0010
0001
0010
2000
0000
0001
0000
3002
0000
0000
0013
1000
0000
,
0010
0100
1000
0100
0001
0100
2000
0000
0000
0000
3020
0000
0000
1030
0001
0000
,
1000
0100
1000
0001
1000
0010
0100
0000
0101
0000
1010
0000
1000
0001
0000
0001
,
1000
0100
0010
0100
1000
0001
0000
1001
0000
1000
0020
0000
0100
0031
1000
0000
,
0001
0100
0001
1000
0001
0010
0200
0000
0300
0000
0110
0000
0010
0002
0000
0000
,
0103
0000
0110
0000
0010
2000
0000
0000
3001
0000
0020
0000
0000
0130
1000
0000
,
1000
0010
1000
0001
1000
0100
0010
0000
0011
0000
1100
0000
1000
0010
0000
0100
,
1000
0100
0001
0100
0010
0100
0000
0100
0001
1000
0200
0000
0010
0301
1000
0000
,
0001
0010
0001
0100
1000
0100
0002
0000
0000
0000
0203
0000
0000
0301
1000
0000
,
1000
0010
1000
0100
0001
0100
2000
0000
3020
0000
2030
0000
3001
0000
1001
0000
,
1001
0000
0000
0000
0101
0000
0100
0000
1010
0000
0100
0001
1000
0000
0100
0000
1100
0000
1000
0001
0010
0000
0000
0010
0100
0000
1000
0000
1001
0000
0000
0000
,
1000
0001
0100
0000
0001
0000
0110
0000
0010
1000
0001
0000
0100
0000
0110
0000
,
0010
0000
1010
0000
1000
0001
1000
0000
0100
0000
0110
0000
0100
0000
1100
0000
,
0000
0000
1001
0000
1000
0010
0000
0110
0000
0100
0001
0000
0011
0000
0100
0000
,
1000
0000
0010
0000
0001
0000
0110
0000
0100
0001
0010
0000
0120
0000
0230
0000
,
0310
0000
0110
0000
0100
1000
0010
0000
0100
0000
0110
0000
0001
0000
0101
0000
,
0010
0000
1010
0000
1000
0000
1002
0000
1003
0000
0102
0000
1003
0001
1000
0000
,
0201
0000
0301
1000
0001
0000
0011
0000
2100
0000
3001
1000
0001
0000
2100
0000
,
3001
0000
2100
0000
0000
0000
3001
0000
0000
0000
0012
0000
1003
0001
1000
0000
,
0011
0000
1002
0000
1003
0000
0021
0000
0031
0000
2010
0000
3001
1000
0001
0000
,
1010
0000
1002
0000
0000
0000
1003
0000
0000
0000
0001
0100
0010
0100
0001
0010
,
0100
1000
0001
0010
0100
0010
0001
1000
0010
0100
1000
0100
0010
0100
0001
0100
,
1000
0001
0010
0100
0010
0001
0010
1000
0100
0010
0001
0010
0100
1000
0001
1000
,
0010
0100
0001
0010
1000
0010
0100
0001
0100
1000
0100
0001
1000
0010
0100
1000
,
0100
0010
0002
0000
1003
0000
2001
0000
0000
3001
0100
0000
0100
0001
0100
0010
,
0100
1000
0100
0000
1100
0000
0101
0000
0001
0010
0000
0110
0000
0100
0001
0100
,
1000
0010
0000
1010
0000
1000
0002
0000
1003
0010
0100
0000
0100
1000
0100
0010
,
0100
0001
0100
0000
0001
0000
0011
0000
0100
1000
0000
0000
1000
0000
1010
0000
,
0100
0002
0000
0000
1003
0000
1002
0000
0000
1003
0100
0000
0100
1000
0100
0010
,
0100
0001
0100
0000
0110
0000
0100
1000
0010
0001
0000
0011
0000
0010
1000
0000
,
0001
0010
0000
0100
0001
0100
2000
0000
0001
3100
0010
0000
0010
0001
0010
0100
,
0010
1000
0010
0000
0101
0000
2001
0000
0000
0100
3010
0000
0010
1000
0010
0100
,
0010
0001
0020
0000
0031
0000
2001
0000
0000
3001
0100
0000
0010
1000
0010
0001
,
0010
0100
1000
0000
0100
0000
0002
0000
0013
0100
0000
0010
0001
1000
0001
0010
,
0100
1000
0000
1010
0000
0100
0002
0000
0010
0103
1000
0000
0100
0010
0001
0100
,
0010
0001
2000
0000
3000
0000
0110
0000
1000
0001
0000
0000
1001
0000
0001
0010
,
0100
1000
0000
0001
0100
0000
0120
0000
0000
0130
0001
0000
1000
0100
0001
0100
,
1000
0010
0001
0000
0010
1000
0100
0010
0100
1000
0000
0001
0100
0010
1000
0000
,
0100
0001
0000
0001
0100
1000
0020
0000
0100
0031
1000
0000
0010
1000
0100
0010
,
1000
0001
2000
0000
3001
0000
0200
0000
0000
0310
0001
0000
0100
0010
0001
1000
,
0001
0000
0010
0000
2000
0000
0000
0000
3001
0100
0001
0100
0010
0000
1000
0010
0000
0100
0001
1000
0100
0000
0000
0000
MMMM
0000
0000
0000
0000
0000
0000
0000
;
