#TITLE:lulu.;
#SUBTITLE:;
#ARTIST:Mrs. GREEN APPLE;
#TITLETRANSLIT:lulu.;
#SUBTITLETRANSLIT:;
#ARTISTTRANSLIT:Mrs. GREEN APPLE;
#GENRE:ANIME;
#CREDIT:;
#MUSIC:lulu.ogg;
#BANNER:lulu.png;
#BACKGROUND:lulu-bg.png;
#CDTITLE:;
#SAMPLESTART:65.865;
#SAMPLELENGTH:11.655;
#SELECTABLE:YES;
#OFFSET:2.007;
#BPMS:0.000=175.035;
#STOPS:;
#LASTBEATHINT:2.877438;
#BGCHANGES:5.750=lulu.avi=1.000=0=0=0=StretchNoLoop====,
99999.000=-nosongbg-=1.000=0=0=0=StretchNoLoop====
;
#FGCHANGES:;

//--------------- dance-single - ----------------
#NOTES:
     dance-single:
     :
     Medium:
     12:
     0,0,0,0,0:
0000
0000
0000
0000
,
0000
0000
0000
0000
,
1001
0000
0001
0100
0001
0010
0000
0100
,
1000
0000
0001
0010
1000
0000
0001
0100
,
1000
0000
1000
0001
0000
0001
0100
0000
,
0110
0000
0010
1000
0001
1000
0100
1000
,
0001
0000
1000
0100
1000
0010
0000
0100
,
0001
0000
1000
0100
0001
0000
1000
0010
,
0001
0100
0010
1000
0010
0100
0001
0000
,
0101
0000
1000
0010
0100
0010
1000
0001
,
0011
0010
1100
0010
,
1010
0100
0101
0001
,
0020
0230
2300
3002
,
1003
0010
0200
0000
0320
1000
0032
0000
,
0103
1010
0100
0011
,
0010
0000
1100
0000
0010
0000
0101
1000
,
0002
0000
0023
0000
0100
0000
0031
1000
,
0200
0000
0000
1000
2300
0000
0000
3001
,
0101
0000
0100
0001
0010
0001
0100
0000
,
1100
0000
0100
1000
0010
1000
0100
1000
,
1100
0101
0011
1020
,
0130
0001
1000
0000
1000
0001
0010
0000
,
0100
1000
0001
0020
0000
0130
1000
0020
,
0000
0130
0001
0010
2000
0000
3020
0000
,
0031
1000
0001
0100
1000
0100
0010
1000
,
0001
1000
0100
0001
0100
0010
0001
1000
,
0002
0000
0000
0000
0000
0000
1003
0000
0010
0100
0010
0000
1000
0000
0010
0000
,
0002
0000
0013
1000
0001
0000
0010
0001
,
1000
0000
0001
0010
1000
0010
0001
1000
,
0010
0000
0010
0000
0010
1000
0001
0010
,
0100
0000
1000
0000
0002
2003
3020
0230
,
0302
0000
0023
0230
0320
0000
0031
1000
,
0001
0010
0100
1000
1100
0000
0010
0000
,
0101
0000
0000
0001
1000
0010
0100
0010
,
0002
0023
2030
3200
,
0302
0000
2003
0000
3020
0000
0031
1000
,
0001
0010
0110
0000
0100
1000
0001
0010
,
0100
1000
0100
0001
0100
1000
0100
0010
,
2000
3020
0032
0203
,
2300
0000
3002
0000
0023
0000
1030
0001
,
1000
0100
0001
1000
0001
0100
1000
0001
,
0100
1000
0001
1000
0100
0001
0010
0100
,
0002
0203
2300
3020
,
0032
2003
3200
0302
,
0103
0000
0110
0000
0010
1000
0001
0010
,
0001
0200
0001
0010
0320
0000
2030
0000
,
3001
0010
0100
0000
1000
0010
0100
0000
,
0001
0100
0010
0000
1000
0100
0010
0002
,
1000
0010
0100
2003
,
0010
0000
0000
0010
0000
0000
0010
0000
3200
0000
0000
0000
1300
0000
0001
0000
,
2000
0001
3100
1000
0020
0100
1030
0001
,
0200
0000
0010
0000
0301
0000
0010
0000
0011
0000
0000
0110
0000
0000
1100
0000
,
2000
0010
3001
0010
0200
1000
0310
0001
,
1002
0000
0000
0000
0203
0000
0000
0000
0320
0000
0000
1000
0000
0000
1030
0000
,
0002
1000
0103
0001
2000
0100
3001
0010
,
0200
0000
1000
0000
0310
0000
0001
0000
0011
0000
0000
0110
0000
0000
1100
0000
,
1002
0100
1003
0010
0200
0001
0310
1000
,
0020
1000
0130
0001
0020
0000
0130
1000
,
0012
1000
0103
0010
2001
0010
3100
0010
,
0120
0000
0001
0000
0130
0000
1000
0000
1100
0000
0000
1001
0000
0000
0101
0000
,
2001
0010
3100
0010
0012
1000
0103
0010
,
0201
0000
0000
0000
0320
0000
0000
0000
2030
0000
0000
0001
0000
0000
3010
0000
,
0120
1000
0130
0001
0102
0010
1000
0103
,
0210
0000
0000
0000
0301
0000
1000
0000
0200
0000
0000
0010
0000
0000
0310
0000
,
0002
0000
0103
0010
0100
0010
0100
0010
,
0100
0000
0001
0010
0200
0000
0000
1300
,
0002
0000
0000
0003
;

//--------------- dance-single - ----------------
#NOTES:
     dance-single:
     :
     Hard:
     15:
     0,0,0,0,0:
0000
0000
0000
0000
,
0000
0000
0000
0000
,
0101
0001
0010
0100
1000
0001
0100
0001
,
1001
1000
0100
0010
0001
1000
0010
1000
,
1010
0010
0100
0001
1000
0010
0100
0001
,
1001
1000
0010
0100
0001
1000
0100
0010
,
0011
0001
1000
0010
0100
0001
1000
0100
,
0110
0010
0001
1000
0010
0100
0001
1000
,
1100
0100
0010
0001
0010
0100
1000
0001
,
0101
0100
0010
1000
0001
0010
0100
1000
,
1100
0000
0010
0001
0101
0000
0010
1000
,
1100
0000
0010
0001
0101
0000
0001
1000
,
1100
0011
0101
1010
,
1000
0100
0020
0000
0130
1000
0002
0000
,
1003
0010
0110
0000
0001
0010
0110
0000
,
0100
1000
1001
0000
0010
0001
1001
1000
,
0020
0000
0230
0000
0301
0000
1000
0100
,
0020
0000
0000
0000
0000
0000
0000
0030
,
0110
0000
0000
0100
1000
0000
0001
0000
1000
0000
0010
0000
0100
0000
0000
0000
,
0101
0000
0000
0100
0001
0000
1000
0000
0001
0000
1000
0100
0010
0000
0001
0000
,
0021
0000
0000
0000
0130
0000
1000
0010
0100
0000
0010
0000
0200
0000
0000
0000
,
0301
0000
1000
0000
0100
0000
0010
0001
1000
0000
0010
0000
0200
0000
0000
0000
,
0301
0010
0100
2000
0000
3001
0100
2000
,
0000
0000
3100
0000
0001
0000
1000
0100
0001
0000
0100
0000
1000
0000
0000
0000
,
0001
0100
0001
0000
1000
0010
1000
0000
0001
0000
1000
0000
0010
0000
1000
0100
,
1000
0000
0001
0010
0001
0000
1000
0000
0001
0010
0100
0010
0001
0010
0100
1000
,
0002
0000
0000
0000
0000
0000
1003
0000
0001
0010
0100
0000
1000
0000
0001
0000
,
0020
0000
0130
1000
0001
0100
0010
1000
,
0001
0000
1000
0010
0100
0001
0100
1000
,
0100
0000
0000
0000
0100
0000
0001
0000
1000
0001
1000
0000
0100
0000
0010
0000
,
0002
0000
0013
0200
2300
3002
0023
2030
,
3020
0000
0032
1003
0020
0000
0100
1030
,
0001
0010
0100
1000
1100
0000
0001
0100
,
0101
0000
0000
0000
0000
0000
1000
0100
1000
0000
0000
0001
0000
0000
1000
0000
,
0002
0100
0023
0100
2030
0100
3020
0100
,
0032
0000
0010
0000
0203
0000
0010
0000
2300
0000
0010
0000
3001
0010
0100
1000
,
0001
0000
0010
0000
0110
0000
0000
0000
0100
0000
1000
0000
0001
0010
0100
1000
,
0001
0000
0100
0010
0100
0000
0001
0000
0100
0000
1000
0000
0100
0000
0010
0000
,
2000
0100
3002
0100
0023
0100
2030
0010
,
3200
0000
0010
0000
0302
0000
0010
0000
0203
0000
0010
0000
1300
0001
0010
0100
,
1000
0000
0100
0000
0010
0000
0100
1000
0001
0000
0100
0000
0010
0100
1000
0100
,
0010
0000
0100
0001
1000
0000
0100
0000
0010
0100
0001
0100
0010
0000
0001
0000
,
2000
0010
3002
0010
0203
0010
2300
0100
,
3002
0000
0100
0000
0023
0000
0100
0000
1030
0000
0001
0010
0100
0000
1000
0000
,
0001
0000
0100
0000
0020
0000
0000
0000
0130
0000
0001
0000
1000
0000
0100
0010
,
0001
2000
0001
0100
3200
0000
0320
0000
,
0031
1000
0010
1000
0001
0010
0001
0100
,
0010
1000
0001
0100
0010
1000
0001
1000
,
1100
0011
0101
1010
,
0110
0000
0000
0110
0000
0000
1001
0000
0020
0000
0000
0000
1030
0000
0001
0100
,
0001
0000
0010
0100
1000
0100
0010
0100
1000
0000
0001
0010
0100
0010
0001
0010
,
0100
0000
1000
0010
0100
0010
1000
0010
0002
0000
0000
0023
0000
0000
1030
0001
,
1000
0000
0001
0100
0010
0100
0001
0100
0010
0000
1000
0010
0100
0010
1000
0010
,
0200
0000
0000
0000
0302
0000
0000
0000
0023
0000
0000
0230
0000
0000
1300
0100
,
0010
0000
0001
0010
0001
0100
0010
0100
0001
0000
1000
0100
1000
0010
0100
0010
,
1000
0000
0001
0010
0100
1000
0001
0010
2000
0000
0000
3020
0000
0000
0032
0000
,
1003
0000
0001
1000
0100
0001
0100
1000
0001
0000
1000
0001
0100
1000
0100
0001
,
1000
0000
0010
0100
0010
0000
1000
0000
0001
0000
0010
0000
0100
0000
1000
0001
,
0010
0000
0100
0010
1000
0010
0001
0100
0010
0000
0001
0010
1000
0100
0010
0001
,
1000
0000
0100
0000
0010
0000
0001
0000
2000
0000
0000
3020
0000
0000
0230
0000
,
0301
0000
0010
0001
0100
1000
0001
0010
1000
0000
0001
0010
1000
0001
0100
1000
,
0002
0000
0000
0000
0203
0000
0000
0000
0320
0000
0000
2030
0000
0000
3010
0100
,
0001
0000
0010
0100
0001
0100
1000
0100
0010
0000
0100
0010
0001
0010
1000
0010
,
0200
0000
0000
0000
1300
0010
0100
0001
0020
0000
0000
0230
0000
0000
2300
0000
,
3001
0100
0010
0001
1000
0100
0001
0010
2000
0000
0000
0000
3001
0100
1000
0010
,
0002
0000
0013
1000
0002
0000
0000
0100
,
0203
0000
0000
0300
;

//--------------- dance-single - ----------------
#NOTES:
     dance-single:
     :
     Challenge:
     17:
     0.872089,1.176366,0.033419,0,0.239506,548,545,3,0,0,0,0.872089,1.176366,0.033419,0,0.239506,548,545,3,0,0,0:
0000
0000
0000
0000
,
0000
0000
0000
0000
,
0001
0010
0100
2000
3002
0100
0010
2003
,
0010
0000
0100
0000
0001
0000
3001
0010
0200
0000
1000
0000
0001
0000
0010
0000
,
2300
0010
3002
0203
0001
0320
2030
0001
,
0010
0100
0001
0100
3001
0010
0100
1000
,
0100
0010
0001
2000
3020
0230
0010
0302
,
0010
0000
1000
0000
0100
0000
1003
0010
0200
0000
0001
0000
0010
0000
0302
0000
,
0023
0230
2300
3002
0100
2003
3020
0100
,
1000
0100
1030
0001
0010
0100
1000
0001
,
0101
1000
0001
0010
1100
0001
1000
0010
,
0101
1000
0100
0010
1100
0001
0100
0010
,
0201
0010
0320
1000
2030
0100
3200
0001
,
0001
0010
2300
0010
3002
0100
0023
0100
,
0031
1000
0101
0010
1000
0001
1010
0001
,
1000
0010
1100
0010
0001
1000
0011
1000
,
0002
1000
0100
1000
0100
1000
0100
1000
,
0023
0000
0000
0000
0000
0000
0000
0030
,
0110
0000
0001
0010
0001
0000
1000
0000
0001
0000
0010
0000
1000
0000
0010
0100
,
0010
0000
0001
0000
1000
0000
0010
0100
0010
1000
0001
0010
0100
0000
0010
1000
,
0010
0001
1000
0000
0001
0000
0100
1000
0100
0001
1000
0000
0001
0000
0010
0100
,
0010
0000
1000
0000
0001
0000
0100
0010
0100
1000
0100
0010
0001
0000
1000
0010
,
0100
0000
0010
0000
1010
0000
0101
0000
0001
0010
0100
1000
0010
0000
0100
0001
,
0010
0000
1000
0000
0010
0000
0001
0100
0010
1000
0001
0000
0010
0000
0100
1000
,
0001
0010
1000
0010
0001
0000
1000
0010
0001
0010
1000
0000
0010
0000
0100
0001
,
1000
0000
0100
0000
0110
0000
0010
0001
0010
0100
0010
0001
0010
0100
1000
0010
,
0002
0000
0000
0000
0000
0000
1003
0000
0100
0001
0010
0000
0100
0000
1000
0000
,
0110
0000
0002
0000
0000
0000
1003
0000
0010
0000
0100
0000
0010
0000
1000
0100
,
0002
0000
0103
1000
0110
0001
0100
0010
,
0200
0000
1000
0000
0000
0000
0301
0000
1000
0001
1000
0000
0100
0000
0010
0001
,
1000
0010
0100
0002
0023
0230
2300
3020
,
0230
0000
0000
0000
0301
0000
1000
0000
1100
0000
0002
0000
0000
0000
0103
0010
,
0100
0000
0101
0000
,
1100
0000
0000
0000
0000
0000
0001
0010
0100
0000
0000
0100
0000
0000
0100
0000
,
1200
1300
1002
1003
1020
1030
1002
1003
,
1200
0000
1300
0000
1002
0000
1003
0000
1200
0000
0310
0000
0001
0010
0100
1000
,
0001
0000
1000
0000
1100
0000
0000
0000
0001
0000
1000
0100
0010
0001
0010
0100
,
1000
0000
0001
0010
0100
0000
2000
0000
0001
0000
0100
0000
3001
0000
0100
0000
,
0201
0000
0301
0000
2001
0000
3001
0000
0021
0000
0031
0000
0001
0100
0001
1000
,
0001
0000
0001
0010
0100
0000
1000
0000
1001
0000
0000
0000
0001
0100
0001
0100
,
0001
0000
0010
0000
1100
0000
1000
0010
0100
0001
0100
0010
1000
0001
0010
0100
,
1000
0000
0001
0100
0010
1000
0100
1000
0010
0100
0001
1000
0100
0000
0010
0000
,
2100
3100
0102
0103
2100
3100
0102
0103
,
2100
0000
3100
0010
0001
0010
0100
1000
0001
0000
1000
0010
0100
0000
0001
0000
,
0110
0000
1000
0000
0001
0000
0000
0000
0110
0000
1000
0000
0001
0000
0010
0100
,
1000
0020
0100
1000
0230
0001
0310
0000
,
1010
0100
0001
1000
0101
0010
0100
1000
,
0011
1000
0010
0100
1001
1000
0001
1000
,
0110
0000
0000
0000
0000
0000
0001
0100
0001
0100
0001
0100
0001
0000
0000
0000
0000
0000
1000
0100
1000
0100
1000
0100
,
1000
0000
0000
0000
0000
0000
0000
0000
0000
1100
0000
0000
0000
0000
0000
0000
0000
0000
0101
0000
0000
0000
0000
0000
2000
0000
0000
0000
0000
0000
0000
0000
0000
0000
0000
0000
3001
0000
0010
0000
0100
0000
1000
0000
0001
0000
0010
0000
,
0100
0000
0000
0000
0000
0000
1000
0000
0000
0001
0000
0000
0100
0000
0000
0001
0000
0000
1000
0000
0100
0000
0010
0000
0001
0000
0000
0000
0000
0000
1000
0000
0000
0001
0000
0000
0100
0000
0000
0001
0000
0000
1000
0000
0010
0000
0100
0000
,
0001
0000
0000
0000
0000
0000
1000
0000
0000
0100
0000
0000
0010
0000
0000
0100
0000
0000
1000
0000
0000
0010
0000
0000
0100
0000
0000
0000
0000
0000
0000
0000
0000
0100
0000
0000
0000
0000
0000
0000
0000
0000
0100
0000
0001
0000
1000
0000
,
0100
0000
0000
0000
0000
0000
1000
0000
0000
0100
0000
0000
0010
0000
0000
0001
0000
0000
0100
0000
0010
0000
1000
0000
0001
0000
0000
0000
0000
0000
0010
0000
0000
0100
0000
0000
1000
0000
0000
0001
0000
0000
1000
0000
0010
0000
0100
0000
,
0002
0000
0000
0000
0000
0000
0000
0000
0000
0000
0000
0000
0023
0000
0000
0000
0000
0000
0000
0000
0000
0000
0000
0000
0230
0000
0000
0000
0000
0000
0000
0000
0000
1300
0000
0000
0000
0000
0000
0000
0000
0000
1000
0000
0100
0000
0010
0000
,
0001
0000
0000
0000
0000
0000
0100
0000
0000
0010
0000
0000
0100
0000
0000
0010
0000
0000
1000
0000
0100
0000
0010
0000
0001
0000
0000
0000
0000
0000
0010
0000
0000
0100
0000
0000
0010
0000
0000
0100
0000
0000
1000
0000
0010
0000
0100
0000
,
0001
0000
1000
0100
0010
0001
0010
0100
1000
0000
0000
0110
0000
0000
1001
0000
,
0001
0000
0000
0100
0000
0000
0010
0000
0000
0100
0000
0000
0001
0000
0000
1000
0000
0000
0001
0000
0100
0000
0001
0000
0010
0000
0000
0000
0000
0000
0010
0000
0000
0100
0000
0000
1000
0000
0000
0001
0000
0000
1000
0000
0100
0000
1000
0000
,
0010
0000
0000
0000
0000
0000
0100
0000
0000
0001
0000
0000
1000
0000
0000
0001
0000
0000
1000
0000
0000
0001
0000
0000
0010
0000
0000
0000
0000
0000
0100
0000
0000
1000
0000
0000
0001
0000
0010
0000
0100
0000
1000
0000
0001
0000
0010
0000
,
0100
0000
0000
1000
0000
0000
0010
0000
0000
0100
0000
0000
0001
0000
0000
1000
0000
0000
0001
0000
0100
0000
0010
0000
1000
0000
0000
0100
0000
0000
0010
0000
0000
0001
0000
0000
1000
0000
0000
0010
0000
0000
0100
0000
0001
0000
0010
0000
,
0100
1000
0001
0100
0020
0000
2030
0000
3020
0000
0000
0230
0000
0000
0301
0000
,
1001
0000
0000
0000
0000
0000
1000
0000
0000
0001
0000
0000
1000
0000
0100
0000
0010
0000
0001
0000
0010
0000
0100
0000
1000
0000
0000
0001
0000
0000
0100
0000
0000
0010
0000
0000
1000
0000
0000
0001
0000
0000
1000
0000
0000
0010
0000
0000
,
0200
0000
0000
0000
0302
0000
0000
0000
2003
0000
0000
3100
0000
0000
0100
1000
,
0001
0000
0000
0010
0000
0000
0100
0000
0000
0010
0000
0000
0001
0000
0000
1000
0000
0000
0001
0000
0100
0000
0010
0000
1000
0000
0000
0001
0000
0000
0010
0000
0000
0100
0000
0000
0010
0000
0000
0001
0000
0000
1000
0000
0100
0000
0010
0000
,
0002
0000
0000
0000
1003
0010
1000
0010
0200
0000
0000
0320
0000
0000
2030
0000
,
3001
0000
0000
0100
0000
0000
0010
0000
0000
0100
0000
0000
0010
0000
0000
1000
0000
0000
0001
0000
0010
0000
0100
0000
1000
0000
0000
0100
0000
0000
0010
0000
0000
0100
0000
0000
0010
0000
0001
0000
1000
0000
0001
0000
1000
0000
0001
0000
,
0200
0000
0310
1000
0002
0000
0000
0010
,
0203
0000
0000
0300
;
