#TITLE:光線歌;
#SUBTITLE:;
#ARTIST:Vivid BAD SQUAD × 初音ミク;
#TITLETRANSLIT:kousenka;
#SUBTITLETRANSLIT:;
#ARTISTTRANSLIT:Vivid BAD SQUAD Hatsune Miku;
#GENRE:POP;
#CREDIT:;
#MUSIC:kousenka.ogg;
#BANNER:kousenka.png;
#BACKGROUND:kousenka-bg.png;
#CDTITLE:;
#SAMPLESTART:48.396;
#SAMPLELENGTH:14.348;
#SELECTABLE:YES;
#OFFSET:1.604;
#BPMS:0.000=138.000;
#STOPS:52.000=0.217
,52.500=0.217
;
#LASTBEATHINT:1.341712;
#BGCHANGES:2.500=kousenka.avi=1.000=0=0=0=StretchNoLoop====,
99999.000=-nosongbg-=1.000=0=0=0=StretchNoLoop====
;
#FGCHANGES:;

//--------------- dance-single - ----------------
#NOTES:
     dance-single:
     :
     Hard:
     12:
     0,0,0,0,0:
0000
0000
0000
0000
,
0000
0000
0000
0000
,
0002
0000
1003
0010
0200
0000
0301
1000
,
0020
0000
0130
0001
2000
0000
3100
0010
,
0002
0000
0013
0100
2000
0000
3001
0000
,
1100
0000
0101
0000
2010
0001
3001
0010
,
0200
0000
1300
0001
0020
0000
0130
1000
,
0002
0000
0103
0010
2000
0000
3001
0010
,
2000
0000
3010
0001
0200
0000
0310
0000
,
1010
0101
0011
2100
,
3010
0100
0010
1000
0001
0010
0100
0000
,
0100
1000
0001
0100
0010
0100
0001
0000
,
0001
1000
0010
0100
0001
0010
0100
0000
,
0220
0330
0000
0000
0000
0000
0000
0000
0000
0000
0000
0000
0000
0000
0000
0000
0000
0000
0000
0000
0000
0000
0000
0000
2002
3003
0000
0000
0000
0000
0000
0000
0000
0000
0000
0000
0000
0000
0000
0000
0000
0000
0000
0000
0000
0000
0000
0000
0001
0000
0000
0000
0000
0000
0000
0000
0000
0000
0000
0000
0000
0000
0000
0000
0000
0000
0000
0000
0000
0000
0000
0000
0010
0000
0000
0000
0000
0000
0000
0000
0000
0000
0000
0000
0000
0000
0000
0000
0000
0000
0000
0000
0000
0000
0000
0000
0100
0000
0000
0000
0000
0000
0000
0000
0000
0000
0000
0000
0000
0000
0000
0000
0000
0000
0000
0000
0000
0000
0000
0000
1000
0000
0000
0000
0000
0000
0000
0000
0000
0000
0000
0000
0000
0000
0000
0000
0000
0000
0000
0000
0000
0000
0000
0000
0001
0000
0000
0000
0000
0000
0000
0000
0000
0000
0000
0000
0000
0000
0000
0000
0010
0000
0000
0000
0000
0000
0000
0000
0000
0000
0000
0000
0000
0000
0000
0000
0100
0000
0000
0000
0000
0000
0000
0000
0000
0000
0000
0000
0000
0000
0000
0000
,
1000
0000
0001
0000
0010
0000
0100
0000
0000
0000
0000
0000
1000
0000
0000
0110
0000
0000
0001
0000
0000
1000
0000
0000
,
0100
0001
0100
1000
0001
0100
1000
0100
,
0001
1000
0001
0010
0100
1000
0001
1000
,
0010
0100
1000
0001
0010
1000
0001
0010
,
0100
1000
0001
0010
0100
1000
0010
0000
,
0010
0100
0000
0100
0001
2000
0000
3002
,
0000
0023
0000
0130
1000
0001
0100
0000
,
0100
0000
0100
0000
0100
0000
0100
0001
,
1000
0100
0010
0000
0010
0001
1000
0000
,
1000
0010
0000
1010
0000
1001
0000
0001
,
0010
1000
0000
1000
0010
0001
1000
0000
,
0001
0100
0010
0100
0001
1000
0100
0000
,
0100
0000
0100
1000
0001
0100
2000
0000
,
3200
0000
0000
0000
0000
0000
0301
0000
0000
0010
0000
0000
0100
0000
0000
0000
0000
0000
1000
0000
0100
0000
0010
0000
,
0001
0000
0010
0000
0100
0000
1000
0000
0000
0000
0000
0000
0001
0000
0000
1000
0000
0000
0100
0000
0000
0100
0000
0000
,
1000
0001
0010
0010
0100
1000
0001
0001
,
1000
0010
0100
0100
0010
1000
0001
0001
,
0010
0100
1000
1000
0010
0000
1010
0000
,
0101
0000
1002
0010
0013
0100
1000
0001
,
0100
1000
0100
0010
0100
0001
1000
0100
,
0010
0100
0001
0100
0010
0100
1000
0010
,
0001
0010
1000
0001
0100
1000
0200
0000
,
0302
0000
0023
0000
0130
1000
0001
0010
,
0100
1000
1100
0000
1001
0001
1000
0100
,
0100
0100
1000
0001
0100
0010
2000
0000
,
3001
0010
0100
1000
0100
0010
1100
0001
,
0100
0010
0101
1000
0001
0010
0200
0000
,
0001
0000
1300
0000
1000
0010
0100
1000
,
0100
0001
0010
1000
0001
0100
0110
0000
,
1000
0001
1001
0000
0001
0100
0110
0000
,
1010
0102
0010
2003
,
3010
0100
0001
0010
0100
1000
0010
0000
,
0010
0000
0010
0000
0010
1000
0001
0100
,
0001
0100
0001
0100
0001
0100
0001
0100
,
0001
0010
0100
0000
0100
1000
0001
0000
,
0001
1000
0010
0000
0100
0000
0110
0000
,
1010
0000
0101
0000
0001
0010
0100
1000
,
0100
0010
0000
0010
0001
1000
0000
2000
,
0000
3010
0100
0001
0010
0100
0010
0001
,
1000
0010
0100
0010
1000
0001
0010
1000
,
0001
0100
1000
0000
0110
0001
2000
0000
,
3001
0100
0002
0000
1003
0100
1000
0010
,
0100
0001
2000
0000
3001
0010
0200
0000
,
1300
0010
0100
0010
1000
0001
0010
0100
,
0010
0100
2000
0000
3001
0100
0020
0000
,
1030
0100
0020
0000
0031
0010
0100
1000
,
0100
1000
0002
0000
1003
0001
0200
0000
,
0310
1000
0001
0010
0100
0010
0001
0010
,
0100
1000
0002
0000
1003
0000
0010
0100
,
0010
0000
1000
0100
1000
0000
0001
0100
,
0001
0000
1000
0010
1000
0000
0001
0010
,
0001
0000
0010
0100
0010
0000
0100
1000
,
0100
0010
0001
0010
0100
1000
0000
0000
;

//--------------- dance-single - ----------------
#NOTES:
     dance-single:
     :
     Challenge:
     16:
     0.817467,0.942033,0.507352,0.033269,0.677856,688,627,61,4,0,0,0.817467,0.942033,0.507352,0.033269,0.677856,688,627,61,4,0,0:
0000
0000
0000
0000
,
0000
0000
0000
0000
,
0022
0033
2200
3300
,
2020
3030
0202
0303
,
0022
0033
2200
3300
,
2002
3003
0220
0330
1002
0100
0103
0001
,
0020
0000
0130
1000
0020
0000
0130
0001
,
2000
0000
3010
0100
0002
0000
0013
0100
,
0020
0000
0031
1000
0002
0000
0203
0000
,
0310
0000
0100
0000
1000
0000
0100
0000
0001
0000
1000
0000
0001
0010
0001
0010
,
0100
0000
0000
1000
0000
0000
0100
0000
0000
1000
0000
0000
0001
0000
0000
1000
0000
0000
0001
0000
0000
0010
0000
0000
0100
0000
1000
0000
0001
0000
1000
0000
0001
0000
1000
0000
0002
0000
0000
0000
0000
0000
0000
0000
0000
0000
0000
0000
,
0013
0000
0100
0000
1000
0000
0001
0100
0010
0100
0001
0000
1000
0000
0001
0010
,
0100
0000
1000
0000
0001
0000
1000
0100
0010
0100
1000
0000
0001
0000
0100
0010
,
0200
0300
0000
0000
0000
0000
0000
0000
0000
0000
0000
0000
0000
0000
0000
0000
0000
0000
0000
0000
0000
0000
0000
0000
2002
3003
0000
0000
0000
0000
0000
0000
0000
0000
0000
0000
0000
0000
0000
0000
0000
0000
0000
0000
0000
0000
0000
0000
0001
0000
0000
0000
0000
0000
0000
0000
0000
0000
0000
0000
1000
0000
0000
0000
0000
0000
0000
0000
0000
0000
0000
0000
0100
0000
0000
0000
0000
0000
0000
0000
0000
0000
0000
0000
0000
0000
0000
0000
0000
0000
0000
0000
0000
0000
0000
0000
0010
0000
0000
0000
0000
0000
0000
0000
0000
0000
0000
0000
0000
0000
0000
0000
0000
0000
0000
0000
0000
0000
0000
0000
0100
0000
0000
0000
0000
0000
0000
0000
0000
0000
0000
0000
1000
0000
0000
0000
0000
0000
0001
0000
0000
0000
0000
0000
1000
0000
0000
0000
0000
0000
0000
0000
0000
0000
0000
0000
0000
0000
0000
0000
0010
0000
0000
0000
0000
0000
0000
0000
0000
0000
0000
0000
0000
0000
0000
0000
0100
0000
0000
0000
0000
0000
0000
0000
0000
0000
0000
0000
0000
0000
0000
0000
,
0001
0000
0000
0000
0010
0000
0000
0000
0100
0000
0000
0000
1000
0000
0000
0000
0000
0000
0001
0000
0000
0000
0000
0000
0100
0000
0000
0000
0000
0000
1001
0000
0000
0000
0000
0000
0001
0000
0000
1000
0000
0000
0100
0000
0000
0010
0000
0000
,
0100
1000
0001
0010
0001
1000
0001
0100
0010
1000
0001
0010
0001
1000
0001
0100
,
0010
1000
0001
0010
0100
1000
0001
1000
0010
0100
0001
1000
0010
0001
0010
1000
,
0001
0100
0010
0100
0001
0010
1000
0010
0001
0100
0010
1000
0001
0000
0010
0000
,
0100
0000
0000
0000
1000
0000
0000
0000
0001
0100
0001
0000
1000
0000
0100
0000
0010
0000
0000
0000
0100
0000
0000
0000
1100
0000
0000
0000
0000
0000
0000
0000
,
0001
0101
0000
1001
0010
0110
0000
0110
,
0000
0000
0000
0000
0000
0000
1001
0000
0000
0000
0000
0000
0000
0000
0000
0000
0000
0000
0001
0000
0000
0000
0000
0000
1000
0000
0000
0000
0000
0000
0001
0000
0100
0000
0001
0000
0100
0000
0000
0000
0000
0000
0010
0000
0000
1000
0000
0000
,
0100
0000
0010
0001
0100
0010
1000
0001
0010
0000
0100
0000
1100
0000
1000
0010
,
0001
0000
1000
0100
0001
1000
0100
0010
0001
0000
1000
0100
1100
0000
0000
0000
,
0001
0101
0000
0011
0000
1001
0000
1100
,
0010
0101
0000
0001
0100
1000
0100
0001
,
1000
0000
0001
0010
0100
1000
0010
0000
0100
0000
0001
0010
1000
0000
0010
0000
,
0001
0000
1000
0001
1000
0010
0100
0000
1000
0000
0100
0001
1000
0000
0001
0010
,
0100
0000
0000
0000
0000
0000
0000
0000
0000
0000
0000
0000
1000
0000
0000
0100
0000
0000
1000
0000
0000
0000
0000
0000
0001
0000
0000
0000
0000
0000
0100
0000
0000
0000
0000
0000
0010
0000
0000
0000
0000
0000
1000
0000
0000
0000
0000
0000
0100
0000
0000
0000
0000
0000
0010
0000
0000
0000
0000
0000
0001
0000
0000
0000
0000
0000
1000
0000
0000
0000
0000
0000
0001
0000
0000
0000
0000
0000
0000
0000
0010
0000
0000
0000
0000
0000
0000
0000
0100
0000
0000
0000
0000
0000
0000
0000
,
1000
0000
0000
0000
0000
0000
0000
0000
0010
0000
0000
0000
0000
0000
0000
0000
0100
0000
0000
0000
0000
0000
0000
0000
0001
0000
0000
1000
0000
0000
0001
0000
0000
0000
0000
0000
0010
0000
0000
0000
0000
0000
0000
0000
0000
0000
0000
0000
0100
0000
0000
0000
0000
0000
0000
0000
0000
0000
0000
0000
1000
0000
0000
0000
0000
0000
0000
0000
0000
0000
0000
0000
0101
0000
0000
0000
0000
0000
0000
0000
0000
0000
0000
0000
0101
0000
0000
0000
0000
0000
0000
0000
0000
0000
0000
0000
,
1000
0001
1100
1100
0010
0100
1001
1001
,
0100
0001
1010
1010
0001
1000
0011
0011
,
0100
1000
0110
0110
1000
0000
0022
0033
,
2200
0000
3300
0000
1002
0000
0100
0000
0103
0000
0010
0000
1000
0000
0001
0010
,
0100
0000
0010
0001
1000
0000
0001
0100
1000
0100
0010
1000
0001
0000
1000
0100
,
0001
0000
0100
0010
0001
1000
0001
0100
0010
0000
1000
0000
0001
0010
0100
1000
,
0001
1000
0100
0010
0001
0010
1000
0010
0001
1000
0100
0010
0001
0000
0001
0010
,
0100
0000
0100
1000
0001
0100
0010
0000
0100
0000
0001
0000
1001
0000
1000
0100
,
0020
0000
1030
0000
0010
0001
0100
0010
0001
0000
0010
0000
2000
0000
3001
0010
,
0200
0000
0301
0000
0100
1000
0010
0100
1000
0000
0100
0000
0002
0000
1003
0001
,
0020
0000
1030
0000
0010
0001
1000
0010
0001
0000
0010
0000
1010
0000
1000
0000
,
0101
0000
0001
0000
1100
0000
1000
0100
0010
0000
0001
1000
0001
0100
0010
0200
,
1000
0000
0000
0000
0301
0000
1000
0100
0001
0000
0100
1000
0010
0000
1000
0010
,
0001
0000
0010
0000
0110
0000
0100
0001
1000
0000
0100
0000
0011
0000
1000
0010
,
0100
0000
0001
0000
1010
0000
0001
0010
0100
0000
1000
0000
0110
0000
0001
0010
,
0100
0000
0010
0200
1000
0000
1300
0000
0001
1000
0100
0010
0002
0000
0100
0000
,
1003
0000
0000
0010
0000
0000
2000
0000
0000
0010
0000
0000
3001
0010
0100
1000
0001
0010
0100
0000
0000
0000
0000
0000
,
0100
0000
0100
0000
1000
0001
0101
0101
,
0100
0100
0110
0110
0100
0100
1100
1100
,
0100
0001
0012
0010
1003
0010
0201
0001
,
0310
1000
2010
0010
3001
0010
1100
1000
,
0101
0000
0001
0000
1010
0000
1000
0010
0100
0000
0001
0000
1000
0000
0001
0010
,
1000
0000
0020
0000
0001
0000
0031
1000
0010
0000
0200
0000
1000
0000
1300
0100
,
0001
0000
0002
0000
1000
0000
1003
0100
0010
0000
0001
0000
1100
0000
0001
0010
,
0100
0000
1000
0000
0101
0000
1000
0010
0100
0000
0001
0000
1000
0000
1000
0000
,
0001
0000
0010
0000
0100
0000
1000
0000
1001
0000
0001
0000
0100
0000
0010
1000
,
0001
0000
0000
0000
0000
0000
1000
0000
0100
0000
1000
0000
0100
0000
0000
0000
0000
0000
0010
0000
0000
0001
0000
0000
1000
0000
0000
0000
0000
0000
0100
0000
0000
0000
0000
0000
0001
0000
0000
0000
0000
0000
0100
0000
0000
1000
0000
0000
,
0010
0000
0000
0000
0000
0000
0100
0000
0001
0000
0100
0000
0001
0000
0000
0000
0000
0000
0010
0000
0000
0100
0000
0000
0010
0000
0000
0000
0000
0000
1000
0000
0000
0000
0000
0000
0001
0000
0000
0000
0000
0000
0100
0000
0000
1000
0000
0000
,
0001
0000
0000
0000
0000
0000
0100
0000
0000
0000
0000
0000
1000
0000
0000
0100
0000
0000
0001
0000
0000
0010
0000
0000
0100
0000
0000
0000
0000
0000
1000
0000
0001
0000
1000
0000
0001
0000
0000
0000
0000
0000
0010
0000
0000
0000
0000
0000
,
1100
0000
0010
0000
0101
0000
0100
0010
1001
0000
0001
0000
1000
0000
0010
0100
,
0010
0000
0000
0000
0000
0000
1000
0000
0100
0000
0010
0000
0001
0000
0000
0000
0000
0000
0001
0000
0000
0010
0000
0000
0100
0000
0000
0000
0000
0000
1000
0000
0000
0000
0000
0000
0001
0000
0000
0000
0000
0000
0100
0000
0000
1000
0000
0000
,
0100
0000
0000
0000
0000
0000
0001
0000
0010
0000
0100
0000
1000
0000
0000
0000
0000
0000
1000
0000
0000
0100
0000
0000
0010
0000
0000
0000
0000
0000
0001
0000
0000
0000
0000
0000
1000
0000
0000
0000
0000
0000
0010
0000
0000
0100
0000
0000
,
0001
0000
0000
0000
0000
0000
1000
0000
0000
0000
0000
0000
0001
0000
0000
0010
0000
0000
0100
0000
0000
1000
0000
0000
0001
0000
0000
0000
0000
0000
0100
0000
0010
0000
0100
0000
0010
0000
0000
0000
0000
0000
1000
0000
0000
0001
0000
0000
,
0010
0000
0100
0000
1000
0100
0010
0001
1000
0000
0001
0000
0100
0000
0010
0000
,
1000
0000
0001
0010
0100
0000
0010
0001
,
1000
0000
0001
0100
1000
0000
0100
0001
,
0010
0000
0100
1000
0001
0000
1000
0100
,
0010
0001
0010
0100
1000
0001
0000
0000
;
