#TITLE:君の知らない物語;
#SUBTITLE:;
#ARTIST:supercell;
#TITLETRANSLIT:kimi no shiranai monogatari;
#SUBTITLETRANSLIT:;
#ARTISTTRANSLIT:supercell;
#GENRE:ANIME;
#CREDIT:;
#MUSIC:kimi no shiranai monogatari.ogg;
#BANNER:kimi no shiranai monogatari.png;
#BACKGROUND:kimi no shiranai monogatari-bg.png;
#CDTITLE:;
#SAMPLESTART:54.919;
#SAMPLELENGTH:13.455;
#SELECTABLE:YES;
#OFFSET:-0.024;
#BPMS:0.000=165.000
,51.000=82.500
,67.000=165.000
;
#STOPS:34.500=0.364;
#BGCHANGES:0.000=kimi no shiranai monogatari.avi=1.000=0=0=0=StretchNoLoop====,
99999.000=-nosongbg-=1.000=0=0=0=StretchNoLoop====
;
#FGCHANGES:;

//--------------- dance-single - ----------------
#NOTES:
     dance-single:
     :
     Hard:
     12:
     0,0,0,0,0:
0000
0000
0000
0000
,
0001
0100
0010
0100
0001
0100
1000
0100
,
0001
0010
0100
0010
0001
0010
1000
0010
,
0001
0100
0010
0100
0001
0010
0100
0010
,
0011
1010
1100
0101
,
1000
0100
0010
0100
1000
0100
0001
0100
,
1000
0010
0100
0010
1000
0010
0001
0010
,
1000
0100
0010
0110
0000
0010
0001
1001
,
0000
0001
0100
0110
0000
0110
1000
0010
,
0100
0010
1000
0100
0010
0100
1000
0001
,
0100
1000
0000
1000
0100
0001
0010
0100
,
0010
0001
0100
0010
0100
0002
0000
1003
,
0100
0000
1000
0000
0001
0000
0100
0000
0001
0000
0100
0000
0010
1000
0001
0010
,
0100
0010
0001
0100
0010
0100
0001
1000
0000
0101
0000
0100
0001
0010
0100
1000
,
0001
1000
0001
0100
0001
1000
0100
0010
0000
0110
0000
0000
0200
0000
1000
0000
,
2300
0000
0010
0000
3020
0000
0100
0000
0230
0000
0301
0010
0200
0000
1000
0000
,
1300
0010
0001
0020
1000
0000
0100
0000
0001
0000
0100
0000
1030
0000
0001
0000
,
0010
0001
1000
0001
0010
0001
1000
0100
,
0010
0001
0000
1001
0000
1000
0001
1000
,
0100
1000
0001
1000
0100
0010
0001
0100
,
0001
1000
0000
1100
0000
0000
2000
0000
,
0001
3020
1000
0230
,
0001
0302
1000
0023
,
0001
0230
0001
2300
,
0010
3002
1000
0203
,
0310
1000
0010
1000
0001
0100
0001
1000
,
0100
1000
0010
0100
0001
1000
1010
0000
,
0110
0000
0101
0000
0001
0010
0100
1000
,
0100
0010
0001
0000
0101
0000
1000
0000
,
1010
0100
0110
0001
,
0011
0000
1100
0000
0100
0010
0011
0000
,
0011
1010
1010
0101
,
0101
0000
1100
0000
1100
0010
0001
0000
,
0001
0100
2000
0000
3100
0001
0020
0000
,
0130
2000
0000
3020
0000
0130
0110
0010
,
1000
0010
0100
0010
1000
0010
0100
0001
,
0010
0001
0100
0001
0010
0001
1000
0100
,
0010
0100
1000
0100
0010
0100
1000
0001
,
0010
1000
0010
0110
0110
0000
0010
0001
,
1000
0001
0010
0001
1000
0010
0100
0010
,
0001
0010
0100
0010
0110
0000
1010
0000
,
0100
0001
0011
0000
0010
0100
1100
0000
,
1000
0001
0101
0000
0001
0010
0110
0000
,
0100
1000
0010
1000
0100
0010
1000
0010
,
0001
1000
0001
0100
1000
0100
0001
0000
,
0001
0010
0100
0010
0001
0100
0010
0001
,
0010
1000
0200
0010
0310
0000
0110
0000
,
0100
1000
0010
0000
0100
0001
0010
0000
,
0100
1000
0001
0000
0100
0001
1000
0000
,
0100
1000
0010
0000
2001
0000
3020
0000
,
0100
0100
0032
0000
0013
0100
2000
0000
,
3010
0010
0100
0100
0001
0001
0010
0010
,
0100
0100
1000
0001
1000
0001
0011
0000
,
1000
1010
0000
0010
0102
0000
0103
0010
,
0100
0110
0000
1001
0000
0001
0200
0000
,
0000
0000
0000
0300
;

//--------------- dance-single - ----------------
#NOTES:
     dance-single:
     :
     Challenge:
     15:
     0.363445,0.289898,0,0,0,233,233,0,0,0,0,0.363445,0.289898,0,0,0,233,233,0,0,0,0:
0000
0000
0000
0000
,
0101
0000
0001
0100
0010
0000
1000
0000
0001
0010
0100
0000
0010
0000
0001
0000
,
1001
0000
1000
0100
0010
0000
0001
0000
1000
0010
0100
0000
0010
0000
1000
0000
,
1001
0000
0001
0100
0010
0000
0110
0000
1000
0100
0010
0000
0011
0000
0001
0000
,
1001
0000
0000
1000
0100
1000
0100
0000
0010
0000
0001
0100
0001
0100
0010
0000
,
0110
0000
0100
0001
1000
0000
0100
0000
0010
0001
1000
0000
1001
0000
0100
0000
,
0110
0000
0010
1000
0001
0000
0010
0000
0100
1000
0001
0000
0011
0000
0110
0000
,
1100
0000
0100
1000
0010
0000
0110
0000
0000
0000
0100
0000
0101
0000
0011
0000
,
0000
0000
0001
0000
0011
0000
0110
0000
0000
0000
1001
0000
1001
0000
1000
0100
,
1000
0000
0001
0000
1000
0010
1000
0010
0100
0000
0001
0000
1000
0000
0001
0010
,
0001
0000
0010
0000
0100
0000
1000
0000
0100
0010
0001
0010
1000
0000
0010
0000
,
0100
0000
0001
0000
0100
1000
0010
0000
0110
0000
0101
0000
0000
0000
0100
0000
,
0001
0000
0101
0000
1000
0000
1100
0000
0010
0000
0101
0000
0110
0010
1000
0010
,
0100
0001
0100
1000
0100
0010
0110
0110
0000
1001
0000
1000
0001
0010
0100
0100
,
1000
1000
0100
0001
0100
1000
0010
1010
0000
0101
0000
0000
0200
0000
0001
1300
,
0020
0000
1000
0031
0200
0000
0001
1300
0020
0000
1000
0031
0200
0000
1300
0100
,
0001
0010
0001
0020
1000
0000
0031
1000
0001
1000
0010
0100
0001
0000
0010
0001
,
0010
0000
0100
0000
0010
0001
0010
0000
0100
0000
1000
0001
1000
0000
0010
1000
,
0010
0000
0100
0000
0001
0000
0011
0000
1100
0000
0000
0000
1001
0000
1000
0010
,
1000
0000
0001
0000
1000
0010
1000
0000
0001
0000
0100
0010
0100
0000
0001
1000
,
0001
1000
0010
1010
0101
0000
2000
0000
,
0010
0000
3010
0100
0002
0000
0000
0000
0010
0000
0013
0100
2000
0000
0000
0000
,
0001
0000
3001
0100
0020
0000
0000
0000
1000
0000
1030
0001
0200
0000
0000
0000
,
0010
0000
0310
1000
0002
0000
0000
0000
1000
0000
1003
0010
0200
0000
0000
0000
,
0001
0000
0301
0010
2000
0000
0000
0000
0010
0000
3010
0001
0100
0000
0000
0000
,
1010
1000
1001
1000
0101
0001
1001
0001
,
1010
0100
0011
0011
1100
1100
1001
0000
,
0110
0000
0000
0000
0101
0000
0001
0100
0010
0000
0100
0000
0010
1000
0100
0000
,
0010
0000
0100
1000
0001
0000
1000
0000
1100
0000
0000
0000
1010
0000
1000
0010
,
0100
0000
0001
0000
1000
0000
0001
0010
0100
0000
0010
0000
0001
0000
0100
0000
,
1000
0000
0100
0001
0020
0000
0130
0000
0110
0000
0000
0000
0011
0000
0001
0000
,
0011
0001
1010
1000
1010
1000
0101
0001
,
0101
0000
0001
0000
1100
0000
1000
0000
1100
0000
1000
0000
1001
0000
0001
0010
,
0001
0010
0100
0010
1000
0000
0010
0000
0001
0100
0010
0100
2000
0000
0000
0000
,
3200
0000
0302
0000
0000
0000
0023
0000
0000
0000
0130
0000
0110
0000
0010
0001
,
1000
0000
0010
0000
0100
0001
1000
0000
0100
0000
0010
0001
0010
0000
0100
0010
,
0001
0010
0100
0000
1000
0000
0001
0100
0010
0100
0001
0100
0010
0000
1000
0000
,
0001
0010
0100
0000
1000
0000
0100
0010
0001
0000
0100
0000
0010
0100
1000
0100
,
0010
0000
0100
0000
0001
0020
0100
0000
0130
0000
0000
0000
0110
0000
0100
1000
,
0010
0000
0001
0000
0010
0000
1000
0100
0010
0000
1000
0000
0010
0000
0001
0100
,
0001
0000
0100
0000
0010
0000
1000
0100
0010
0000
0001
0000
0011
0000
0000
0000
,
0110
0000
1000
0010
0100
0000
0000
0000
0110
0000
0100
0001
0010
0000
0000
0000
,
1001
0000
0000
0000
0000
0000
0001
0000
0000
0010
0000
0000
0001
0000
0010
0000
0100
0000
0010
0000
0000
0100
0000
0000
1000
0000
0000
0010
0000
0000
0100
0000
0000
0000
0000
0000
0101
0000
0000
0000
0000
0000
0000
0000
0000
0000
0000
0000
,
1010
0000
0010
1000
0001
0000
0100
0000
0001
0000
0010
0100
1000
0000
0100
0010
,
0001
0000
1000
0010
0100
0000
0001
0100
0010
0000
1000
0000
0001
0000
0100
0000
,
0010
1000
0001
0000
0010
0000
0001
0100
1000
0000
0100
0000
0001
0000
1000
0000
,
0100
0010
0100
0010
0002
0000
1000
0000
1003
0000
0000
0000
0110
0000
0000
0000
,
1001
0010
0100
0000
0100
0001
1010
0000
,
0110
1000
0001
0000
0001
0010
1100
0000
,
1001
0010
0100
0000
0110
1000
0002
0000
,
0013
0000
0100
0000
2000
0000
0000
0000
3010
0000
0100
0001
0020
0000
0000
0000
,
1130
1000
1100
0100
0110
0010
0011
0001
,
1001
0000
1001
0000
1010
0000
1010
0000
0110
0000
0110
0000
1001
0000
0001
0100
,
0010
0000
0110
0000
0010
1000
0100
0000
0110
0000
0010
0001
1000
0000
1000
0100
,
0010
0001
1001
0000
0000
0000
0110
0000
0000
0000
0001
0000
0200
0000
0000
0000
,
0000
0000
0000
0300
;
