#TITLE:風の音さえ聞こえない;
#SUBTITLE:;
#ARTIST:JUNNA;
#TITLETRANSLIT:kaze no oto sae kikoenai;
#SUBTITLETRANSLIT:;
#ARTISTTRANSLIT:JUNNA;
#GENRE:ANIME;
#CREDIT:;
#MUSIC:kaze no oto sae kikoenai.ogg;
#BANNER:kaze no oto sae kikoenai.png;
#BACKGROUND:kaze no oto sae kikoenai-bg.png;
#CDTITLE:;
#SAMPLESTART:53.412;
#SAMPLELENGTH:9.143;
#SELECTABLE:YES;
#OFFSET:0.302;
#BPMS:0.000=210.000;
#STOPS:;
#BGCHANGES:0.500=kaze no oto sae kikoenai.avi=1.000=0=0=0=StretchNoLoop====,
99999.000=-nosongbg-=1.000=0=0=0=StretchNoLoop====
;
#FGCHANGES:;

//--------------- dance-single - ----------------
#NOTES:
     dance-single:
     :
     Medium:
     12:
     0,0,0,0,0:
0000
0000
0000
0000
,
1001
1001
0010
0010
,
0100
0010
0100
0000
0001
1000
0001
0000
,
1001
0000
1001
0000
0010
0000
0100
0010
,
0100
0000
0001
0000
1000
0001
1000
0000
,
0110
0000
0110
0000
0100
0000
1000
0001
,
0100
0000
0010
1000
0001
1000
0100
0000
,
0110
0000
1001
0000
0001
0000
1000
0100
,
0010
0001
1000
1001
,
0001
0000
1000
0100
0000
0010
0001
1000
,
0000
0000
0100
0010
0000
0100
1000
0001
,
0000
0000
0100
0000
0000
0010
1000
0010
,
0000
0100
0001
0100
0000
0001
1000
0000
,
0100
0000
1000
0001
0000
0100
0001
1000
,
0000
0000
0100
0010
0000
0010
0001
0100
,
0000
0100
0001
1000
0000
1000
0100
0010
,
0000
0000
0001
0000
0100
0001
0100
0001
,
1000
0000
1100
0000
0100
0000
1000
0001
,
1000
0000
0001
0100
0000
0100
0000
0010
,
0000
1000
0100
0000
0010
0000
0011
0000
,
1100
0000
1010
0000
1000
0001
0100
0000
,
0010
0000
1000
0001
0010
0000
0100
0000
,
1000
0000
0001
0100
0000
0010
0000
0010
,
0000
1000
0001
0000
0010
0000
0100
0000
,
0010
0100
0010
0100
1000
0000
1001
0000
,
0001
0000
0100
1000
0000
0100
0001
0010
,
0000
0100
1000
0010
0100
0001
1000
0000
,
1000
0000
0100
0001
0000
0100
1000
0010
,
0000
0100
0001
0010
0100
1000
0001
0000
,
0001
0000
0100
1000
0000
0100
0010
0100
,
0000
0001
0010
0100
1000
0001
0010
0000
,
0100
0000
1000
0010
0000
0100
0010
0000
,
0001
0010
1000
0100
0010
0001
1000
0000
,
0001
0001
0101
0010
,
1000
0000
1000
0000
1001
0000
0001
0100
,
0001
1000
0010
0010
,
1000
0000
0001
0000
0100
0010
1001
0000
,
0100
0000
0010
0100
0000
0100
0000
0001
,
0000
0001
1000
0001
0010
0000
0010
0000
,
0100
0000
0100
1000
0001
0100
0000
0100
,
0000
1000
0000
0100
0001
1000
0100
0010
,
0001
0001
1000
1000
,
0010
0000
0100
0001
1000
0000
0100
0000
,
1000
0000
0001
0100
0000
1000
0100
0000
,
0001
0010
0000
1000
0010
0000
0110
0000
,
0010
0001
0010
0001
1000
0000
0010
0100
,
0000
0100
0000
0100
0010
0000
0110
0000
,
0001
0100
0001
0000
0001
0010
0001
0000
,
0001
0100
0010
0100
0001
0010
0110
0000
,
1000
0100
1000
0000
1000
0010
1000
0000
,
1000
0100
0010
0100
1000
0010
0110
0000
,
1010
0110
0101
0110
,
0011
0110
1100
1001
,
1000
0100
0010
0000
0001
0010
0100
0000
,
1000
0100
0010
0001
0010
0100
1000
0000
,
1001
0101
1001
0101
,
1001
0000
0110
0000
0010
0100
0010
0000
,
1001
1100
1001
1100
,
1001
0000
0110
0000
0100
0010
0100
0000
,
1010
0000
0100
0001
0010
0000
1100
0000
,
0011
0000
0100
1000
0010
0000
0100
0000
,
0001
0000
1000
0100
0000
0010
0001
0000
,
1000
0010
0000
0100
0001
0010
0100
1000
,
0001
0000
0101
0000
0100
0001
0010
0000
,
0100
0000
0010
0000
0100
1000
0010
0000
,
0100
1001
0010
1001
,
0001
1000
0001
1000
0001
1000
0010
0000
,
0110
0000
0100
0001
0000
1000
0000
0100
,
0110
0000
0000
0000
,
0001
0000
0001
1000
0000
1000
0001
0100
,
0000
0100
0010
0000
0010
1000
0001
0000
,
1000
0000
1000
0100
0000
0100
0010
0001
,
0000
0001
1000
0000
1000
0010
0100
0000
,
0010
0000
0010
1000
0000
1000
0000
0001
,
0000
0001
0010
0000
0010
0100
1000
0000
,
0001
0000
0001
0100
0000
0100
0001
1000
,
0000
1000
0100
0000
0100
1000
0001
0000
,
0100
0000
0100
0010
0000
1010
0000
0101
;

//--------------- dance-single - ----------------
#NOTES:
     dance-single:
     :
     Hard:
     15:
     0,0,0,0,0:
0000
0000
0000
0000
,
1001
0000
0110
0000
0010
0100
0010
0000
,
0100
0010
0100
0000
0010
1000
0001
0000
,
0110
0000
1001
0000
0001
1000
0001
0100
,
0001
1000
0001
0000
0010
0100
0010
0000
,
1001
0000
0110
0000
0010
0100
0001
1000
,
0100
0010
0001
0100
0010
1000
0001
0010
,
0110
0000
1001
0000
0001
0100
0010
0100
,
0010
1000
0001
1000
0001
0010
1001
0000
,
0001
0100
0100
1000
0100
0100
0001
0011
,
0000
0010
0001
1000
0001
0100
0010
1010
,
0000
0000
1000
0100
0001
0100
1000
0001
,
0010
0010
0100
0100
1000
0001
1000
0001
,
0100
0100
1000
0100
0100
0001
1000
1010
,
0000
0100
0001
0010
1000
0001
0100
0110
,
0000
0100
1000
1001
0000
0001
1000
0010
,
0100
0100
0100
0001
0010
0010
0100
0100
,
1100
0000
0110
0000
1000
0001
0100
0010
,
1010
0000
0010
0100
0001
0100
0010
1000
,
0001
0010
0100
0000
0100
1000
0011
0000
,
1100
0000
1001
0010
0100
0010
1001
0000
,
0110
0000
0100
0001
0101
0000
1010
0000
,
0001
0010
0100
1000
0100
0010
0001
0010
,
0100
1000
0010
0010
0001
0100
0100
1000
,
0010
0100
0010
0100
0110
0000
1001
0000
,
0100
0100
0001
0001
0100
0100
0001
0001
,
0101
0100
0101
0001
0101
0100
0101
0001
,
1001
1000
0100
0100
1000
1000
0100
0100
,
1100
1000
1100
0100
1100
1000
1100
0100
,
0110
0010
0100
0100
0010
0010
0100
0100
,
0110
0010
0110
0100
0110
0010
0110
0010
,
0011
0001
1000
1000
0001
0001
1000
1000
,
1001
0001
1001
1000
1001
0001
0010
0010
,
0110
1001
0011
0110
,
0110
0000
1000
0001
1000
0000
0010
0100
,
0001
0000
0001
1000
0100
0000
0100
0010
,
0001
0000
0001
1000
0001
0100
0110
0000
,
0100
0001
1010
0100
0001
0100
1010
0001
,
0010
0001
1100
0010
0001
0010
1100
0000
,
0100
1000
0011
0100
1000
0100
0011
1000
,
0010
1000
0101
0001
1000
1000
0010
0010
,
0100
0110
0101
0110
,
0001
0100
0001
0100
1001
0000
0001
1000
,
0100
0100
0010
0100
0100
1000
0001
0100
,
0100
0010
0100
0100
0001
0000
1001
0000
,
0010
0100
0010
0100
0001
1000
0001
1000
,
0100
0100
0100
0100
0100
0100
0110
0000
,
0001
0100
0101
0100
0001
0010
0011
0010
,
0001
0100
0101
0100
0001
0010
0110
0000
,
1000
0010
1010
0010
1000
0100
1100
0100
,
1000
0010
0110
0010
1000
0001
0011
0010
,
0100
0000
1010
0010
0100
0000
0011
0010
,
0100
0000
1010
0010
0100
0000
0011
0000
,
1100
1010
0101
1001
,
0001
0100
0010
0100
0001
0010
0100
1000
,
0001
0001
0100
0100
0010
0010
1000
1000
,
1001
0001
0101
0100
0110
0010
1010
1000
,
1001
0001
0010
0010
0100
0100
1000
1000
,
1001
0001
0011
0010
0110
0100
1100
1000
,
1001
0000
1001
1000
0010
0000
0110
0100
,
0001
0000
1001
0001
0010
0000
0100
1000
,
0000
1100
1100
0000
0101
0101
0000
1010
,
1010
0000
0011
0011
0001
0010
0100
1000
,
1010
0000
1001
0000
0100
0001
0011
0000
,
0010
0100
1000
0010
0100
0010
1000
0001
,
0100
0010
0110
0000
0100
0010
0110
0000
,
0001
1000
0001
1000
0001
1000
1001
0000
,
0001
0100
0100
1000
0001
0100
0010
0100
,
0110
0000
0000
0000
,
0101
0000
0001
0100
0000
0100
1000
0100
,
0000
0100
0001
0010
0100
1000
1100
0000
,
1000
0100
0001
0100
0000
0100
1000
0010
,
0000
0010
0100
0010
0001
0010
1010
0000
,
0010
1000
0001
1000
0000
1000
0100
0001
,
0000
0001
0100
1000
0010
0100
0110
0000
,
0001
0100
0010
0100
0000
0100
0001
0011
,
0000
0010
0100
1000
0001
0010
0110
0000
,
1000
0001
0100
0110
0000
0110
0000
1001
;

//--------------- dance-single - ----------------
#NOTES:
     dance-single:
     :
     Challenge:
     18:
     0.977029,0.734923,0,0,0,616,616,0,0,0,0,0.977029,0.734923,0,0,0,616,616,0,0,0,0:
0000
0000
0000
0000
,
1001
0000
0110
0000
0010
1000
0001
0000
,
0010
0001
1000
0000
0010
1000
0001
0000
,
0110
0000
1001
0000
0100
1000
0001
0100
,
0001
1000
0100
0000
0010
0001
1000
0000
,
1001
0000
0000
0000
0110
0000
0000
0000
0010
0000
0100
0000
0001
1000
0001
1000
,
0100
0000
0010
0000
0001
1000
0001
1000
0010
0000
0100
0000
0001
1000
0001
1000
,
0100
0000
0000
0000
1001
0000
0000
0000
0001
0100
0001
1000
0001
0010
0001
1000
,
0001
1000
0100
1000
0001
1000
0010
1000
0001
0010
0100
1000
0010
0000
0000
0000
,
0101
0000
0000
0000
0100
0001
1000
0000
0000
0000
0100
1000
0001
0000
0011
0000
,
0000
0000
0010
0000
0100
0000
1000
0000
0000
0000
0001
0100
0010
0000
0101
0000
,
0001
0000
0000
0000
1000
0000
0100
0000
0010
0000
0100
0000
1000
0000
0001
0100
,
0010
0100
0001
0000
1000
0100
0010
0000
0100
1000
0100
0010
0100
1000
0001
1000
,
0100
0000
0000
0000
0010
0001
1000
0000
0000
0000
0010
0100
0001
0000
0101
0000
,
0000
0000
0100
0000
0001
0000
0010
0000
0000
0000
0100
1000
0010
0000
0110
0000
,
0000
0000
0100
0001
1000
0000
1001
0000
0000
0000
0001
0010
0100
0000
0010
0000
,
0100
0000
1000
0001
0100
0000
0010
0000
0100
0001
1000
0000
1100
0000
1100
0000
,
1001
0000
0000
0000
0110
0000
0010
0000
1000
0000
0001
0000
0001
0000
0010
0100
,
0010
0011
0000
1100
0001
0100
0010
1000
,
0001
0010
0100
0010
0001
0010
0100
1000
0100
0000
1000
0000
0010
0000
0100
0001
,
1000
1010
0000
0101
0100
0010
1001
0000
,
0110
0000
0000
0000
0100
0000
0001
0000
0101
0000
0000
0000
1010
0000
0010
1000
,
0001
0011
0000
1100
0100
0010
0001
0010
,
0100
1000
0010
0100
0010
1000
0010
0100
0001
0000
0010
0000
0100
0000
1000
0100
,
0010
0100
1100
1001
0101
0100
0020
0000
,
0130
0000
0001
0010
0100
0000
1000
0000
0001
0000
1000
0010
0100
0000
0001
0000
,
1000
0000
0001
0010
0100
0000
1000
0000
0001
0010
0100
1000
0001
1000
0100
0010
,
0001
0000
1000
0010
0100
0000
0001
0000
1000
0000
0001
0010
0100
0000
1000
0000
,
0001
0000
1000
0010
0100
0000
0001
0000
1000
0010
0100
0001
1000
0001
0100
0010
,
1000
0000
0001
0100
0010
0000
1000
0000
0001
0000
1000
0100
0010
0000
0001
0000
,
1000
0000
0001
0100
0010
0000
1000
0000
0001
0010
0100
1000
0001
1000
0010
0100
,
0001
0000
1000
0010
1000
0000
0001
0100
0001
0000
1000
0010
1000
0000
0001
0010
,
0001
0000
1000
0100
1000
0000
0001
0010
0001
0000
1000
0000
1010
0000
0010
0000
,
0110
0000
1001
0000
0011
0000
0010
0100
,
0010
0100
1000
0001
1000
0000
0010
0100
,
0001
0000
0001
1000
0100
0000
0100
0010
,
0001
0000
0100
0000
0001
0000
1000
0000
0001
0100
0010
0000
0110
0000
0000
0000
,
1010
0000
1000
0010
1000
0010
0100
0000
0001
0000
1000
0100
1000
0100
0010
0000
,
0001
0000
0100
0010
0100
0010
1000
0000
0001
1000
0100
0000
0011
0000
0000
0000
,
0110
0000
0100
1000
0001
0000
0100
0000
0010
0000
0100
0001
1000
0000
0100
0000
,
0010
0000
0100
1000
0001
0000
0100
0001
1000
0000
1010
0000
0101
0000
0201
0000
,
0310
0000
1001
0000
0001
0101
0000
0110
,
0000
1100
0000
1100
0001
1000
0010
0100
,
0101
0001
0001
1100
1000
1000
0110
0010
,
0010
1001
1000
1000
0011
0000
0110
0000
,
0001
0000
0100
0000
0001
1000
0100
1000
0001
0000
0010
0000
0001
1000
0010
1000
,
0001
0000
0100
0010
1000
0001
0100
0001
1000
0100
0010
0001
1000
0000
0000
0000
,
1001
0000
1000
0100
0010
0000
0100
0000
1000
0000
0001
0100
0010
0000
0100
0000
,
0001
0000
1000
0100
0010
0000
0100
0010
0100
0000
0010
0001
1000
0000
0001
0000
,
0101
0000
0001
0010
0100
0000
1000
0000
1100
0000
1000
0010
0100
0000
0001
0000
,
0101
0000
0001
0010
0100
0000
0010
0001
1000
0000
1000
0000
0102
0000
0100
0000
,
0023
0130
2100
0100
3020
0130
0012
0010
,
0203
0310
2010
0010
3200
0310
0011
0000
,
1100
0000
1000
0000
0101
0000
0001
0000
1100
0000
1000
0000
0101
0000
0001
0100
,
0001
0000
1000
0010
1000
0000
0010
0100
0010
0000
0000
0010
1000
0000
1000
0100
,
0010
0001
0011
1000
1100
0001
0011
1000
,
1100
0000
0001
1000
0010
0000
0100
0001
0010
0000
0001
1000
0010
0000
0100
0000
,
0101
0010
1010
0100
0101
0010
1010
0100
,
0101
0000
0010
1000
0001
0000
0010
0001
0100
0000
0010
1000
0002
0000
0010
0000
,
0103
0000
0010
0001
2000
0000
0010
0000
3100
0000
0010
1000
0002
0000
0010
0000
,
0103
0000
0010
0001
2000
0000
0010
0000
3100
0000
0010
1000
0001
1000
0001
0010
,
0100
1100
1100
0001
0101
0101
1000
1010
,
1010
0001
0011
0011
0100
1000
0001
0010
,
0110
0000
1001
0000
0001
0100
0110
0000
,
1000
0000
0010
0000
0100
0000
0010
0000
1000
0100
0010
0100
1000
0000
0001
0000
,
1100
1000
1010
0000
0101
0001
0011
0000
,
0100
0000
1000
0100
1000
0000
0001
0100
0001
0000
1000
0000
1100
0000
0000
0000
,
0001
1000
1100
0001
0101
1010
0110
0101
,
1001
0000
0000
0000
,
0101
0000
0000
0000
1000
0000
1100
0000
0000
0000
0010
0000
0001
0000
0010
0100
,
0010
0100
1000
0001
0101
0100
0110
0000
,
1000
0000
0001
0000
0100
0010
0100
0001
0100
0000
0010
0000
1000
0000
0100
0000
,
0000
1100
0010
0010
0101
0001
1001
0000
,
0110
0000
1000
0000
0001
0000
1000
0000
0010
0000
0100
0010
0100
0000
0001
0000
,
0000
1000
0100
1000
0101
0100
0110
0000
,
0001
0000
1000
0100
1000
0010
1000
0000
0001
0000
1000
0000
0100
0000
0110
0000
,
0000
1000
0001
0001
0110
0100
1001
0000
,
1001
0000
0001
0010
0100
0000
0110
0000
0000
0000
0110
0000
0000
0000
1001
0000
;
