#TITLE:innocent arrogance;
#SUBTITLE:;
#ARTIST:BiSH;
#TITLETRANSLIT:innocent arrogance;
#SUBTITLETRANSLIT:;
#ARTISTTRANSLIT:BiSH;
#GENRE:Anime;
#CREDIT:;
#MUSIC:innocent arrogance.ogg;
#BANNER:innocent arrogance.png;
#BACKGROUND:innocent arrogance-bg.png;
#CDTITLE:;
#SAMPLESTART:1.458;
#SAMPLELENGTH:11.294;
#SELECTABLE:YES;
#OFFSET:1.366;
#BPMS:0.000=170.000;
#STOPS:;
#LASTBEATHINT:0.957644;
#BGCHANGES:6.500=innocent arrogance.avi=1.000=0=0=0=StretchNoLoop====,
99999.000=-nosongbg-=1.000=0=0=0=StretchNoLoop====
;
#FGCHANGES:;

//--------------- dance-single - ----------------
#NOTES:
     dance-single:
     :
     Easy:
     10:
     0,0,0,0,0:
0000
0000
0000
0000
,
0000
0000
0000
0000
,
0000
0000
0000
0000
,
0000
0000
0000
0000
,
0000
0000
0000
0000
,
0000
0000
0000
0000
,
0000
0000
0000
0000
,
0000
0000
0000
0000
,
0000
0000
0000
0000
,
0000
0000
0000
0000
,
2001
0000
3020
0000
,
0230
0000
0301
1000
0000
1000
0010
0000
,
0020
0000
2030
0000
,
3002
0000
0013
0100
0000
0100
1000
0000
,
0001
0100
0001
0000
0010
0100
0010
0000
,
0100
1000
0000
0001
0000
0001
0100
0000
,
0020
1030
2000
3001
,
0002
0000
0000
0100
0103
0000
0000
0000
,
2000
0000
3002
0000
,
0203
0320
0230
0302
,
1003
0000
1000
0000
0001
0100
0020
0000
,
0130
0000
0100
0000
0001
1000
0001
0000
,
0001
0000
0001
0000
0010
0100
2000
0000
,
3010
0000
0010
0000
1000
0001
2000
0000
,
3001
0011
1000
1100
,
0001
0101
1000
1010
,
0001
0000
1000
0000
0010
0100
0001
2000
,
0000
3002
0000
1003
0001
1000
0001
0000
,
1000
0100
0010
0002
0000
1003
0020
0000
,
0230
0000
0301
1000
0000
0001
0010
0100
,
1000
1000
0010
0100
,
0001
0000
1000
0100
0000
1000
0100
0000
,
1001
0001
0100
0010
,
1000
0000
0001
0100
0000
0001
0100
0000
,
0010
0000
1000
0100
0000
1000
0100
0010
,
0001
1000
0000
0001
0000
0001
0000
0100
,
0010
1001
0100
1001
,
0120
0000
0000
0100
0130
0000
0110
0000
,
1001
0000
0001
1000
0100
0000
0010
0000
,
0100
1000
0000
0010
0000
1000
0001
0000
,
0100
0001
0000
1000
0010
0000
0010
0100
,
0001
0010
0100
1000
,
1001
0000
0001
0100
0001
0000
0010
0000
,
0100
1000
0000
0100
1000
0000
0010
0000
,
0100
0000
0000
0000
0001
0000
0000
0000
1000
0000
0000
0010
0000
0000
0100
0000
,
0001
0000
0000
0000
,
0001
0000
1000
0100
1000
0000
0001
0100
,
0010
0000
0100
0001
1000
0000
0001
0010
,
0200
1000
0320
0001
,
0130
0000
1000
0000
0001
0100
0001
0100
,
0010
0000
1000
0100
1000
0000
0001
0010
,
0100
0000
0010
0001
1000
0000
0001
0100
,
0020
1000
0230
0001
,
0301
1000
0100
0000
0010
0001
1000
0000
,
0001
0000
0000
0100
0000
0000
0001
0000
1000
0000
0000
0000
1100
0000
0000
0000
,
1000
0000
0000
0010
0000
0000
1000
0000
0001
0000
0000
0000
0101
0000
0000
0000
,
0001
0000
0000
0010
0000
0000
0100
0000
2000
0000
0000
0000
0001
0000
0000
0000
,
3002
0000
0000
0000
1000
0000
0000
0000
0103
0000
0000
0100
0000
0000
0100
0000
,
0001
0010
0100
1000
,
0002
0000
2003
0000
,
3010
0000
0100
0001
0000
0100
0001
0000
,
0010
0000
0100
1000
0000
0100
1000
0000
,
0010
0000
0100
0001
0000
0001
1000
0000
,
0001
0000
1000
0001
0000
0001
0100
0010
;

//--------------- dance-single - ----------------
#NOTES:
     dance-single:
     :
     Medium:
     13:
     0,0,0,0,0:
0000
0000
0000
0000
,
0000
0000
0000
0000
,
0002
0000
2003
0000
,
3200
0000
0010
1000
,
2300
0000
3020
0000
,
0230
0000
0000
0000
0001
0000
0310
0100
,
0001
0010
0100
1000
0001
0100
0010
1000
,
0001
0010
0000
0100
0000
1000
0001
0100
,
0020
0230
0302
2003
,
3020
0000
0000
0100
0130
0000
0000
0000
,
0102
1000
0203
0010
,
0301
1000
0100
0010
0001
1000
1010
0000
,
2001
0001
3020
0100
,
1030
0100
0010
0100
1000
0100
0001
0100
,
1000
0001
0100
0010
0100
0001
1000
0100
,
0010
0100
0000
1000
0000
0010
0100
0001
,
0021
0130
2100
3020
,
0230
0000
0000
0001
0301
0000
1001
0000
,
2000
0000
3002
0000
,
0203
0320
0230
0302
,
1003
0000
0001
0100
0000
0001
0010
0000
0001
0000
1000
0100
0000
1000
0010
0000
,
1000
0000
0001
0010
0000
0001
1000
0000
0010
0000
0100
0001
2000
0000
0000
0000
,
3001
0000
0100
0010
0000
0100
0001
0000
0010
0000
0100
1000
0000
0100
0010
0000
,
0001
0000
1000
0000
0001
0000
0100
0000
0010
1000
0001
0000
0020
0000
0000
0000
,
0130
0000
1000
0000
0100
0000
0010
0000
0100
0000
1000
0001
1000
0000
0010
0000
,
0100
0000
0001
0000
0100
0000
0010
0000
1000
0000
0100
0010
0200
0000
0000
0000
,
1300
0001
0100
0001
0010
0100
1000
0020
,
0000
0130
0100
0001
0001
1000
1000
0100
,
0010
0001
0010
0200
0000
1300
0002
0000
,
0103
0010
1000
0001
0010
0100
1000
0001
,
1001
0000
1000
0010
0000
0010
0100
0000
,
0001
0010
0100
1000
0100
0010
0001
0000
,
1001
0000
0001
0100
0000
0100
0010
0000
,
1000
0010
0100
0001
0100
0010
1000
0000
,
0001
0010
1000
0010
0001
0100
1000
0100
,
0001
1000
0000
0001
0000
0001
0010
0100
,
1100
0011
0101
1010
,
1002
0000
0000
0100
0103
0000
0110
0000
,
1001
0000
0001
0100
0001
0000
0010
0000
,
0100
1000
0000
0001
0000
0100
0010
0000
,
0100
0001
0000
0100
0001
0010
0100
1000
,
0001
0000
1000
0000
0010
0100
0000
0100
,
0110
0000
1000
0001
0100
0000
0010
0000
,
0010
1000
0000
1000
0001
0000
0010
0000
,
0100
1000
0001
0100
1000
0001
0010
1000
,
0100
0010
0100
0010
0100
0000
0000
0000
0000
0000
0000
0000
0000
0000
0000
0000
,
1001
0000
0000
0100
0000
0000
0010
0000
1010
0000
0000
0100
0000
0000
0001
0000
,
0011
0000
0000
0100
0000
0000
1000
0000
1001
0000
0000
0010
0000
0000
0100
0000
,
0101
0000
0000
0001
0000
0000
0010
0000
0100
0000
1000
0000
0001
0000
0100
0000
,
0110
0000
0000
1000
0000
0000
0001
0000
0110
0000
0100
0000
0010
0000
0100
0000
,
0110
0000
0000
0001
0000
0000
1000
0000
1100
0000
0000
0010
0000
0000
0001
0000
,
1001
0000
0000
0100
0000
0000
0010
0000
1010
0000
0000
0100
0000
0000
0001
0000
,
0011
0000
0000
1000
0000
0000
0100
0000
0001
0000
0100
0000
1000
0000
0001
0000
,
0100
0010
0100
0001
0010
0100
1000
0001
,
0010
0000
0001
0100
0000
0100
0001
0000
0010
0000
0100
0000
1000
0000
0010
0000
,
1010
0000
1000
0010
0000
0010
0100
0000
0001
0000
1000
0000
0100
0000
0010
0000
,
0011
0000
0001
0100
0000
0100
0010
0000
1000
0000
0001
0000
1000
0000
0100
0000
,
0110
0000
0000
0011
0000
0000
1100
0000
0001
0000
0000
0100
0000
0000
0010
0000
,
0100
0000
0010
1000
0001
0000
0001
0010
,
0200
0000
0320
0000
,
0031
1000
0001
0100
0001
1000
0001
1000
,
0100
1000
0001
1000
0100
1000
0010
0100
,
0001
0010
0100
0010
0001
1000
0010
0100
,
0010
1000
0001
0010
0100
1000
0001
1001
;

//--------------- dance-single - ----------------
#NOTES:
     dance-single:
     :
     Hard:
     15:
     0,0,0,0,0:
0000
0000
0000
0000
,
0000
0000
0000
0000
,
1001
0010
1100
0010
,
0101
0000
1000
0010
0000
0100
0001
0000
,
0011
0100
1010
0100
,
1001
0000
0100
0001
0000
0001
1000
0000
,
0010
0100
0001
1000
0010
0100
0001
0010
,
0100
1000
0000
0001
0000
0010
0100
1000
,
0010
1001
0100
1001
,
0210
0000
0000
0010
0310
0000
0110
0000
,
1001
0000
1000
1100
0100
0010
0100
1000
,
0001
0100
0010
0100
0001
1000
1100
0000
,
0101
0000
0001
1001
1000
0010
0100
0010
,
1000
0001
0010
0100
1000
1001
0101
0000
,
1010
0010
0100
0101
0001
0010
0100
1000
,
0001
0100
0000
0010
0000
0010
0100
0001
,
0101
1000
0010
0110
0100
0001
1000
0000
,
0001
0100
0001
1000
0100
0010
0001
0000
,
2000
0000
3002
0000
,
1003
0100
1000
0000
0001
0100
0001
0000
1000
0010
1000
0001
0010
0000
0000
0000
,
0100
0000
1000
0010
0000
0100
0001
0100
0001
0000
0010
0100
0000
1000
0001
1000
,
0001
0000
0100
0010
0000
1000
0100
1000
0100
0000
0010
0000
0100
0000
1000
0000
,
1001
0000
0001
0100
0000
0010
1000
0010
1000
0000
0100
0010
0000
0001
1000
0001
,
1000
0000
0010
0000
0110
0000
0000
0000
0100
0001
0100
0001
0020
0000
0000
0000
,
0130
0000
0000
1000
0010
0000
0100
0001
1000
0000
0010
0000
0100
0001
0010
0100
,
1000
0000
0000
0010
0100
0000
0001
0000
1000
0000
0001
0010
0001
0010
0100
1000
,
0001
0000
0100
0000
0010
0000
1000
0100
0010
0001
1000
0000
0010
0000
0200
0000
,
0000
0000
0301
0010
0100
0000
1000
0010
0100
0001
0010
0000
0100
0000
1000
0000
,
0100
1000
0001
0200
0000
0310
2000
0000
,
3001
0010
0100
1000
0001
1000
0100
0010
,
0110
0000
0000
0011
0000
0001
0010
0100
,
1000
0000
0001
0100
0000
0100
0010
0000
,
1001
0000
0001
0101
0000
1000
0010
0100
,
0001
0000
1000
0000
0100
0000
0010
0000
0000
0000
0001
0010
0100
0000
0000
0000
,
1100
0000
0000
0000
0000
0000
1001
0000
0000
0000
1000
0000
0010
0000
0100
0001
,
1000
0100
0010
0100
0000
1000
1100
0000
,
1001
0000
0000
0000
0000
0000
0101
0000
0100
0000
0001
0000
1000
0000
0010
0100
,
0010
1000
0001
0010
0200
0000
0000
0000
,
1300
0001
0101
0000
0001
0010
0100
1100
,
0000
1000
0001
0100
0010
0110
1000
0000
,
0101
0100
1001
0000
1000
1001
0001
0101
,
0010
0000
0110
1000
0001
0110
0000
0001
,
1001
1000
1001
0000
0001
0101
0010
1100
,
1000
0010
0110
0100
0001
1001
0100
0000
,
0110
0100
1001
0000
1001
0001
0110
0000
,
0001
1000
0001
1000
0001
0000
0000
0000
0000
0000
0000
0000
0000
0000
0000
0000
,
0201
0000
0000
0001
0000
0000
0310
0000
0010
0000
1000
0001
0000
0001
0010
0000
,
1200
0000
0000
0010
0000
0000
1300
0000
1000
0000
0010
0100
0000
0100
0001
0000
,
1002
0000
0000
1000
0000
0000
0103
0000
0100
0000
0001
0010
0000
0010
0100
0000
,
1200
0000
0000
0010
0000
0000
1300
0000
0010
1000
0010
1000
0001
0010
0001
0010
,
0100
0000
1000
0010
0000
1000
0001
0000
0020
0000
0000
0100
0000
0000
0031
1000
,
0100
0000
1000
0010
0000
0100
0001
0000
0020
0000
0000
0100
0000
0000
0031
0000
,
1001
0000
0000
0110
0000
0000
1001
0000
0001
0000
0010
0100
0000
0100
1000
0000
,
0001
0000
1000
0010
1000
0000
0001
0100
0001
0000
1000
0010
0100
0001
1000
0100
,
0010
0000
0000
0011
0000
0000
1100
0000
0001
0000
1000
0010
0000
1000
0001
0000
,
0100
0000
0000
1010
0000
0000
0101
0000
1000
0000
0001
0100
0000
0001
0010
0000
,
0100
0000
0000
1001
0000
0000
0110
0000
1000
0000
0001
0010
0000
0100
1000
0000
,
0011
0000
0000
1001
0000
0000
0101
0000
1010
0000
0010
0100
0000
0010
1000
0001
,
0010
0000
0000
0110
0000
0000
1000
0000
1001
0000
0010
0000
0100
0000
0010
0000
,
0110
0000
1001
0000
,
0001
0100
0001
0010
0100
1000
0010
1000
,
0100
1000
0010
0100
0001
0010
0001
0100
,
0010
1000
0010
0100
0001
0010
1000
0010
,
0001
0100
1000
0100
0001
1000
0001
1001
;

//--------------- dance-single - ----------------
#NOTES:
     dance-single:
     :
     Challenge:
     17:
     1.04567,1.165331,0.586017,0.055285,1.094636,662,609,53,5,0,0,1.04567,1.165331,0.586017,0.055285,1.094636,662,609,53,5,0,0:
0000
0000
0000
0000
,
0000
0000
0000
0000
,
0001
1000
0010
0100
0000
0000
0000
0000
,
1000
0001
0010
0100
0000
0000
0000
0000
,
0001
0010
0100
1000
0000
0000
0001
0000
,
1000
0010
0100
0001
0000
0000
0000
0000
,
0001
0000
1000
0100
0000
0001
0100
0000
,
0010
0000
0001
1000
0000
0000
0000
0000
,
0010
0000
0000
0100
0000
0000
0001
0000
,
1000
0000
0000
0000
0000
0000
0000
0000
0001
0000
1000
0100
0010
0000
0000
0000
,
0110
0000
0001
1100
0000
0000
1000
0001
,
0010
0100
0010
0001
1000
0010
0110
0000
,
0110
0000
1000
0000
0001
0000
0010
0000
0000
0000
0000
0000
0100
1000
0100
1000
,
0001
0000
0100
0000
1000
0000
0100
0000
0010
0000
1000
0100
0010
0000
0000
0000
,
0011
0000
0000
1000
0000
0000
0001
0000
0000
1100
0000
0000
0000
0000
0000
1000
0000
0000
0001
0010
0100
1000
0001
0010
,
0100
0000
0010
0000
0100
0000
1000
0001
0100
0000
0010
0000
0100
0000
0001
0000
,
0101
0000
0000
1000
0000
0000
0010
0000
0000
0100
0000
0000
0001
0010
0100
1000
0000
0000
0100
0000
0000
0010
0000
0000
,
0001
0000
0100
0000
0001
0000
1000
0010
0100
0010
0100
0001
1000
0000
0000
0000
,
1000
0010
1000
0100
1000
0010
1000
0100
0100
0001
0010
0001
0100
0001
0010
0001
,
0100
0100
1000
0001
0100
0001
1000
0100
1000
0010
0100
0001
1001
0000
0000
0000
,
0001
0100
0001
0100
0010
1000
0100
0010
0100
1000
0100
1000
0001
0100
0010
0100
,
0001
0010
0001
0010
0100
1000
0001
0100
0010
1000
0010
1000
0001
0010
0100
1000
,
0010
0100
0001
0010
0100
0010
0001
1000
0010
0100
0010
1000
0100
0010
0001
0100
,
0001
1000
0010
0100
0001
0100
0010
1000
0100
0001
0100
1000
0020
0000
0000
0000
,
0130
0010
0001
0010
0100
0001
0010
0100
1000
0100
0010
1000
0010
0100
1000
0010
,
0100
0001
0010
0100
1000
0010
0100
1000
0100
0010
1000
0100
0010
0100
0001
0100
,
0010
0100
1000
0001
0100
0010
0100
0001
0010
0100
1000
0010
0100
0010
2000
0000
,
0000
0000
3001
0010
0100
1000
0001
0100
0001
1000
0010
0100
0001
0010
0100
1000
,
0001
0100
0010
2000
0000
3001
0020
0000
,
0130
0000
2000
0000
3001
0010
0100
1000
0001
0010
0100
1000
0001
0000
0100
0000
,
0110
1000
0001
0101
0000
1000
0010
0100
,
0001
1000
0010
1000
0100
0010
0011
0000
,
1001
0010
0100
0110
0000
1000
0001
0010
,
0100
1000
0001
0000
0100
0000
1000
0000
0100
0000
0001
0010
0100
0000
0000
0000
,
1100
0000
1000
0000
0001
0000
0101
0000
0100
0001
1000
0001
0010
0000
0100
1000
,
0010
0100
0001
1000
0100
0010
0110
0000
,
1001
0000
1000
0000
0001
0000
0101
0000
0100
0000
0010
0000
0100
0000
0001
1000
,
0100
0000
0010
0000
0100
1000
0100
0010
0100
1000
0001
0010
0100
0010
0001
1000
,
0100
0000
0000
0000
0000
0000
0010
0000
0001
0000
0100
0000
0010
0000
0000
0000
0000
0000
0100
0000
0000
0000
0000
0000
0001
0000
0000
0000
0000
0000
1000
0000
0000
0000
0000
0000
0100
0000
0000
0010
0000
0000
0100
0000
0000
0000
0000
0000
,
1000
0000
0001
0000
0100
0000
0010
0000
0100
0001
1000
0100
0010
0100
1000
0010
,
0100
0000
0010
1000
0001
0000
0010
0000
0100
0000
1000
0000
0001
0000
0100
0010
,
0100
0000
0001
0000
1000
0000
0100
0000
0001
0000
0100
0000
1000
0100
0010
0001
,
1000
0001
0010
0100
1000
0000
0001
0000
0100
0000
0010
0000
1000
0100
0010
0001
,
0100
0010
0100
0001
0010
0100
1000
0010
0100
0010
1000
0100
0010
0001
0010
0100
,
1000
0010
0100
1000
0001
0010
0100
0001
0010
0100
0001
1000
0010
0100
1000
0010
,
0100
0001
1000
0001
1000
0000
0000
0000
0000
0000
0000
0000
0000
0000
0000
0000
,
1010
0000
0000
0110
0000
0000
0101
0000
1001
0000
0001
0010
0100
0000
0010
0001
,
1000
0000
0000
0110
0000
0000
0101
0000
0001
1000
0100
1000
0001
0010
0100
0000
,
1100
0000
0000
1001
0000
0000
0101
0000
1010
0000
0010
1000
0100
0000
0010
0001
,
0100
0000
0000
0101
0000
0000
1001
0000
0001
0100
0010
0100
0001
0010
0100
0010
,
0001
0000
0000
0101
0000
0000
1100
0000
0100
0000
0010
0001
1000
0000
0001
0100
,
0010
0000
0100
0001
0000
0010
0100
0000
1000
0010
0100
0001
1000
0000
0100
0000
,
1001
0000
0000
0011
0000
0000
1100
0000
1000
0010
0100
0001
0010
0000
0100
1000
,
0001
0000
0100
0010
0100
0001
0010
0100
1000
0010
0100
0010
1000
0100
0010
0001
,
1000
0000
0000
1100
0000
0000
0101
0000
1001
0000
1000
0010
0100
0000
0001
0010
,
0110
0000
0000
1100
0000
0000
0101
0000
0001
1000
0010
0100
0010
0000
1000
0001
,
0101
0000
0000
1010
0000
0000
0101
0000
1001
0000
0001
1000
0100
0000
0010
0001
,
0101
0000
0000
1010
0000
0000
1001
0000
0110
0000
1000
0010
0100
0000
0001
0010
,
1000
0000
0010
0001
1000
0000
0001
0000
0100
0000
0010
1000
0001
0010
0100
1000
,
0110
0000
1001
0000
,
0001
0000
0100
0000
0001
0000
1000
0000
0001
0100
0000
0100
0010
0000
1000
0000
,
0100
0000
0010
0000
0100
0000
1000
0000
0001
0000
0100
0000
1001
0000
1000
0010
,
0100
0000
0001
0010
0000
0010
0100
0000
1000
0001
0100
0000
0010
0000
0100
0001
,
1000
0000
0001
0010
1000
0010
0001
0000
1000
0010
0001
0010
1000
0000
1001
0000
;
