#TITLE:in case...;
#SUBTITLE:;
#ARTIST:BiSH;
#TITLETRANSLIT:in case...;
#SUBTITLETRANSLIT:;
#ARTISTTRANSLIT:BiSH;
#GENRE:ANIME;
#CREDIT:;
#MUSIC:in case....ogg;
#BANNER:in case....png;
#BACKGROUND:in case...-bg.png;
#CDTITLE:;
#SAMPLESTART:44.013;
#SAMPLELENGTH:15.692;
#SELECTABLE:YES;
#OFFSET:1.218;
#BPMS:0.000=130.000;
#STOPS:;
#LASTBEATHINT:0.472333;
#BGCHANGES:2.750=in case....avi=1.000=0=0=0=StretchNoLoop====,
99999.000=-nosongbg-=1.000=0=0=0=StretchNoLoop====
;
#FGCHANGES:;

//--------------- dance-single - ----------------
#NOTES:
     dance-single:
     :
     Hard:
     12:
     0,0,0,0,0:
0000
0000
0000
0000
,
0000
0000
0000
0000
,
0000
0000
0000
0000
,
1000
0000
1000
0000
0000
0001
0000
0000
0100
0010
0000
1000
0000
0000
0001
0000
,
1000
0000
1000
0000
0001
0000
0100
0000
0100
0010
0000
1000
0000
0010
0000
0100
,
0001
0000
0001
0000
1000
0100
1000
0000
0001
0010
0000
0100
0000
0100
0000
0100
,
1000
0000
0001
0000
1000
0010
1000
0000
0001
0100
0000
0010
0000
0010
0000
0010
,
1000
0000
0100
0000
0010
0001
0010
0000
0100
1000
0000
0001
0000
0001
0000
0001
,
0100
0000
0010
0000
1000
0010
1000
0000
0100
0010
0000
0100
0000
0100
0000
0100
,
1000
0000
0100
0000
1000
0000
0100
0000
0010
0000
0000
0010
0000
0001
1000
0000
,
0010
0100
0010
1000
0001
0000
1001
0000
,
0100
0000
0010
0000
1000
0000
0010
0000
0100
0000
0000
0100
0000
0000
0001
0000
,
0010
0100
1000
0001
0010
0000
1001
0000
,
1000
0100
0001
0100
1000
0001
0100
0000
,
0001
0100
1000
0100
0001
1000
0100
0000
,
1000
0010
0001
0010
1000
0001
0010
0000
,
0001
0010
1000
0010
0001
1000
0010
0000
,
1000
0000
0100
0000
1000
0000
0100
0000
1000
0000
0000
1100
0000
0000
1000
0000
,
0001
0000
0100
0000
0001
0000
0100
0000
0001
0000
0000
0101
0000
0000
0001
0000
,
1000
0000
0010
0000
1000
0000
0010
0000
1000
0000
0000
1010
0000
0000
1000
0000
,
0001
0000
0010
0000
0001
0000
0010
0000
0001
0000
0000
0011
0000
0000
0001
0000
,
1000
0000
0100
0000
1000
0000
0010
0000
1000
0000
0100
0010
0000
0100
1000
0000
,
0001
0000
0100
0000
0001
0000
0010
0000
0001
0000
0100
0010
0000
0100
0001
0000
,
1010
1001
0011
0110
,
1002
0000
0100
0103
,
0001
0100
0010
0100
0001
0010
0100
0010
,
0001
1000
0010
0100
0010
1000
0100
0010
,
0100
0000
0110
0000
0100
1000
0001
1000
,
0010
0000
0110
0000
0100
0001
1000
0001
,
0010
0100
0010
0001
0100
0010
0100
0001
,
1000
0100
0010
0100
1000
0010
0100
0010
,
1000
0000
0100
0000
0010
0001
1000
0001
,
0100
0000
0100
0000
0010
1000
0001
0100
,
0010
0100
1000
0100
0001
1000
0010
1000
,
0100
0010
0001
0010
1000
0001
0100
1000
,
0010
0001
1000
0001
0010
0100
0001
0100
,
1000
0000
0100
0000
0001
0010
0100
1000
,
0010
0100
1000
0100
0010
1000
0100
1000
,
0001
0010
0100
0010
0001
1000
0100
1000
,
0001
0000
0100
0000
0000
0010
0000
0100
0001
0000
1000
0010
0000
0000
1000
0000
,
0001
0000
0010
0000
0000
0100
0000
0010
0001
0000
1000
0100
0000
0000
1000
0000
,
0001
0000
0100
0000
0010
0000
0100
0000
0001
0100
0000
0010
0000
0001
0000
0010
,
1000
0000
0100
0000
0010
0000
0100
0000
1000
0100
0000
0010
0000
1000
0000
0010
,
0001
0000
0010
0000
0100
0000
0010
0000
0001
0010
0000
0100
0000
0001
0000
0100
,
1000
0000
0010
0000
0100
0000
0010
0000
1000
0010
0000
0100
0000
1000
0000
0100
,
0001
0000
0010
0000
0100
0000
1000
0000
0001
0100
0000
0010
0000
0100
0000
0001
,
0010
0000
0100
0000
1000
0000
0001
0000
1000
0010
0000
0100
0000
0010
0000
1000
,
0010
0000
0010
0000
0000
0010
1000
0000
0001
0010
0000
0010
0000
0010
0000
0010
,
0001
0000
0100
0000
0000
0100
0001
0000
1000
0100
0000
0100
0000
0100
0000
0100
;

//--------------- dance-single - ----------------
#NOTES:
     dance-single:
     :
     Challenge:
     17:
     1.001628,1.058677,0.621263,0.177504,1.397841,632,576,56,16,0,0,1.001628,1.058677,0.621263,0.177504,1.397841,632,576,56,16,0,0:
0000
0000
0000
0000
,
0000
0000
0000
0000
,
0000
0000
0000
0000
,
1100
0000
1100
0000
0000
1000
0100
1000
0100
0010
0001
0000
0000
1001
0000
0000
,
0101
0000
0000
0000
0101
0000
0000
0000
0001
0000
1000
0000
0010
0100
0010
0100
0010
0000
0110
0000
0000
0000
0110
0000
0000
0000
0110
0000
0000
0000
0100
0000
,
0001
1000
0001
0010
0100
0010
0100
1000
0001
0100
0000
1010
0000
1100
0000
0100
,
1000
0001
1000
0010
0100
0010
0100
0001
1000
0100
0000
0011
0000
0101
0000
0100
,
0001
1000
0001
0100
0010
0100
0010
1000
0001
0010
0000
0011
0000
1100
0000
1000
,
0010
0100
0001
0100
1000
0100
0001
0010
0100
0010
0000
0110
0000
0100
1000
0100
,
0001
0000
0100
0000
1000
0000
0100
0000
0010
0100
1000
0100
0010
0001
1000
0010
,
0001
0000
0010
0000
1000
0000
0010
0000
0002
0000
0010
0010
0000
1000
1000
1000
,
1003
0000
0100
0000
0010
0000
1000
0000
0001
0010
0100
0010
0001
0010
0100
1000
,
0001
0000
0100
0000
1000
0000
0001
0000
0010
1000
0100
0010
0000
0100
1000
0000
,
0001
0100
1000
0100
0001
1000
0100
0001
0100
0000
1000
0000
0001
0000
1000
0000
,
1000
0100
0001
0100
1000
0001
0100
1000
0100
0000
0001
0000
1001
0000
0000
0000
,
0001
0010
1000
0010
0001
1000
0010
0001
0010
0000
1000
0000
0001
0000
1000
0000
,
1000
0010
0001
0010
1000
0001
0010
1000
0010
0000
0100
0000
1000
0000
0000
0000
,
1000
0000
1100
0000
1000
0000
1100
0000
1000
0000
1000
0100
0000
1000
0100
1000
,
0001
0000
0101
0000
0001
0000
0101
0000
0001
0000
0001
0100
0000
0001
0100
0001
,
1000
0000
1010
0000
1000
0000
1010
0000
1000
0000
1000
0010
0000
1000
0010
1000
,
0001
0000
0011
0000
0001
0000
0011
0000
0001
0000
0001
0010
0000
0001
0010
0001
,
1000
0000
1100
0000
1000
0000
1010
0000
1000
0000
1000
0100
0000
1000
0010
1000
,
0001
0000
0101
0000
0001
0000
0011
0000
0001
0000
0001
0100
0000
0001
0010
0001
,
1001
0100
1010
0100
0011
0100
1001
0100
,
0110
0000
0100
0000
0001
1000
0010
0000
0010
0100
0010
0100
0010
0100
0010
0100
,
0010
0100
0001
0010
0110
0100
1000
0010
0100
0010
1000
0100
0110
0010
0001
0100
,
0010
0100
0001
0010
0110
0100
1000
0010
0100
0010
0001
0010
0110
0100
0001
0010
,
0100
0000
0100
1000
0020
0000
0001
0000
0130
0001
0010
0100
1000
0000
1100
0000
,
0110
0000
0010
0001
0100
0010
0000
1000
0100
0010
0100
0010
0100
0010
0100
0010
,
0100
0010
0001
0100
0110
0010
1000
0100
0010
0100
1000
0010
0110
0100
0001
0010
,
0100
0010
0001
0100
0110
0010
1000
0100
0010
0100
0001
0100
0110
0010
0001
0100
,
0010
0000
1010
0000
0100
0001
0010
2000
0000
3010
0001
0000
0101
0000
1010
0000
,
0001
0010
0001
0010
0100
1000
0100
1000
0001
0100
0001
0100
0010
1000
0010
1000
,
0010
0100
1000
0100
0010
0100
1000
0100
0001
1000
0010
1000
0001
1000
0010
1000
,
0100
0010
0001
0010
0100
0010
0001
0010
1000
0001
0100
0001
1000
0001
0100
0001
,
1000
0010
1000
0001
1000
0010
1000
0001
0100
1000
0100
0010
0100
1000
0100
0010
,
0001
0100
0001
1000
0001
0100
0001
1000
0010
0001
0010
0100
0010
0001
0010
0100
,
0110
0000
0100
0001
0010
0000
0100
0000
0110
0000
0100
1000
0010
0000
0100
0000
,
0010
1000
0100
0010
0100
0010
0100
1000
0001
0100
0010
0100
0010
0100
0001
1000
,
0010
0000
1010
0000
1000
0001
0100
0000
0100
0001
1000
0200
0000
0310
1000
0000
,
1010
0000
0101
0000
0001
0100
1000
0000
1000
0010
0100
2000
0000
3100
0001
0000
,
0001
0010
0100
0010
0001
0010
2000
0000
3001
0100
1000
0020
0000
0031
0010
0100
,
1000
0100
0010
0100
1000
0100
0002
0000
1003
0100
0010
2000
0000
3001
0100
1000
,
0001
0100
0010
0100
0001
0100
2000
0000
3001
0010
0100
0002
0000
0013
2000
0000
,
3001
0100
0010
1000
0001
1000
0010
0001
0100
1000
0001
2000
0000
3100
0001
0010
,
0100
0001
0100
1000
0001
0100
0020
0000
1030
0100
0010
2000
0000
3010
0100
1000
,
0010
0100
0010
1000
0010
0001
0020
0000
0130
0001
0010
0100
0000
1100
0000
0001
,
0010
0000
0010
0000
0100
1000
0001
0000
0100
0010
0000
0010
0000
0010
0000
0010
,
1000
0000
0100
0000
0010
0001
1000
0000
0010
0100
0000
0100
0000
0100
0000
0100
;
