#TITLE:いいよ;
#SUBTITLE:;
#ARTIST:Daoko;
#TITLETRANSLIT:iiyo;
#SUBTITLETRANSLIT:;
#ARTISTTRANSLIT:Daoko;
#GENRE:ANIME;
#CREDIT:;
#MUSIC:iiyo.ogg;
#BANNER:iiyo.png;
#BACKGROUND:iiyo-bg.png;
#CDTITLE:;
#SAMPLESTART:49.713;
#SAMPLELENGTH:12.375;
#SELECTABLE:YES;
#OFFSET:0.912;
#BPMS:0.000=160.000;
#STOPS:;
#BGCHANGES:2.750=iiyo.avi=1.000=0=0=0=StretchNoLoop====,
99999.000=-nosongbg-=1.000=0=0=0=StretchNoLoop====
;
#FGCHANGES:;

//--------------- dance-single - ----------------
#NOTES:
     dance-single:
     :
     Medium:
     13:
     0,0,0,0,0:
0000
0000
0000
0000
,
0000
0000
0000
0000
,
0001
0010
0100
1000
0001
0010
0100
0010
,
0001
1000
0100
0010
0001
1000
0010
0100
,
0000
0100
0001
0100
0000
0100
0010
0100
,
0000
0100
1000
0100
0000
0100
0001
0000
,
1000
0100
0010
0100
1000
0001
0010
0100
,
1000
0001
0100
0010
0100
0001
0010
0000
,
0010
1000
0010
0000
0010
0100
0010
0000
,
0010
0000
0001
0000
0010
0000
0000
0000
1001
0000
0000
0000
1000
0100
0000
1000
,
0100
0010
0001
1000
0001
0010
0100
1000
,
0001
1000
0010
0100
0001
0100
0010
1000
,
0000
0001
1000
0100
1000
0001
0100
0010
,
0100
0001
1000
0010
0100
0001
0010
0100
,
1000
0000
0001
0100
0000
0010
0100
0000
0001
0000
0010
0000
0100
0000
1000
0000
,
0010
0100
0001
1000
1001
0000
0001
0000
,
1000
0100
0001
0100
1000
0000
0001
1000
,
0001
0100
1000
0100
0001
0000
0110
0000
,
1000
0010
0001
0010
0100
0001
0010
0100
,
1000
0001
0010
1000
0010
0001
1000
0200
,
0000
0301
0100
1000
0100
0010
0001
1000
,
0010
0001
0010
1000
0001
0100
0010
1000
,
0001
0000
1000
0100
0000
1000
0010
0000
0100
0000
0001
0000
0010
0000
0100
0000
,
0010
1000
0010
0001
1000
0000
1001
0000
,
0001
0100
0100
1000
0001
0000
1001
0000
,
1000
0100
0100
0001
1000
0010
0100
0000
,
0001
0010
0100
1000
0001
0010
0100
1000
,
0001
1000
0010
0100
0001
1000
0010
0100
,
0001
0010
1000
0010
0001
0010
1000
0010
,
0001
0100
1000
0100
0001
0100
1000
0100
,
0101
0011
1010
1100
,
1001
0000
0001
0100
0001
0000
0010
0100
0010
0000
0100
1000
0100
0000
1000
0001
,
1000
0000
0010
0100
0000
0001
1000
0100
,
0000
0000
0010
0000
0000
0000
0001
1000
,
1100
0000
0000
0101
0000
0000
1100
0000
0000
0101
0000
0000
0001
0000
0100
0000
,
0001
1000
0100
1000
0001
0100
0001
1000
,
1010
0000
0000
0011
0000
0000
1010
0000
0000
0011
0000
0000
0001
0000
0010
0000
,
0001
1000
0010
1000
0001
0010
0001
1000
,
1100
0000
0000
1010
0000
0000
1100
0000
0000
1010
0000
0000
1000
0000
0100
0000
,
1000
0010
1000
0100
1000
0100
0010
0001
,
1000
0000
0001
1000
0000
0010
0100
0001
,
1000
0000
1010
0000
0000
1100
0000
0000
0101
0000
0000
0001
0010
0000
0100
0000
,
1000
0100
0100
0001
0100
0100
1000
0100
,
0200
0000
0001
0000
0000
0010
0000
0000
1000
0000
0000
0010
0000
0000
0301
0000
,
1000
0010
0010
0001
0010
0010
1000
0010
,
0020
0000
0001
0000
0000
0100
0000
0000
1000
0000
0000
0100
0000
0000
0031
0000
,
1000
0100
0100
0001
0010
0010
1000
0100
,
0200
0000
0001
0000
0000
1000
0000
0000
0001
0000
0000
1000
0000
0000
0301
0000
,
0010
0000
0100
1000
0000
1000
0010
0100
,
0001
0100
0001
0010
0001
0010
0100
1000
,
0100
0000
1000
0001
1000
0000
0010
0000
0100
0000
0001
0000
1000
0000
0010
0000
,
0100
0000
0001
1000
0001
0000
0010
0000
0100
0000
1000
0000
0001
0000
0010
0000
,
0001
0000
1000
0100
1000
0000
0001
0000
1000
0000
0001
0000
0100
0000
0010
0000
,
0100
0000
0001
0000
1000
0000
0001
0100
0001
0000
0010
0000
0100
0000
1000
0000
,
0001
0100
1000
0100
0010
1000
0001
0010
,
0100
1000
0000
0001
0100
0000
0010
0000
0100
0000
0001
0000
1000
0000
0100
0000
,
0010
0000
0001
1000
0100
0000
0010
0000
0001
0000
1000
0000
0010
0000
0001
0000
,
0010
1000
0001
0010
1000
0010
0001
1000
,
0020
0000
0000
0000
,
0000
0000
0000
0000
,
0030
0000
0000
0000
;

//--------------- dance-single - ----------------
#NOTES:
     dance-single:
     :
     Hard:
     15:
     0,0,0,0,0:
0000
0000
0000
0000
,
0000
0000
0000
0000
,
0001
0010
0100
1000
0001
0100
0001
1000
,
0010
1000
0001
0010
0100
1000
0010
0200
,
0000
0301
0010
0200
0000
1300
0010
0200
,
0000
0301
0010
0200
0000
1300
0001
0000
,
1000
0000
0001
0100
0001
0000
0010
0000
0100
0000
1000
0000
0001
0000
0100
0000
,
0001
0000
1000
0100
1000
0000
0010
0000
0100
0000
0001
0000
0020
0000
0000
0000
,
0130
0000
1000
0010
0000
0100
0010
0000
0100
0001
0000
0010
0001
0000
0010
0100
,
0000
0010
1000
0000
0010
0001
0000
1000
0010
0000
0000
0000
0100
0001
0000
0001
,
1000
0000
0010
0000
0100
0000
0010
0000
1000
0000
0001
0010
0001
0000
1000
0000
,
0010
0000
0100
0000
0010
0000
1000
0000
0001
0000
0010
0100
0010
0000
0001
0000
,
0000
0000
1000
0000
0010
0100
0010
0000
1000
0000
0100
0010
0100
0000
1000
0000
,
0001
0000
0010
0100
0000
1000
0001
0000
0100
0000
0010
1000
0001
0000
0010
0000
,
0100
0000
1000
0010
0000
0100
0001
0000
0010
0000
1000
0000
0001
0000
1000
0000
,
0010
0001
1000
0010
0120
0000
2030
0000
,
3001
0000
0100
1000
0100
0000
0001
0000
1000
0000
0000
0000
1000
0000
0001
0000
,
1000
0000
0100
0001
0100
0000
1000
0000
0001
0000
0001
0000
1000
0000
1000
0000
,
0001
0000
0100
0010
0100
0000
1000
0000
0001
0000
0010
0100
0010
0000
1000
0000
,
0001
0000
0010
0100
0010
0000
1000
0000
0001
0100
0000
0100
1000
0000
0001
0000
,
0100
0000
1000
0000
0100
0000
0001
0000
0100
0000
0001
1000
0001
0000
0010
0000
,
0100
0000
1000
0100
0000
0010
0100
0000
1000
0000
0001
0100
0010
0000
0100
0000
,
0001
0000
1000
0100
0000
0000
1000
0000
0001
0000
0100
0000
1000
0000
0100
0000
,
0010
1000
0010
0001
0020
0000
2030
0000
,
3001
0000
0010
1000
0010
0000
0001
0000
1000
0000
0100
0000
0001
0000
0100
0000
,
1000
0000
0010
0001
0010
0000
1000
0000
0001
0000
0010
0000
0100
1000
0100
1000
,
0100
0000
1000
0001
0100
0000
0010
1000
0001
0000
0010
0100
1000
0000
0001
0100
,
0010
0000
1000
0001
0010
0000
0100
1000
0010
0000
0100
0001
1000
0000
0001
0010
,
0100
0000
1000
0001
0010
0000
0100
1000
0001
0000
0100
0010
1000
0000
0010
0000
,
0100
0000
0001
1000
0001
0000
0010
0000
0100
0000
1000
0001
1000
0000
0010
0000
,
0101
0001
1001
0010
1100
1000
1010
0100
,
0001
1000
0001
1000
0010
0100
0010
0100
0001
0010
0001
0010
0100
1000
0100
1000
,
0001
0000
0000
0100
0000
0000
0001
0010
,
0000
0000
0100
0000
0000
0000
0001
1000
,
0001
0100
0000
0010
0100
0000
0001
0100
0000
0010
0100
0000
0001
0000
1000
0000
,
0001
0100
0001
0000
0010
0100
0010
0000
0001
0100
0001
0000
0010
0000
0100
0000
,
1000
0100
0000
0010
0100
0000
1000
0100
0000
0010
0100
0000
1000
0000
0001
0000
,
1000
0100
1000
0000
0100
0010
0100
0000
1000
0100
1000
0000
0100
0000
0010
0000
,
0001
0100
0000
0010
0100
0000
0001
0010
0000
0100
0010
0000
0001
0000
1000
0000
,
0010
0100
0010
0000
0100
0001
0100
0000
0001
1000
0001
0000
0010
0100
0010
0000
,
0001
0000
0001
1000
0000
1000
0010
0100
,
0001
0000
0101
0000
0000
1001
0000
0000
1100
0000
0000
0000
0001
1000
0001
1000
,
0001
0100
0000
1000
0100
0000
0001
0100
0000
1000
0100
0000
0010
0000
1000
0000
,
0001
0000
0001
0000
0100
0010
0100
0000
0001
0000
0100
0010
0100
0000
0001
0000
,
1000
0100
0000
0001
0100
0000
1000
0100
0000
0001
0100
0000
1000
0000
0010
0000
,
0100
0000
0001
1000
0001
0000
0010
0000
0100
0000
1000
0001
1000
0000
0010
0000
,
1000
0100
0000
0001
0100
0000
1000
0010
0000
0001
0010
0000
0100
0000
0001
0000
,
1000
0100
1000
0100
0010
0000
0100
0000
1000
0001
0100
0001
0100
0000
0010
0000
,
1010
0000
0000
0100
0001
0000
0011
0000
0000
0100
1000
0000
0010
0000
0100
0000
,
0010
0000
0100
0001
0010
0100
0010
0100
1000
0010
0100
0010
0100
0000
0001
0000
,
1000
0000
0001
0010
0100
0000
1000
0000
0100
0000
0010
0001
1000
0000
0010
0000
,
0100
0000
0001
0100
0010
0000
1000
0000
0001
0010
0100
1000
0010
0000
0100
0000
,
0001
0000
1000
0010
1000
0000
0001
0000
1000
0010
1000
0000
0100
0000
0010
0000
,
0001
0000
1000
0000
0010
0000
0100
0001
1000
0000
0100
0000
0010
0000
0001
1000
,
0010
0100
0001
0100
0010
1000
0001
1000
,
0001
0000
0010
0100
0000
0010
0100
0000
1000
0000
0001
0000
0100
0000
0010
0000
,
0100
0000
0001
0010
0100
0000
1000
0010
0100
0000
0001
0000
1000
0000
0010
0000
,
0100
0001
0100
0000
0010
1000
0010
0000
0100
0001
0010
0100
0010
0100
0010
0100
,
2000
0000
0000
0000
,
0000
0000
0000
0000
,
3000
0000
0000
0000
;

//--------------- dance-single - ----------------
#NOTES:
     dance-single:
     :
     Challenge:
     17:
     1.107236,1.130996,0.288293,0.011088,1.374936,699,673,26,1,0,0,1.107236,1.130996,0.288293,0.011088,1.374936,699,673,26,1,0,0:
0000
0000
0000
0000
,
0000
0000
0000
0000
,
1001
0000
0000
0110
0000
0000
1001
0000
0001
0000
1000
0100
0010
0000
0100
0000
,
1000
0000
0001
0010
0100
0010
0001
1000
0010
0000
0100
0000
0010
0000
1000
0000
,
0001
0000
1000
0100
1000
0000
0010
0000
1000
0001
0100
0001
0100
0000
0010
0000
,
1000
0000
0001
0010
0100
0010
0001
0000
1000
0000
0100
0000
0010
0000
0000
0000
,
0100
0000
1000
0001
0100
0010
1000
0001
0010
0000
0100
0000
1000
0010
0100
0010
,
0100
0000
0010
1000
0001
1000
0001
0000
0010
0000
0100
0000
0110
0000
0000
0000
,
0011
0000
0000
1001
0000
0000
1100
0000
0000
1001
0000
0000
1010
0000
0000
0110
,
0000
0000
0101
0000
0000
0110
0000
0000
1001
0000
0000
0000
0001
0010
0000
0010
,
0100
0000
1000
0100
0000
1000
0010
0000
0100
0001
0000
0010
0100
0000
1000
0000
,
0001
0000
1000
0010
0000
0100
0010
0000
0001
0010
0000
1000
0001
0000
0010
0000
,
0100
0000
1000
0100
0000
0010
0100
0000
0001
0100
0000
1000
0100
0000
1000
0000
,
0010
0000
0100
0001
1000
0000
0100
0000
0001
0100
1000
0100
0010
0000
0001
0000
,
1000
0000
0010
0100
0010
0000
0001
0000
1000
0100
0000
0100
0001
0000
0010
0000
,
1000
0000
0001
0100
0010
0000
0001
0000
1001
0000
1000
0010
0100
0000
0001
0000
,
1000
0000
0100
0010
0001
0000
1000
0000
0001
0010
0000
0010
0100
0000
1000
0000
,
0001
0000
1000
0010
0100
0000
0001
0000
0100
0010
0000
0010
1000
0000
0001
0010
,
0100
1000
0001
0000
0010
0000
0100
0000
1000
0001
0100
0000
1000
0000
0100
0000
,
0010
1000
0001
0000
0010
0000
0100
0000
0001
0100
0000
0100
1000
0000
0010
0000
,
0100
0001
1000
0001
0010
0000
0100
0000
0010
0001
0100
0010
1000
0000
0001
0000
,
0100
1000
0100
0010
0100
0000
0001
0000
1000
0100
0000
0010
0100
0000
1000
0000
,
0001
0000
1000
0010
0000
0010
0001
0000
0010
0000
1000
0100
0001
0000
0100
0000
,
1000
0000
0001
0010
0100
0000
1000
0000
0001
0000
0100
0000
0110
0000
0000
0000
,
1001
0000
1000
0010
0000
0010
0001
0000
1000
0100
0010
0100
1000
0100
0010
0000
,
1000
0000
0100
0010
0001
0000
0010
0000
0001
0000
1000
0000
0010
0100
0010
0100
,
0010
1000
0100
0010
0100
1000
0001
0010
0100
1000
0001
0100
0010
0100
0001
1000
,
0010
0100
0001
0010
0100
1000
0001
1000
0100
0010
0001
1000
0001
0100
0010
1000
,
0100
0010
0100
0001
0100
1000
0001
1000
0010
0100
1000
0100
0010
0100
0001
1000
,
0001
0010
0100
1000
0001
0010
1000
0001
0100
1000
0010
0001
1000
0100
0001
1000
,
1100
1000
1001
1000
0101
0001
1001
0001
,
0001
0010
0100
1000
0001
0010
0100
1000
0001
1000
0100
0010
0001
1000
0100
0010
,
0001
0000
1000
0010
0000
0100
0001
1000
,
0000
0000
0010
0000
0000
0000
0001
1000
,
0001
0100
0100
1000
0100
0100
0001
0100
0100
1000
0100
0100
0001
0000
1000
0000
,
0001
0100
0001
1000
0100
1000
0001
0100
0001
0010
0100
1000
0001
0000
1001
0000
,
1000
0100
0100
0001
0100
0100
1000
0100
0100
0001
0100
0100
1000
0000
0001
0000
,
1000
0100
1000
0001
0100
0001
1000
0100
1000
0010
0100
0001
1000
0000
1001
0000
,
0001
0010
0010
1000
0010
0010
0001
0010
0010
1000
0010
0010
0001
0000
1000
0000
,
0001
0010
0001
1000
0010
1000
0001
0010
0001
0100
0010
1000
0001
0000
0010
0000
,
0110
0000
0100
1000
0001
0000
0100
0000
0110
0000
0010
1000
0001
0000
0010
0000
,
0110
0000
0011
0000
0000
1100
0000
0000
1010
0000
0000
0001
1000
0100
1000
0010
,
0100
0001
0001
0010
0001
0001
0100
0001
0001
0010
0001
0001
0100
0000
0010
0000
,
0100
0001
0010
0100
0001
0100
0010
0001
0100
0010
0100
0001
0010
0000
0110
0000
,
0100
1000
1000
0010
1000
1000
0100
1000
1000
0010
1000
1000
0100
0000
0010
0000
,
0100
1000
0010
0100
1000
0100
0010
1000
0100
0010
0100
1000
0001
0000
0100
0000
,
0010
0001
0001
0100
0001
0001
0010
0001
0001
0100
0001
0001
0010
0000
0100
0000
,
0001
0010
0100
0001
0100
0010
0001
0100
1000
0100
0010
1000
0001
0000
0010
0000
,
0110
0000
0100
1000
0001
0000
0100
0000
0110
0000
0010
1000
0001
0000
0010
0000
,
0110
0000
0100
1000
0100
1000
0001
0100
0001
0100
0010
1000
0001
0000
0010
0000
,
0100
0000
1000
0001
0100
0000
0010
0000
1000
0100
0010
0001
1000
0000
0010
0000
,
0100
0000
0001
0100
1000
0000
0100
0010
1000
0100
1000
0001
0010
0000
0100
1000
,
0001
1000
0100
0010
0100
0000
1000
0000
0010
0100
0010
0000
0100
0000
0001
0000
,
0010
0100
0010
0000
0001
1000
0010
0100
0001
1000
0100
0010
0100
0010
0100
0010
,
0001
0010
1000
0010
0001
1000
0010
0100
,
0001
0010
0100
1000
0100
0010
0001
0000
1000
0000
0010
0000
0100
0000
0010
0000
,
1000
0001
0010
0100
0010
0100
1000
0010
0001
0000
0010
0000
1000
0000
1000
0000
,
0001
0010
0100
0010
1000
0010
0100
0010
0001
1000
0001
1000
0001
1000
0001
1000
,
0001
0010
0100
1000
0001
0010
0100
1000
0001
0010
0100
1000
0001
0010
0100
1000
,
0001
0010
0100
1000
0001
0010
0100
1000
0001
0010
0100
1000
0001
0010
0100
1000
,
0001
0000
0000
0000
;
