#TITLE:不死鳥のフランメ;
#SUBTITLE:;
#ARTIST:町田ちま/レヴィ・エリファ;
#TITLETRANSLIT:fushichou no flamme;
#SUBTITLETRANSLIT:;
#ARTISTTRANSLIT:Machita Chima / Levi Elipha;
#GENRE:POP;
#CREDIT:;
#MUSIC:fushichou no flamme.ogg;
#BANNER:fushichou no flamme.png;
#BACKGROUND:fushichou no flamme-bg.png;
#CDTITLE:;
#SAMPLESTART:87.919;
#SAMPLELENGTH:12.994;
#SELECTABLE:YES;
#OFFSET:-0.021;
#BPMS:0.000=157.000;
#STOPS:;
#BGCHANGES:2.000=fushichou no flamme.avi=1.000=0=0=0=StretchNoLoop====,
99999.000=-nosongbg-=1.000=0=0=0=StretchNoLoop====
;
#FGCHANGES:;

//--------------- dance-single - ----------------
#NOTES:
     dance-single:
     :
     Medium:
     12:
     0,0,0,0,0:
0000
0000
0000
0000
,
0000
0000
0000
0000
,
0000
0000
0000
0000
,
0000
0000
0000
0000
,
1000
0000
0001
0000
0100
0000
0000
0100
0000
0000
0010
0000
1000
0000
0100
0000
,
0010
0000
0100
0000
1000
0000
0000
1000
0000
0000
0001
0000
1000
0000
0010
0000
,
0100
0000
0001
0000
0010
0000
0000
0010
0000
0000
0100
0000
1000
0000
0001
0000
,
1000
0000
0010
0000
0100
0000
0000
0100
0000
0000
0001
0000
0100
0000
0010
0000
,
1000
0000
0100
0000
0001
0000
0000
0100
0000
0000
1000
0000
0001
0000
0100
0000
,
0010
0000
1000
0000
0001
0000
0000
0100
0000
0000
1000
0000
0100
0000
0001
0000
,
0101
0000
0011
0000
,
1000
0100
0010
0001
1000
0100
0010
0001
,
1000
1100
0001
0101
,
1000
1010
0001
0011
,
1000
0101
0001
1100
,
1000
0011
0001
1010
,
0010
0100
0001
0000
1000
0100
0010
0000
,
0002
0000
1003
0010
0200
0000
0302
0000
,
2003
0000
3001
0010
0001
0000
1000
0000
,
0010
1000
0100
0000
0010
0001
0100
0000
,
0001
1000
0001
1000
0010
0100
0010
0100
,
0110
0000
0000
1000
0000
0000
0010
0000
0101
0000
0000
0001
0000
0000
1100
0000
,
0000
0000
0000
0000
1001
0000
0000
0000
2000
0000
0000
3200
0000
0000
0320
0000
,
0032
0000
1003
0010
0100
0000
0101
0000
,
0001
1000
0100
0000
1100
0000
1000
0100
,
0020
0000
0031
1000
0100
0000
0110
0000
,
0010
0001
1000
0000
1001
0000
0001
0100
,
2000
0000
3100
0001
0010
0000
0011
0000
,
1100
0000
0000
0001
0000
0000
1000
0000
0010
0000
0000
0100
0000
0000
0001
0000
,
1000
0100
1000
0000
0010
1000
0010
0000
,
0100
0001
0100
0000
0001
0010
0001
0000
,
1000
0100
0001
0100
1000
0010
0001
0010
,
1010
1100
0101
0011
,
0001
1000
0100
0001
0100
1000
0001
0000
,
1000
0001
0100
1000
0100
0001
1000
0000
,
0100
0010
0001
0100
0001
0010
0100
0000
,
1000
0010
0100
0010
1000
0100
0010
0000
,
0011
0000
1100
0000
1000
0010
0100
0000
,
0101
0000
0100
0001
1000
0000
0001
0010
,
1000
0000
1010
0000
0011
0000
0001
0100
,
1100
0000
0101
0000
2001
3200
0320
0032
,
1003
0000
0011
0000
0001
1000
0100
0000
,
1100
0000
1000
0100
0001
0000
0001
0100
,
1000
0000
0000
0000
1010
0000
0000
0000
0101
0000
0000
0001
0000
0000
1000
0000
,
0001
0010
0100
1000
0010
0000
0110
0000
,
0002
1000
0100
1000
,
0023
1000
0001
0100
,
2030
0010
3020
0001
,
0032
0000
1000
0000
1003
0200
0320
0032
,
1003
0000
1001
0001
0100
0000
0101
0000
,
1010
0000
1001
1000
0100
0000
0011
0000
,
0001
0010
0100
1000
0100
0010
0011
0000
,
0001
0100
0010
1000
0010
0100
0101
0000
,
0001
0100
1000
0100
0001
1000
0100
0000
,
0001
0100
1000
0100
1000
0010
0001
0000
,
0010
1000
0010
0100
0001
0010
1000
0001
,
0100
0100
1000
1000
0001
0001
0100
0010
,
1001
0000
0000
0000
0001
0000
0000
0000
1000
0000
0000
0100
0000
0000
0010
0000
,
0001
0000
0110
0000
1000
0010
0001
0000
,
0010
1000
0100
1000
0001
0000
0001
0100
,
1100
0000
0110
0000
0010
1000
0001
0000
,
0010
0100
1000
0100
0001
0000
0001
0100
,
1100
0000
1010
0000
0010
1000
0001
0000
,
0011
0000
0000
0110
0000
0000
1100
0000
1001
0000
0000
0000
1001
0000
0000
0000
,
0001
0001
0100
0001
1000
1000
0100
1000
,
0011
0000
1010
0000
1001
0000
0010
1000
,
0001
0000
0011
0000
0001
0010
1000
0000
,
1000
0010
0001
1000
0010
0001
1000
0000
,
1100
0000
0101
0000
1000
0100
0001
0000
,
0001
0100
1000
0001
0100
1000
1100
0000
,
0110
0000
0101
0000
0001
0010
0100
0000
,
1100
0000
0011
0000
0001
1000
0010
0000
,
0100
0001
0010
0000
0100
1000
0001
0000
,
1000
0010
0001
0000
1000
0100
0001
0000
,
0001
0010
0100
1000
0001
0010
0100
1000
,
0001
0100
0010
1000
0001
0100
0010
0000
,
1010
0000
0000
0110
0000
0000
0101
0000
0011
0000
0000
0000
1100
0000
0000
0000
,
1001
0000
0001
1000
0020
0000
0130
0000
,
0100
0001
0010
0000
1000
0010
0001
0000
,
1000
1000
0010
0010
0100
0001
1000
2002
,
0000
0000
0000
0000
,
0000
0000
0000
0000
,
3003
0000
0000
0000
;

//--------------- dance-single - ----------------
#NOTES:
     dance-single:
     :
     Hard:
     15:
     0,0,0,0,0:
0000
0000
0000
0000
,
0000
0000
0000
0000
,
0000
0000
0000
0000
,
0000
0000
0000
0000
,
0001
0000
1000
0000
0100
0000
0010
0001
0000
1000
0100
0000
0010
0000
0001
0000
,
1000
0000
0010
0000
0100
0000
0001
0010
0000
0100
1000
0000
0010
0000
0100
0000
,
0001
0000
1000
0000
0100
0000
0010
0001
0000
1000
0010
0000
0100
0000
0001
0000
,
1000
0000
0001
0000
0010
0000
0100
1000
0000
0001
0100
0000
0010
0000
1000
0000
,
0010
0000
0100
0000
0001
0000
1000
0100
0000
0010
0100
0000
1000
0000
0001
0000
,
0100
0000
0010
0000
1000
0000
0001
0010
0000
0100
0010
0000
0001
0000
1000
0000
,
1010
0000
0001
0010
0011
0000
1000
0001
,
1000
0100
1000
0000
0100
0010
0100
0000
0010
0001
0010
0000
0100
1000
0100
0010
,
0001
1000
1100
0000
1000
0001
0101
0000
,
0001
1000
1010
0000
1000
0001
0011
0000
,
1000
0010
0110
0000
0001
0010
0110
0000
,
0100
1000
1001
0000
0100
0001
1001
0000
,
0001
0000
1000
0000
0010
0000
0100
0000
1000
0000
0100
0001
0000
0001
0010
0000
,
0200
0000
1300
0100
0020
0000
0032
0000
,
0103
0000
1000
0000
0100
0000
0001
0010
0000
0010
0100
0000
1000
0000
0001
0000
,
0100
0010
0100
0000
0010
1000
0010
0000
0100
0001
0100
0000
0001
0010
0100
1000
,
0001
1000
0100
1000
0001
0100
0001
0100
,
0102
0000
0000
0023
0000
0000
0130
0000
2001
0000
0000
3020
0000
0000
0130
0000
,
0000
0000
0000
0000
1001
0000
0000
0000
0002
0000
0000
2003
0000
0000
3020
0000
,
0230
0000
0000
0000
0301
0000
1000
0200
0000
0000
0000
0000
0000
0000
0310
0000
,
0001
0000
1000
0000
0010
0000
0100
0002
0000
0000
0000
0000
1003
0100
0010
0000
,
0200
0000
0000
0000
1300
0000
0001
0200
0000
0000
0000
0000
0000
0000
0310
0000
,
1000
0000
0001
0000
0010
0000
0100
2000
0000
0000
0000
0000
3001
0100
0010
0000
,
0200
0000
0000
0000
0301
0000
1000
0020
0000
0000
0000
0000
0000
0000
0130
0000
,
1010
0000
0000
0100
0000
0000
0001
0000
0110
0000
0000
1000
0000
0000
0100
0000
,
0011
0000
0000
0001
0100
0000
0010
0000
0100
0000
0000
1000
0100
0000
0001
0000
,
0010
0000
0000
1000
0010
0000
0100
0000
0010
0000
0000
0001
0010
0000
0100
0000
,
1000
0000
0100
0000
0001
0000
0100
0000
1000
0000
0010
0100
0000
0100
0001
0000
,
0010
0100
0010
0000
0100
1000
0001
0000
0100
0010
0100
0000
0010
1000
0001
0010
,
0100
0000
1000
0010
0000
1000
0001
0000
0100
0000
0001
0010
0000
0001
1000
0000
,
0100
0000
0010
0001
0000
0010
0100
0000
1000
0000
0010
0100
0000
0010
1000
0000
,
0100
0000
0001
0100
0000
0010
0100
0000
1000
0000
0001
0100
0000
0010
0100
0000
,
1000
0000
0100
0001
0000
1000
0010
0000
0100
0000
0001
0010
0000
0100
1000
0000
,
1100
0000
0000
0011
0000
0000
0010
0000
0100
0000
1000
0000
0101
0000
0000
0000
,
0001
0000
1000
0010
0100
0000
0001
0000
1001
0000
0000
0000
0001
0000
0010
0000
,
1100
0000
0000
0000
1010
0000
0000
0000
0101
0000
0000
0001
0010
0000
0100
0000
,
1100
0000
0011
0000
2001
3200
0320
0032
,
1003
0000
0000
0001
0010
0000
0100
0000
1100
0000
0000
1000
0010
0000
0100
0000
,
0101
0000
0001
0100
0010
0000
1000
0000
1001
0000
0000
0000
0001
0000
0010
0000
,
1100
0000
0000
0000
1010
0000
0000
0000
0011
0000
0000
0101
0000
0000
1100
0000
,
0001
0000
0100
0000
0001
0000
1000
0000
1100
0000
0000
0000
0001
1000
0001
1000
,
0001
0000
0100
0000
1000
0000
0100
0000
0010
0000
1000
0001
0000
1000
0001
0000
,
0010
0000
0100
0000
1000
0000
0001
1000
0000
0001
1000
0000
0010
0000
0100
0000
,
1001
0000
1000
0010
0000
0100
0001
0000
0010
0000
0100
0000
1000
0000
0100
0000
,
1001
0000
0001
0010
0000
0100
1000
0000
0001
0000
2000
0000
3200
0000
0320
0000
,
0032
1003
0010
0010
0100
0001
1000
1000
,
0011
0001
0100
0100
0010
1000
0001
0001
,
1000
0001
1000
0001
0100
0000
0010
1000
0000
1000
0100
0000
1001
0000
0000
0000
,
0001
1000
0001
1000
0010
0000
0100
0001
0000
0001
0010
0000
1001
0000
0000
0000
,
1000
0010
0100
0000
0100
0001
0010
0000
0100
1000
0100
0010
0001
0000
1000
0000
,
0001
0010
0100
0000
0100
1000
0010
0000
0100
0001
0010
0100
1000
0000
0001
0100
,
0010
0000
1000
0100
0010
0000
0001
0000
0011
0000
0010
0100
1000
0000
0001
0000
,
0101
0001
1001
1000
1100
0100
0110
0010
,
1001
0000
0000
0000
0001
0000
0000
0000
1000
0000
0000
1100
0000
0000
0011
0000
,
0001
0000
1000
0000
0010
0000
0100
0001
0000
0010
0000
0100
1000
0000
0001
0000
,
0100
1000
0100
0000
0010
0100
0010
0000
0100
0001
0100
0000
0001
0010
0001
0010
,
1000
0000
0001
0000
0100
0000
1000
0010
0000
0100
0000
0001
0010
0000
0100
1000
,
0010
0000
0100
0000
0110
0000
0010
1000
0100
0010
0001
0000
1000
0010
0100
0000
,
0101
0000
0001
0000
0100
0000
1000
0100
0000
0010
0000
1000
0100
0000
0010
0000
,
0110
0000
0000
0100
1000
0000
0001
0000
1001
0000
0000
0001
1000
0000
0001
0000
,
0010
0001
0100
0000
0100
0001
0010
0000
0100
1000
0010
0000
0010
1000
0100
0000
,
1001
0000
0001
0100
0010
0000
0010
1000
0100
0010
0100
1000
0001
0100
0010
0100
,
0001
0000
1000
0100
0010
0000
0010
0001
0000
1000
0000
0001
0100
0000
1000
0100
,
0010
0000
1000
0000
0100
0000
0010
0100
0000
0100
1000
0000
0001
0100
0010
0000
,
1010
0000
1000
0000
0001
0000
0010
0100
0000
1000
0000
0001
0100
0000
0010
1000
,
0001
0000
0010
0100
0010
0000
0100
1000
0001
0000
0100
0000
0010
1000
0001
0010
,
0100
0000
0000
0100
1000
0000
0001
0000
0101
0000
0000
0000
1100
0000
0000
0000
,
1001
0000
0100
0000
0110
0000
0001
0010
0000
1000
0000
0010
0001
0000
1000
0001
,
0100
0000
1000
0000
0100
0000
0001
0000
1000
0000
0001
0010
0100
0000
0010
0001
,
1000
0000
0001
0100
1000
0000
0100
0010
1000
0000
0001
0010
1000
0000
0010
0100
,
0001
0000
0100
0000
1000
0000
0100
0000
0001
0000
0100
0000
1000
0000
0001
0100
,
1000
0100
0001
0100
1100
0100
0101
0001
,
1001
0000
0000
1000
0100
0000
0010
0000
0001
0000
1000
0010
0100
0000
0010
1000
,
0001
0000
0001
0010
0000
0100
1000
0000
0010
0000
1000
0010
0000
0100
0001
0000
,
0010
0000
0100
0000
1000
0000
0001
0000
1000
0100
1000
0000
0001
0100
0001
0000
,
1000
0100
1000
0100
0010
0001
0010
0000
0100
0000
1000
0000
0001
0000
2002
0000
,
0000
0000
0000
0000
,
0000
0000
0000
0000
,
3003
0000
0000
0000
;

//--------------- dance-single - ----------------
#NOTES:
     dance-single:
     :
     Challenge:
     17:
     0.945919,1.020837,0.567996,0.155615,0.949254,851,778,73,20,0,0,0.945919,1.020837,0.567996,0.155615,0.949254,851,778,73,20,0,0:
0000
0000
0000
0000
,
0000
0000
0000
0000
,
0000
0000
0000
0000
,
0000
0000
0000
0000
,
0001
0000
0100
0000
0010
0000
1000
0100
0000
1000
0010
0000
0100
0000
0001
0000
,
0100
0000
0010
0000
1000
0000
0001
0010
0000
0001
0100
0000
0010
0000
1000
0000
,
0001
0000
1000
0000
0100
0000
0010
0100
0000
0001
0100
0000
1000
0000
0010
0000
,
0100
0000
0001
0000
0100
0000
0010
1000
0000
0100
0010
0000
0001
0000
1000
0000
,
0010
0000
0100
0000
0001
0000
1000
0100
0000
0001
0100
0000
1000
0000
0010
0000
,
0100
0000
0001
0000
1000
0000
0001
0100
0000
1000
0100
0000
0001
0000
0010
0000
,
0011
1000
0001
1000
1010
0001
1000
0001
,
0100
0001
0010
0000
0001
0010
0100
0000
0010
0100
1000
0000
0100
1000
0100
0010
,
0001
1000
0101
1000
0010
1000
0101
0001
,
0010
0001
1100
0010
0001
0010
1100
0001
,
0100
0001
1010
0100
0001
0100
1010
1000
,
0100
1000
0011
0100
1000
0100
0011
0100
,
1001
0000
0010
0000
1000
0000
0100
0010
0000
0001
1000
0000
0010
0000
0100
0001
,
0100
0000
0010
1000
0010
0000
1000
0100
0000
0010
0100
0000
1000
0000
0001
0000
,
0100
0010
1000
0000
0001
0000
0010
0100
0000
1000
0001
0000
0100
0010
0100
0001
,
0010
0100
0001
0000
1000
0010
0100
0000
1000
0010
0100
0000
1000
0100
0001
0010
,
1100
0001
0101
1000
1010
0001
0011
1000
,
1001
0000
0000
1010
0000
0000
1100
0000
0011
0000
0000
1001
0000
0000
0010
0100
,
0010
0000
0000
0000
1001
0000
0000
0000
0011
0000
0000
1100
0000
1000
0100
0010
,
0002
0000
0000
0000
0013
0000
0100
2000
0000
0000
3010
0000
0000
0000
0110
0000
,
0100
0000
0001
0000
1000
0000
0100
0001
0000
0000
0100
0000
0100
1000
0010
0000
,
0210
0000
0000
0000
0310
0000
0100
0002
0000
0000
1003
0000
0100
0000
0010
0000
,
0001
0000
1000
0000
0001
0000
0100
2000
0000
0000
3100
0000
0100
0001
0010
0000
,
0210
0000
0000
0000
1300
0000
0001
0200
0000
0000
0310
0000
1000
0000
0100
0000
,
0011
0000
0000
1001
0000
0000
1100
0000
1010
0000
0000
0110
0000
0000
0101
0000
,
0010
1000
0000
0010
0100
0000
0001
0000
0010
0100
0000
1000
0001
0000
0100
0000
,
0010
1000
0000
0100
0010
0000
0001
0000
0010
1000
0000
0010
0001
0000
0100
0000
,
1000
0000
0100
0000
0001
0000
0010
0000
0100
0000
0010
0001
0000
0001
0100
0000
,
0010
1000
0100
1000
0010
0100
0001
0010
0001
1000
0100
0010
0001
1000
0100
0010
,
0001
0000
1000
0010
0000
0010
0100
0000
0001
0000
1000
0100
0000
0010
0001
0100
,
0010
0000
1000
0001
0000
0001
0010
0000
1000
0000
0010
0001
0100
0010
0100
0000
,
1000
0000
0100
0001
0000
0001
0010
0000
0100
1000
0000
1000
0100
0010
0100
0000
,
0001
0000
0100
1000
0000
1000
0010
0000
0100
0001
0100
0001
1000
0100
1000
0100
,
0010
0000
0000
0001
0100
0000
0010
0000
1000
0000
0001
0010
0100
0000
1000
0000
,
0001
0000
0100
0010
0100
0000
1000
0000
1100
0000
0000
0000
0101
0000
0100
0001
,
0010
0000
0000
0010
0100
0000
1000
0000
0100
0000
0001
0100
1000
0000
0001
0000
,
0101
0000
1100
0000
2001
3200
0320
0032
,
1003
0000
0000
0001
0010
0000
0100
0000
1001
0000
0001
0100
0010
0000
1000
0000
,
1010
0000
0010
1000
0100
0000
0010
0000
0011
0000
0000
0000
0001
0000
0010
0000
,
1100
0000
0000
0000
0011
0000
0000
0000
1100
0000
0000
0101
0000
0000
1001
0000
,
0110
0000
0010
0000
0110
0000
0100
0000
1001
0000
0001
0000
1000
0100
1000
0100
,
0010
0000
0001
0010
0100
1000
0001
0100
0010
0000
0010
1000
0000
0010
0100
0000
,
0001
0000
0010
0100
0000
1000
0010
0000
0100
0000
0001
0000
0011
0000
1100
0000
,
1001
0000
1000
0010
0000
0100
0001
0000
1000
0001
0010
0100
1000
0010
0100
0000
,
1000
0000
0100
0001
0010
0000
0100
0000
1000
0010
0002
0000
0023
0000
0230
0000
,
2300
0000
3001
0000
0010
1000
0100
0010
0001
0000
1000
0000
0100
0000
0010
0000
,
0011
0000
0001
0010
0100
1000
0010
0000
0100
0000
0001
0000
1000
0000
0010
0000
,
0100
0001
0100
0001
0010
0000
0010
0100
0000
0100
1000
0000
1001
0000
0001
0000
,
1000
0010
1000
0010
0100
0000
0100
0001
0000
0001
0010
0000
0110
0000
0100
0010
,
0100
1000
0010
0100
0010
0001
0010
0100
1000
0001
0010
0001
0010
0100
0010
1000
,
0001
0000
0001
0010
0000
0010
0100
0000
0100
1000
0100
0010
0001
0010
0100
0010
,
1000
0000
1000
0010
0001
0000
0101
0000
1010
0000
0010
1000
0100
0000
1100
0000
,
0011
1001
1100
0110
0101
1001
1010
0110
,
1001
0000
0000
0000
0001
0100
0001
0100
0010
0000
0110
0000
0010
1000
0001
0010
,
0100
0000
0010
0001
1000
0000
0010
0000
0100
0001
0010
0001
0100
0000
0001
0000
,
0100
1000
0100
0000
0010
1000
0010
0000
0100
0001
0100
0010
1000
0100
0010
0001
,
1000
0000
0001
0000
0100
0001
0100
0001
0010
0000
0100
0000
0001
0000
0100
1000
,
0010
0000
0100
0000
1001
0000
1000
0001
0100
0001
0100
0000
1000
0100
0001
0000
,
0011
0000
0010
0000
0100
0000
1000
0001
0000
0001
0100
0000
0101
0000
0001
0000
,
0100
0010
0001
1000
0100
0010
1000
0100
0001
1000
0010
0100
1000
0010
0001
0000
,
0001
1000
0100
0000
0100
0001
0010
0000
1000
0001
0100
0000
0100
1000
0010
0000
,
0001
0010
0001
0010
1000
0100
0010
1000
0010
1000
0001
0100
1000
0001
0010
0100
,
1000
0000
1000
0100
0010
0000
0001
1000
0000
1000
0010
0100
0010
0100
0001
0010
,
0100
0000
1000
0001
0100
0000
0010
1000
0100
0010
0100
1000
0001
0100
0010
0000
,
0110
0000
0010
1000
0100
0000
0100
0001
0000
0001
0100
0000
0100
1000
0010
0000
,
0100
1000
0100
0001
0010
1000
0010
0001
0100
0000
0100
0010
0000
0010
1000
0001
,
0010
0000
0000
0010
0100
0000
1000
0000
1010
0000
1000
0010
0001
0000
0010
0000
,
1010
0000
0100
0000
0101
0000
0010
1000
0000
1000
0100
0010
0001
0000
1000
0010
,
0100
0000
1000
0100
0000
0100
0001
0010
0100
0000
0100
1000
0000
0001
0010
1000
,
0010
0000
0010
0001
0100
0000
0100
0001
0010
0000
0100
1000
0010
0000
0010
1000
,
0100
0000
0010
0001
0000
0001
1000
0000
1001
0000
1000
0010
0000
0010
0100
0001
,
1000
0000
1000
0100
0000
0100
0010
0000
0011
0000
0011
0000
1100
0000
1100
0000
,
1001
0000
0000
0000
0000
0000
0000
0000
0000
1000
0000
0000
0100
0000
0000
0000
0000
0000
0100
0000
0000
0010
0000
0000
0001
0000
0010
0000
0100
0000
0010
0000
0001
0000
0010
0000
0100
0000
1000
0000
0100
0000
0010
0000
0100
0000
1000
0000
,
0001
0000
1000
0100
1000
0100
0001
0000
0100
0000
1000
0010
1000
0010
0001
0000
,
0020
0000
0100
0000
0230
0000
0001
0000
0301
0010
0100
0000
0010
0001
1000
0000
,
0001
0010
0100
1000
0001
0010
0100
0000
1100
0000
0101
0000
0110
0000
2002
0000
,
0000
0000
0000
0000
,
0000
0000
0000
0000
,
3003
0000
0000
0000
;
