#TITLE:flos;
#SUBTITLE:;
#ARTIST:R Sound Design;
#TITLETRANSLIT:flos;
#SUBTITLETRANSLIT:;
#ARTISTTRANSLIT:R Sound Design;
#GENRE:POP;
#CREDIT:;
#MUSIC:flos.ogg;
#BANNER:flos.png;
#BACKGROUND:flos-bg.png;
#CDTITLE:;
#SAMPLESTART:52.909;
#SAMPLELENGTH:16.271;
#SELECTABLE:YES;
#OFFSET:-0.028;
#BPMS:0.000=118.000;
#STOPS:;
#BGCHANGES:8.000=flos.avi=1.000=0=0=0=StretchNoLoop====,
99999.000=-nosongbg-=1.000=0=0=0=StretchNoLoop====
;
#FGCHANGES:;

//--------------- dance-single - ----------------
#NOTES:
     dance-single:
     :
     Hard:
     13:
     0,0,0,0,0:
0000
0000
0000
0000
,
0000
0000
0000
0000
,
1000
0000
0001
0010
0000
0001
0200
0000
0000
0301
0000
0000
0001
0000
1000
0010
0000
1000
0200
0000
0000
1300
0000
0000
,
1000
0000
0100
0010
0000
0100
2000
0000
0000
3001
0000
0000
0001
0000
0100
0010
0000
0100
0002
0000
0000
0013
0000
0000
,
0010
0000
0001
0010
0000
0100
2000
0000
0000
3001
0000
0000
0001
0000
1000
0010
0000
0100
0002
0000
0000
0013
0000
0000
,
0010
0000
0100
1000
0000
0001
2000
0000
0000
3001
0000
0000
0100
0000
0000
0000
0000
0000
0110
0000
0000
0000
0000
0000
,
0010
0000
0000
1000
0000
0000
0001
0000
1000
0100
0000
1000
0000
0000
0000
0001
0000
0000
0100
0000
0001
1000
0000
0010
,
0000
0000
0000
0100
0000
0000
0001
0000
0010
0100
0000
1000
0000
0000
0000
1000
0000
0100
0010
0000
0100
1000
0000
0001
,
0000
0000
0000
1000
0000
0000
0010
0000
0100
0001
0000
0100
0000
0000
0000
0010
0000
0000
1000
0000
0100
0010
0000
0100
,
0000
0000
0000
1000
0000
0000
0001
0000
0100
0001
0000
0100
0000
0000
0000
0010
0000
0100
0001
0000
0100
0010
0000
1000
,
0000
0100
0010
0001
0000
1000
0100
1000
,
0000
0000
0000
0001
0000
0100
0010
0000
0000
0100
0000
0000
0000
0000
0000
0001
0000
0010
0100
0000
0000
0010
0000
0000
,
0001
1000
0001
0000
0100
0010
0100
0001
,
2000
0000
3020
0000
0130
0001
0020
0000
,
0130
0000
1000
0000
0001
0000
0010
0000
0000
0000
0100
0000
1000
0001
1000
0000
,
0000
0000
0001
0000
0100
0010
0100
0000
0000
0000
0100
0000
0001
1000
0001
0000
,
0000
1000
1000
0000
0001
0100
0010
0100
,
2000
0000
0000
0000
0000
0000
3200
0000
0000
0000
0000
0301
0010
0000
0000
0100
0000
0000
0110
0000
0000
0000
0000
0000
,
0200
0000
1300
0010
0200
0000
0001
0302
,
0000
0000
0010
0000
0013
0000
0100
0000
2000
0000
0000
0001
0000
0000
3100
0000
,
0010
0000
0001
0100
1000
0200
0000
0320
,
0000
1030
0100
0002
0000
0203
0000
0310
,
0011
0000
0000
0001
0000
0000
0010
0000
1100
0000
0000
1000
0000
0000
0001
0000
,
1010
0000
0000
1000
0000
0000
0010
0000
0101
0000
0000
0001
0000
0000
0010
0000
,
1001
0000
0000
0100
0000
0000
1000
0000
0110
0000
0000
0001
0000
0000
0010
0000
,
1100
0000
0000
0100
0000
0000
0010
0000
0001
0000
1000
0000
1001
0000
0000
0000
,
0001
0100
1000
0000
0100
0001
0010
0100
,
1010
0100
0001
0000
0011
0100
1000
0000
,
1000
0100
0001
0000
0001
0100
1000
0010
,
0100
0010
0100
0002
0000
1003
0100
1000
,
0110
0001
1000
0000
0001
0010
0100
1000
,
1010
0001
0101
0010
0011
0100
1100
0000
,
1000
0100
0010
0001
0010
0100
1000
0001
,
1100
0101
1100
1001
,
1000
0100
0001
0000
0001
0100
1000
0001
,
1000
0010
0101
0000
0001
0010
1100
0000
,
0001
0010
1000
0000
0010
0001
0100
1000
,
0001
0010
1000
0002
0000
0013
0100
0010
,
0001
0100
1000
0000
0100
0001
0010
0100
,
0011
1000
1100
0100
1010
0001
0101
0200
,
0000
0010
0310
0000
0010
1000
0100
0010
,
0011
0000
1010
0000
0001
0010
0100
1000
,
0001
0000
0000
1000
0000
0000
0001
0000
1000
0010
0000
1000
0000
0000
0000
0001
0000
0000
0010
0000
0001
1000
0000
0100
,
0000
0000
0000
0010
0000
0000
0001
0000
0100
0010
0000
1000
0000
0000
0000
0001
0000
0010
0100
0000
0010
0001
0000
1000
,
0000
0000
0000
0001
0000
0000
0100
0000
0010
1000
0000
0010
0000
0000
0000
0100
0000
0000
0001
0000
0010
0100
0000
0010
,
0000
0000
0000
0001
0000
0000
1000
0000
0010
1000
0000
0010
0000
0000
0000
0100
0000
0010
1000
0000
0010
0100
0000
0001
,
0010
0000
0000
0001
0000
0000
1000
0000
0001
0100
0000
0001
0000
0000
0000
1000
0000
0000
0100
0000
1000
0001
0000
0010
,
0000
0000
0000
0100
0000
0000
1000
0000
0010
0100
0000
0001
0000
0000
0000
1000
0000
0100
0010
0000
0100
1000
0000
0001
,
0000
0000
0000
1000
0000
0000
0010
0000
0100
0001
0000
0100
0000
0000
0000
0010
0000
0000
1000
0000
0100
0010
0000
0100
,
0000
0000
0000
1000
0000
0000
0001
0000
0100
0001
0000
0100
0000
0000
0000
0010
0000
0100
0001
0000
0100
0010
0000
1000
,
0001
0000
1000
0010
0000
1000
0200
0000
0000
1300
0000
0000
1000
0000
0001
0010
0000
0001
0200
0000
0000
0301
0000
0000
,
0001
0000
0100
0010
0000
0100
0002
0000
0000
1003
0000
0000
1000
0000
0100
0010
0000
0100
2000
0000
0000
3010
0000
0000
,
0010
0000
1000
0010
0000
0100
0002
0000
0000
1003
0000
0000
1000
0000
0001
0010
0000
0100
2000
0000
0000
3010
0000
0000
,
0010
0000
0100
0001
0000
1000
0002
0000
0000
1003
0000
0000
0100
0000
0100
1000
0000
0010
0002
0000
0000
0000
0000
0000
,
0013
0000
0010
1000
0000
0001
2000
0000
0000
3001
0000
0000
1000
0000
0001
0100
0000
0001
0020
0000
0000
0031
0000
0000
,
0001
0000
0010
0100
0000
0010
0002
0000
0000
1003
0000
0000
1000
0000
0010
0100
0000
0010
2000
0000
0000
3100
0000
0000
,
0100
0000
1000
0100
0000
0010
0002
0000
0000
1003
0000
0000
1000
0000
0001
0100
0000
0010
2000
0000
0000
3100
0000
0000
,
0100
0000
0010
0001
0000
1000
0002
0000
0000
1003
0000
0000
0010
0000
0000
0000
0000
0000
0220
0000
0000
0000
0000
0000
,
0330
0000
0000
0000
;

//--------------- dance-single - ----------------
#NOTES:
     dance-single:
     :
     Challenge:
     15:
     0.624516,0.74536,0.124903,0,0.3872,525,510,15,0,0,0,0.624516,0.74536,0.124903,0,0.3872,525,510,15,0,0,0:
0000
0000
0000
0000
,
0000
0000
0000
0000
,
0001
0000
0000
0000
0001
0000
1000
0000
0000
0000
0020
0000
1000
0000
0000
0000
0130
0000
0001
0000
0000
0000
0000
0000
0001
0000
0000
0000
0010
0000
0100
0000
0000
0000
0020
0000
0001
0000
0000
0030
0000
0000
1000
0000
0000
0000
0000
0000
,
0001
0000
0000
0000
0100
0000
0010
0000
0000
0000
0000
0000
0020
0000
0000
0130
0000
0000
0001
0000
0000
1000
0000
0000
0001
0000
0000
0000
0010
0000
0001
0000
0000
0000
0000
0000
0020
0000
0000
0000
0000
0000
0130
0000
0000
1000
0000
0000
,
0100
0000
0000
0000
0010
0000
0001
0000
0000
0000
0200
0000
0010
0000
0000
0000
0301
0000
1000
0000
0000
0000
0000
0000
0001
0000
0000
0000
0010
0000
0100
0000
0000
0000
0000
0000
2000
0000
0000
3001
0000
0000
0100
0000
0000
0000
0000
0000
,
0001
0000
0000
0000
0100
0000
0010
0000
0000
0000
0000
0000
2000
0000
0000
0000
0000
0000
3001
0000
0000
0010
0000
0000
0100
0000
0000
0000
0000
0000
0000
0000
0000
0000
0000
0000
0110
0000
0000
0000
0000
0000
0000
0000
0000
0000
0000
0000
,
0010
0000
0100
1000
0000
0000
0001
0000
0100
0010
0000
0100
0001
0000
0001
0000
0000
0010
0100
0000
1000
0100
0000
1000
,
0010
0000
0100
0001
0000
0000
0001
0000
0010
0100
0000
1000
0001
0000
0100
1000
0000
0100
0010
0000
0100
0001
0000
0001
,
0010
0000
0100
1000
0000
0000
0010
0000
0100
1000
0000
0100
0010
0000
0010
0000
0000
1000
0001
0000
0010
0100
0000
0010
,
0001
0000
1000
0010
0000
0000
0010
0000
0100
0001
0000
1000
0010
0000
0100
0001
0000
0010
0100
0000
0010
1000
0000
0010
,
0001
0000
0001
0100
0000
0000
0010
0000
0100
1000
0000
0000
0100
0000
0100
0010
0000
0000
1000
0000
0100
0010
0000
0000
,
0001
0000
0010
1000
0000
0010
0100
0000
1000
0010
0000
0000
0100
0000
0010
1000
0000
0100
0010
0000
0001
0100
0000
0000
,
0100
0000
1000
0100
0000
0010
0001
0000
0000
0000
0000
0000
0010
0000
0010
1000
0000
0000
0100
0000
0000
0010
0000
0000
,
0001
0000
0010
0100
0000
0000
0010
0000
0000
0000
0000
0000
0001
0000
1000
0010
0000
0000
0100
0000
0000
0000
0000
0000
,
0010
0000
0000
0000
1000
0000
0100
0000
0000
0000
0010
0000
0001
0000
0000
0000
1000
0000
0010
0000
0000
0000
0000
0000
0100
0000
0000
0000
0001
0000
1000
0000
0000
0000
0000
0000
0001
0000
0000
0010
0000
0000
1000
0000
0000
0000
0000
0000
,
0010
0000
0000
0000
0001
0000
0100
0000
0000
0000
0000
0000
0001
0000
0000
0100
0000
0000
1000
0000
0000
0000
0000
0000
0100
0000
0000
0000
0010
0000
1000
0000
0000
0000
0000
0000
0001
0000
0000
0010
0000
0000
0100
0000
0000
0000
0000
0000
,
0100
0000
0010
0001
0000
1000
0001
0000
0000
0000
0000
0000
0100
0000
0001
0010
0000
0000
0010
0000
0000
0100
0000
0000
,
0001
0000
0100
1000
0000
0000
0010
0000
0000
0100
0000
0100
0001
0000
0001
1000
0000
0000
0100
0000
0000
0010
0000
0001
,
2000
0000
0000
0010
0000
0000
3001
0000
0100
0010
0000
1000
0002
0000
0000
0000
0000
0000
0013
0000
0000
0010
0000
0100
,
0010
0000
0000
0000
0000
0000
0001
0000
0000
0000
1000
0000
0001
0000
0000
0000
1000
0000
0010
0000
0000
0000
0000
0000
0200
0000
0000
0000
0000
0000
0000
0000
0000
1000
0000
0000
0000
0000
0000
0000
0000
0000
0301
0000
0000
0000
0001
0000
,
0010
0000
0000
0100
0000
0000
1000
0000
0100
0010
0000
0100
0001
0000
0000
0100
0000
0000
1000
0000
0000
0010
0000
0100
,
0010
0000
0000
0001
0000
0000
0010
0000
1000
0100
0000
0010
0001
0000
0000
1000
0000
0100
0000
0000
0010
0000
0000
0000
,
0210
0000
0000
0001
0000
0000
1300
0010
0200
0000
0000
1000
0000
0000
0301
0000
,
1002
0000
0000
0100
0000
0000
1003
0100
0020
0000
0000
0001
0000
0000
0130
0000
,
2001
0000
0000
0010
0000
0000
3100
0000
0012
0000
0000
1000
0000
0000
0103
0000
,
1020
0000
0000
1000
0000
0000
0100
0000
0031
0000
0010
0000
0110
0000
0000
0000
,
1010
0000
0000
0100
0000
0001
0010
0000
0100
0010
0000
1000
0010
0000
0000
0001
0000
0000
0100
0000
0010
0100
0000
0000
,
0110
0000
0000
1000
0000
0001
0010
0000
0000
0100
0000
0000
0110
0000
0000
0001
0000
1000
0010
0000
0100
0010
0000
0000
,
0110
0000
0000
1000
0000
0100
0001
0000
0100
0010
0000
0100
1000
0000
0000
0010
0000
0000
1001
0000
0000
0100
0000
0000
,
0110
0000
0010
1000
0000
0000
0100
0000
0001
0100
0000
0100
1000
0000
0000
0010
0000
0100
0001
0000
1000
0010
0000
0000
,
1001
0000
0000
0100
0000
0001
0010
0000
0100
0010
0000
1000
0010
0000
0000
0001
0000
0000
0101
0000
0010
1000
0000
0000
,
0110
0000
0000
0100
0000
0001
0010
0000
0000
0100
0000
0000
0110
0000
0010
0001
0000
0001
1000
0000
1000
0010
0000
0010
,
0100
0000
0000
0010
0000
0000
0101
0000
0001
1000
0000
0000
0100
0000
0100
0010
0000
0000
0001
0000
0001
0100
0000
0000
,
0110
0000
0000
0010
0000
0000
0110
0000
0100
0010
0000
0000
0110
0000
0000
0100
0000
0000
0110
0000
0010
0100
0000
0000
,
0110
0000
0000
1000
0000
0001
0010
0000
0100
1000
0000
0001
0100
0000
0000
0010
0000
0000
1000
0000
0001
0010
0000
0000
,
1100
0000
0000
0001
0000
1000
0010
0000
0000
1000
0000
0000
0101
0000
0000
1000
0000
0001
0010
0000
0100
0010
0000
0000
,
0110
0000
0000
0100
0000
1000
0010
0000
0100
0001
0000
0001
0010
0000
0000
0100
0000
0000
1100
0000
0000
0010
0000
0000
,
1001
0000
0001
0100
0000
0000
1000
0000
0100
0001
0000
0001
0010
0000
0000
0010
0000
0100
1000
0000
0001
1000
0000
0000
,
1010
0000
0000
0010
0000
0100
0001
0000
0010
0001
0000
0010
0100
0000
0000
1000
0000
0000
1001
0000
0001
0100
0000
0000
,
1010
0000
0000
0001
0000
1000
0100
0000
0000
0010
0000
0000
0011
0000
0001
0100
0000
0100
1000
0000
0001
0010
0000
0010
,
1000
0000
0000
0010
0000
0000
1100
0000
0001
0010
0000
0000
0100
0000
0100
1000
0000
0000
0010
0000
1000
0001
0000
0000
,
1001
0000
0000
0001
0000
0000
1001
0000
1000
0001
0000
0000
1001
0000
0000
1000
0000
0000
1001
0000
0001
1000
0000
0000
,
1001
0000
0100
0001
0000
0000
1000
0000
0100
0010
0000
0100
1000
0000
1000
0000
0000
0010
0100
0000
0001
0100
0000
0001
,
0010
0000
0100
1000
0000
0000
1000
0000
0010
0100
0000
0001
1000
0000
0100
0001
0000
0100
0010
0000
0100
1000
0000
1000
,
0010
0000
0100
0001
0000
0000
0010
0000
0100
0001
0000
0100
0010
0000
0010
0000
0000
0001
1000
0000
0010
0100
0000
0010
,
1000
0000
0001
0010
0000
0000
0010
0000
0100
1000
0000
0001
0010
0000
0100
1000
0000
0010
0100
0000
0010
0001
0000
0010
,
0100
0000
0010
1000
0000
0000
0001
0000
0010
0100
0000
0010
0001
0000
0001
0000
0000
0100
0010
0000
1000
0010
0000
1000
,
0100
0000
0010
0001
0000
0000
0001
0000
0100
0010
0000
1000
0001
0000
0010
1000
0000
0010
0100
0000
0010
0001
0000
0001
,
0100
0000
0010
1000
0000
0000
0100
0000
0010
1000
0000
0010
0100
0000
0100
0000
0000
1000
0001
0000
0100
0010
0000
0100
,
0001
0000
1000
0100
0000
0000
0100
0000
0010
0001
0000
1000
0100
0000
0010
0001
0000
0100
0010
0000
0100
1000
0000
0100
,
0001
0000
0000
0000
0001
0000
1000
0000
0000
0000
0020
0000
1000
0000
0000
0000
0130
0000
0001
0000
0000
0000
0000
0000
0001
0000
0000
0000
0010
0000
0100
0000
0000
0000
0020
0000
0001
0000
0000
0030
0000
0000
1000
0000
0000
0000
0000
0000
,
0001
0000
0000
0000
0100
0000
0010
0000
0000
0000
0000
0000
0020
0000
0000
0130
0000
0000
0001
0000
0000
1000
0000
0000
0001
0000
0000
0000
0010
0000
0001
0000
0000
0000
0000
0000
0020
0000
0000
0000
0000
0000
0130
0000
0000
1000
0000
0000
,
0100
0000
0000
0000
0010
0000
0001
0000
0000
0000
0200
0000
0010
0000
0000
0000
0301
0000
1000
0000
0000
0000
0000
0000
0001
0000
0000
0000
0010
0000
0100
0000
0000
0000
0000
0000
2000
0000
0000
3001
0000
0000
0100
0000
0000
0000
0000
0000
,
0001
0000
0000
0000
0100
0000
0010
0000
0000
0000
0000
0000
2000
0000
0000
0000
0000
0000
3001
0000
0000
0010
0000
0000
0100
0000
0000
0000
0100
0000
1000
0000
0000
0000
0010
0000
0002
0000
0000
0000
0000
0000
0000
0000
0000
0000
0000
0000
,
1003
0000
0000
0000
0100
0000
0001
0000
0000
0000
0020
0000
0100
0000
0000
1030
0000
0000
0001
0000
0000
0000
0000
0000
0010
0000
0000
0000
0100
0000
1000
0000
0000
0000
0002
0000
0100
0000
0000
0000
0000
0000
0013
0000
0000
0000
0000
0000
,
0100
0000
0000
0000
1000
0000
0010
0000
0000
0000
0000
0000
0200
0000
0000
0001
0000
0000
0310
0000
0000
1000
0000
0000
0001
0000
0000
0000
0100
0000
0010
0000
0000
0000
0000
0000
0002
0000
0000
0000
0000
0000
1003
0000
0000
0000
0000
0000
,
0001
0000
0000
0000
0100
0000
1000
0000
0000
0200
0000
0000
0010
0000
0000
1300
0000
0000
0001
0000
0000
0000
0000
0000
0001
0000
0000
0000
0010
0000
0100
0000
0000
0000
0000
0000
2000
0000
0000
3010
0000
0000
0100
0000
0000
0000
0000
0000
,
0010
0000
0000
0000
1000
0000
0001
0000
0000
0000
0000
0000
0020
0000
0000
0100
0000
0000
1030
0000
0000
0100
0000
0000
0010
0000
0000
0000
0000
0000
0000
0000
0000
0000
0000
0000
2002
0000
0000
0000
0000
0000
0000
0000
0000
0000
0000
0000
,
3003
0000
0000
0000
;
