#VERSION:0.83;
#TITLE:やんなっちゃう!;
#SUBTITLE:;
#ARTIST:重音テト;
#TITLETRANSLIT:feel empty!;
#SUBTITLETRANSLIT:;
#ARTISTTRANSLIT:Kasane Teto;
#GENRE:POP;
#CREDIT:;
#MUSIC:feel empty!.ogg;
#BANNER:feel empty!.png;
#BACKGROUND:feel empty!-bg.png;
#CDTITLE:;
#SAMPLESTART:66.303;
#SAMPLELENGTH:9.143;
#SELECTABLE:YES;
#OFFSET:-0.017;
#BPMS:0.000=210.000
,72.000=105.000
,72.500=210.000
,101.500=105.000
,102.500=210.000
,166.500=105.000
,190.500=210.000
,205.500=105.000
,206.000=210.000
,238.000=105.000
,238.500=210.000
,253.500=105.000
,254.000=210.000
,342.500=105.000
,343.500=210.000
,375.500=105.000
,376.000=210.000
;
#STOPS:313.021=0.143;
#WARPS:269.021=6.000,
307.021=6.000
;
#SPEEDS:0.000=1.000=0.000=0;
#SCROLLS:0.000=1.000;
#TICKCOUNTS:0.000=4;
#TIMESIGNATURES:0.000=4=4;
#LABELS:0.000=Song Start;
#COMBOS:0.000=1;
#ORIGIN:;
#PREVIEWVID:;
#JACKET:feel empty!-jacket.png;
#CDIMAGE:;
#DISCIMAGE:;
#BGCHANGES:3.750=feel empty!.avi=1.000=0=0=0=StretchNoLoop====,
99999.000=-nosongbg-=1.000=0=0=0=StretchNoLoop====
;
#FGCHANGES:;

//--------------- dance-single - ----------------
#NOTEDATA:;
#STEPSTYPE:dance-single;
#DESCRIPTION:;
#DIFFICULTY:Medium;
#METER:13;
#RADARVALUES:0,0,0,0,0;
#NOTES:
0000
0000
0000
0000
,
0000
0000
0000
0000
,
0000
0000
0000
0000
,
0000
0000
0000
0000
,
0000
0000
0000
0000
,
0000
0000
0000
0000
,
0000
0000
0000
0000
,
0000
0000
0000
0000
,
0000
0000
0000
0000
,
0000
0000
0000
0000
,
0101
0000
0001
0100
0001
1000
0010
0100
,
0010
0101
0010
1100
,
1001
0000
1000
0010
1000
0001
0010
0100
,
0010
0000
0011
0000
0001
0010
0100
1000
,
0001
0000
1000
0010
0100
0010
1000
0001
,
0010
1100
0010
1001
,
0101
0000
0001
0010
0100
1000
0001
0100
,
0010
0000
1010
0000
0010
1000
0001
1000
,
0200
0310
0001
1000
0001
0010
0100
1000
,
0000
0001
0000
1000
0000
1001
0000
0001
,
0000
1000
0010
0100
0001
0010
0100
1000
,
0000
0001
0000
0100
0010
0100
0001
0010
,
0000
0100
1000
0001
0100
0010
1000
0001
,
0000
1000
0000
0001
0000
1001
0000
1000
,
0000
0010
0100
0001
1000
0100
0010
0001
,
1000
0001
1000
0020
0100
0130
0000
0001
,
1000
0001
0000
0010
0000
0100
0000
1000
,
0001
1000
0000
0010
0000
0100
0000
0100
,
0001
1000
0000
0100
0000
0010
0000
0001
,
1000
0000
0010
0100
0010
0100
0000
0001
,
0000
0100
0000
1000
0000
0100
0000
0001
,
0100
0001
0000
1000
0000
0001
0010
0100
,
0000
1000
0010
0100
0000
0001
0000
1000
,
0010
0000
0100
0010
1000
0001
0010
0100
,
0000
0010
0001
1000
0000
0010
0100
0010
,
0000
0100
0001
1000
0000
0001
0010
1000
,
0000
1000
0010
0001
0000
1000
0010
0001
,
0000
0001
0010
1000
0100
0010
0000
1001
,
0000
1000
0010
0100
0000
0010
1000
0001
,
0000
1000
0100
0010
0000
0001
0010
0100
,
1000
0001
0000
0100
0000
0001
0100
1000
,
0010
0001
0100
1000
0010
0002
0000
2003
,
0000
3010
0100
0010
1000
0001
0010
0100
,
1000
0001
0000
1000
0100
1000
0000
0001
,
1000
0001
0100
0010
1000
0001
0000
0010
,
0100
1000
0001
0100
1000
0100
0000
0001
,
0000
1000
0100
0010
0001
1000
0010
1000
,
0001
1000
0010
0100
0010
0200
0301
0100
,
0001
1000
0001
1000
0001
0010
0001
0010
,
0100
1000
0100
1000
0001
0101
0000
1100
,
0000
0101
0000
1100
0000
1000
0001
1000
,
0001
1000
0000
0020
0130
0000
1001
0000
,
0001
0010
0100
1000
0000
0000
1010
0000
,
1000
0010
0100
0001
0010
0100
0010
0001
,
0010
0100
1000
0010
0000
0100
0001
1000
,
0001
0100
1010
0101
,
0001
0010
0100
1000
0000
0000
1100
0000
,
1000
0100
0010
0001
1000
0010
0100
0010
,
1000
0010
0100
0001
0100
0010
1000
0001
,
0010
0000
0100
0000
2000
3001
0000
1001
,
0000
0001
0100
0000
0100
0010
0000
1000
,
0001
0010
0001
0100
1000
0100
0001
0010
,
0100
0010
0001
0000
0001
1000
0000
0010
,
0000
0100
0000
0002
1003
0000
1001
0000
,
1000
0100
0000
0100
0010
0000
0001
1000
,
0010
1000
0100
0001
0100
1000
0010
1000
,
0100
0010
0001
1000
0001
1000
0010
0100
,
0010
0100
1001
0000
000M
M000
0000
000M
,
00M0
0M00
M000
000M
M000
00M0
0000
0000
,
0001
1000
0000
0001
0010
0100
1000
0001
,
1000
0010
0000
0010
0100
0001
1000
0000
,
0000
1001
0000
1000
0010
0100
0001
0010
,
0100
1000
0000
0001
0100
0010
1000
0000
,
0001
0000
0010
0000
0100
1000
0001
0100
,
0001
0010
0000
0100
1000
0001
1000
0000
,
1000
0000
0001
0000
0001
1000
0010
0100
,
0001
0000
0000
0000
0000
0000
0000
0000
0000
0000
0000
0000
0000
0000
0000
0000
0000
0000
0000
0000
0000
0000
0000
0000
0010
0000
0000
0000
0000
0000
0000
0000
0000
0000
0000
0000
0000
0000
0000
0000
0000
0000
0000
0000
0000
0000
0000
0000
0100
0000
0000
0000
0000
0000
0000
0000
0000
0000
0000
0000
0000
0000
0000
0000
0000
0000
0000
0000
0000
0000
0000
0000
0000
0000
0000
0000
0000
0000
0000
0000
0000
0000
0000
0000
0000
0000
0000
0000
0000
0000
0000
0000
0000
0000
0000
0000
0010
0000
0000
0000
0000
0000
0000
0000
0000
0000
0000
0000
0000
0000
0000
0000
0000
0000
0000
0000
0000
0000
0000
0000
0000
0000
0000
0000
0000
0000
0000
0000
0000
0000
0000
0000
0000
0000
0000
0000
0000
0000
0000
0000
0000
0000
0000
0000
2002
3003
0000
0000
0000
0000
0000
0000
0000
0000
0000
0000
0000
0000
0000
0000
0000
0000
0000
0000
0000
0000
0000
0000
000M
0000
0000
0000
0000
0000
0000
0000
0000
0000
0000
0000
0000
0000
0000
0000
0000
0000
0000
0000
0000
0000
0000
0000
,
M000
0000
000M
0M00
000M
M000
0M00
M000
,
000M
0000
0000
0001
1000
0000
0001
0100
,
0001
1000
0100
1000
0001
0000
0001
0010
,
0100
1000
0000
0001
0100
0000
0010
0100
,
0001
1000
0100
0010
0001
0000
1000
0100
,
0001
0100
0000
1000
0000
0010
0000
0100
,
0001
0010
1000
0010
0001
0000
1000
0010
,
0100
0010
0000
1000
0000
0001
0000
1000
,
0001
0100
0010
0100
0010
0200
0010
0301
,
0000
1000
0001
0100
1000
0100
0001
1000
,
0000
1100
0000
0001
0000
0101
0000
1001
,
0000
0001
1000
0100
0001
0100
1000
0001
,
0000
0101
0000
1000
0010
0100
0001
1000
,
0000
0001
1000
0010
0001
0010
1000
0001
,
0000
0011
0000
1000
0000
1010
0000
1001
,
0000
1000
0001
0010
1000
0010
0001
1000
,
0000
1010
0000
0100
0001
1000
0001
0020
,
0130
1000
0001
1000
0010
0001
0010
0000
,
1000
0001
1001
1000
,
1000
0100
0010
0001
0010
0100
1000
0000
,
0001
0000
1000
0010
0100
0001
0100
0000
,
0100
0001
1000
0001
0010
1000
0010
0000
,
0001
1000
1001
0001
,
1000
0010
0100
0001
0100
0010
1000
0000
,
1001
0000
1000
0100
0010
0001
1000
0000
,
0000
1000
0000
1000
0010
0100
0001
0000
,
0000
0001
0000
0001
0010
0001
0100
0000
,
0000
0100
0000
0100
0000
0100
0010
0000
,
0000
0010
1000
0000
0001
0000
0010
0000
,
0000
0010
0000
0010
0100
0010
0001
0000
,
0000
0001
0000
0001
1000
0010
0100
0000
,
0000
0100
0000
0100
0001
1000
0010
0100
,
0010
0100
0010
0000
0000
0000
0000
0000
;

//--------------- dance-single - ----------------
#NOTEDATA:;
#STEPSTYPE:dance-single;
#DESCRIPTION:;
#DIFFICULTY:Hard;
#METER:16;
#RADARVALUES:0,0,0,0,0;
#NOTES:
0000
0000
0000
0000
,
0000
0000
0000
0000
,
0000
0000
0000
0000
,
0000
0000
0000
0000
,
0000
0000
0000
0000
,
0000
0000
0000
0000
,
0000
0000
0000
0000
,
0000
0000
0000
0000
,
0000
0000
0000
0000
,
0000
0000
0000
0000
,
1001
0000
0000
0000
0001
0000
0100
0000
0010
0000
1000
0001
0010
0000
0100
0000
,
1100
0011
1100
0110
,
1001
0000
0000
0000
1000
0000
0100
0000
0010
0000
0001
0100
0010
0000
1000
0000
,
1010
0000
0000
0000
0101
0000
0000
0000
0001
0000
1000
0100
0010
0000
0100
0000
,
1100
0000
0000
0000
0100
0000
1000
0000
0001
0000
0010
0100
1000
0000
0001
0000
,
0101
1010
0101
1001
,
1010
0000
0000
0000
1000
0000
0010
0000
0100
0000
0001
0010
0100
0000
0010
0000
,
0011
0000
0000
0000
1100
0000
0000
0000
0001
0000
0010
0100
1000
0000
0001
0000
,
0200
0000
0310
0000
1000
0000
0010
0000
0100
0001
1000
0000
0100
0000
1100
0000
,
0000
1001
0000
0101
0000
1001
0000
0110
,
0000
0000
0001
0000
0100
0000
0010
0000
0100
0001
1000
0000
0100
0000
1100
0000
,
0000
0000
0110
0000
0000
0000
0001
0000
0100
0010
1000
0000
0001
0000
0011
0000
,
0000
0000
1000
0000
0010
0000
0100
0000
0010
1000
0001
0000
0010
0000
0011
0000
,
0000
1001
0000
1010
0000
1001
0000
0110
,
0000
0000
0001
0000
0100
0000
0010
0000
1000
0001
0010
0000
0100
0000
1000
0000
,
0100
1000
0100
2100
0001
3001
0000
0100
,
0001
0010
0000
0100
1000
0001
1000
0010
,
0100
0101
0000
1010
0000
1000
0100
0010
,
0001
1000
0010
0100
0000
0010
1000
0001
,
1000
0000
0001
0010
0100
1000
0000
0001
,
0100
0000
1000
0100
0001
1000
0000
0001
,
0010
0000
0100
1000
0001
1000
0100
0001
,
0100
1000
0001
0100
0000
0110
0000
0010
,
1000
0000
0001
0100
0010
1000
0001
0101
,
0100
0001
1000
1010
0010
1000
0001
0101
,
0100
0000
0010
0110
0100
0001
0010
0011
,
0001
1000
0100
1100
0000
0110
0000
1001
,
0001
0100
0010
0100
0010
0110
0000
1001
,
0100
0000
0001
0011
0010
0100
1000
1100
,
0100
0000
1000
1010
0010
0100
0001
0101
,
0100
0001
0000
1100
0100
1000
0010
0001
,
0100
0000
0000
0000
0000
0000
0000
0000
0000
0000
0000
0000
0000
0000
0000
0000
0000
0000
0000
0000
0000
0000
0000
0000
1000
0000
0000
0000
0000
0000
0000
0000
0000
0000
0000
0000
0000
0000
0000
0000
0000
0000
0000
0000
0000
0000
0000
0000
0010
0000
0000
0000
0000
0000
0000
0000
0000
0000
0000
0000
0000
0000
0000
0000
0000
0000
0000
0000
0000
0000
0000
0000
0001
0000
0000
0000
0000
0000
0000
0000
0000
0000
0000
0000
0000
0000
0000
0000
0000
0000
0000
0000
0000
0000
0000
0000
0100
0000
0000
0000
0000
0000
0000
0000
0000
0000
0000
0000
0000
0000
0000
0000
0000
0000
0000
0000
0000
0000
0000
0000
2000
3000
0000
0000
0000
0000
0000
0000
0000
0000
0000
0000
0000
0000
0000
0000
0000
0000
0000
0000
0000
0000
0000
0000
0010
0000
0000
0000
0000
0000
0000
0000
0000
0000
0000
0000
0000
0000
0000
0000
0000
0000
0000
0000
0000
0000
0000
0000
0100
0000
0000
0000
0000
0000
0000
0000
0000
0000
0000
0000
0000
0000
0000
0000
0000
0000
0000
0000
0000
0000
0000
0000
,
0010
1000
0001
0000
0010
0000
0100
1000
0001
1000
0001
0000
0100
0000
0010
0000
,
1000
0001
0000
0001
0010
1000
0010
0001
,
1000
0001
1000
0000
0010
0000
0100
0000
0001
0000
1000
0000
0000
0000
0001
0000
,
0100
0000
1000
0000
0100
0001
1000
0000
0001
0000
1001
0000
0000
0000
1000
0000
,
0100
0010
0100
0010
0001
0000
0100
0010
0100
0010
1000
0000
0010
0000
0100
0000
,
0001
0000
0000
0000
0000
0000
0000
0000
0000
0000
0000
0000
1000
0000
0000
0000
0000
0000
0000
0000
0000
0000
0000
0000
0001
0000
0000
0000
0000
0000
0000
0000
0000
0000
0000
0000
0000
0000
0000
0000
0000
0000
0000
0000
0000
0000
0000
0000
0010
0000
0000
0000
0000
0000
0000
0000
0000
0000
0000
0000
0000
0000
0000
0000
0000
0000
0000
0000
0000
0000
0000
0000
0100
0000
0000
0000
0000
0000
0000
0000
0000
0000
0000
0000
0000
0000
0000
0000
0000
0000
0000
0000
0000
0000
0000
0000
1000
0000
0000
0000
0000
0000
0000
0000
0000
0000
0000
0000
0000
0000
0000
0000
0000
0000
0000
0000
0000
0000
0000
0000
0002
0003
0000
0000
0000
0000
0000
0000
0000
0000
0000
0000
0000
0000
0000
0000
0000
0000
0000
0000
0000
0000
0000
0000
0010
0000
0000
0000
0000
0000
0000
0000
0000
0000
0000
0000
0000
0000
0000
0000
0000
0000
0000
0000
0000
0000
0000
0000
0100
0000
0000
0000
0000
0000
0000
0000
0000
0000
0000
0000
0000
0000
0000
0000
0000
0000
0000
0000
0000
0000
0000
0000
,
0010
0001
0010
1000
0010
0001
0100
0010
,
0100
0001
0100
1000
0100
0110
0000
1001
,
0000
0110
0000
1001
0000
0001
0010
0100
,
1000
0001
0000
0200
0310
0000
0101
0001
,
1000
0000
0010
0100
0010
0000
1000
0000
0000
0000
0000
0000
1100
0000
0000
0000
,
1000
0000
0001
0100
0001
0000
1000
0000
0010
0000
1000
0000
0100
0000
0010
0000
,
0001
0000
0010
0000
0100
0010
0001
0000
0000
0000
1000
0000
0010
0000
0100
0001
,
0100
0000
0001
1000
0010
0000
0000
0000
0100
0000
0001
1000
0001
0000
0010
0000
,
0100
0000
1000
0001
1000
0000
0100
0000
0000
0000
1000
0001
1000
0000
0010
0000
,
0100
0000
0001
0000
1000
0000
0001
0100
0001
0000
1000
0100
1000
0000
0001
0100
,
0001
0000
1000
0100
1000
0000
0100
0000
0010
0000
0001
0000
1000
0000
0010
0000
,
0100
0000
0110
0000
0020
0130
0000
1001
,
0000
0000
0001
0000
0100
0000
0000
0000
0010
0000
1000
0000
0001
0010
0100
0000
,
1000
0000
0100
0000
0010
0000
0001
0000
1000
0010
1000
0000
0010
0100
0010
0000
,
0100
0001
1000
0000
0100
0000
0000
0000
0100
0000
0010
0000
0100
0000
1000
0000
,
0000
0000
0000
0000
0000
0000
0000
0000
0000
0000
0000
0000
0000
0000
0000
0000
0000
0000
0000
0000
0000
0000
0000
0000
0001
0000
0000
0000
0000
0000
0000
0000
0000
0000
0000
0000
0000
0000
0000
0000
0000
0000
0000
0000
0000
0000
0000
0000
0000
0000
0000
0000
0000
0000
0000
0000
0000
0000
0000
0000
0000
0000
0000
0000
0000
0000
0000
0000
0000
0000
0000
0000
0220
0330
0000
0000
0000
0000
0000
0000
0000
0000
0000
0000
0000
0000
0000
0000
0000
0000
0000
0000
0000
0000
0000
0000
1001
0000
0000
0000
0000
0000
0000
0000
0000
0000
0000
0000
0000
0000
0000
0000
0000
0000
0000
0000
0000
0000
0000
0000
0000
0000
0000
0000
0000
0000
0000
0000
0000
0000
0000
0000
0000
0000
0000
0000
0000
0000
0000
0000
0000
0000
0000
0000
0001
0000
0000
0000
0000
0000
0000
0000
0000
0000
0000
0000
0000
0000
0000
0000
0000
0000
0000
0000
0000
0000
0000
0000
0100
0000
0000
0000
0000
0000
0000
0000
0000
0000
0000
0000
0000
0000
0000
0000
0000
0000
0000
0000
0000
0000
0000
0000
,
1000
0100
0000
0010
1000
0100
0001
0100
,
1000
0000
0001
0100
0010
0000
0100
0001
1000
0000
0001
0010
0100
0000
0010
0001
,
1000
0100
1100
0001
0101
1000
1100
0001
,
0101
0001
1000
0000
M000
0M00
00M0
000M
,
M000
0000
00M0
0M00
00M0
0000
M000
0000
000M
0000
00M0
0000
0000
0000
0000
0000
,
1000
0000
0100
0000
0010
0000
0001
0000
1000
0000
0001
0100
1000
0000
0100
0000
,
0010
0000
1000
0000
0000
0000
0001
0000
1000
0000
0001
0100
0010
0000
0000
0000
,
0010
0000
1000
0000
0001
0000
1000
0100
0001
0000
0100
0000
1000
0000
0001
0010
,
0100
1000
0000
1000
0001
0100
0010
0000
,
1010
0000
0000
0000
0101
0000
0000
0000
0001
0000
0010
0000
0100
0000
1000
0001
,
0010
0100
0000
0100
1000
0001
0011
0000
,
1100
0000
1010
0000
0101
0001
1000
1000
,
0001
0000
0000
0000
0000
0000
0000
0000
0000
0000
0000
0000
0000
0000
0000
0000
0000
0000
0000
0000
0000
0000
0000
0000
0001
0000
0000
0000
0000
0000
0000
0000
0000
0000
0000
0000
0000
0000
0000
0000
0000
0000
0000
0000
0000
0000
0000
0000
0100
0000
0000
0000
0000
0000
0000
0000
0000
0000
0000
0000
0000
0000
0000
0000
0000
0000
0000
0000
0000
0000
0000
0000
0000
0000
0000
0000
0000
0000
0000
0000
0000
0000
0000
0000
0000
0000
0000
0000
0000
0000
0000
0000
0000
0000
0000
0000
0010
0000
0000
0000
0000
0000
0000
0000
0000
0000
0000
0000
0000
0000
0000
0000
0000
0000
0000
0000
0000
0000
0000
0000
0000
0000
0000
0000
0000
0000
0000
0000
0000
0000
0000
0000
0000
0000
0000
0000
0000
0000
0000
0000
0000
0000
0000
0000
2002
3003
0000
0000
0000
0000
0000
0000
0000
0000
0000
0000
0000
0000
0000
0000
0000
0000
0000
0000
0000
0000
0000
0000
M00M
0000
0000
0000
0000
0000
0000
0000
0000
0000
0000
0000
0000
0000
0000
0000
0000
0000
0000
0000
0000
0000
0000
0000
,
000M
0000
00M0
0000
0M00
0000
M000
0000
000M
00M0
M000
0000
00M0
0000
0M00
0000
,
M000
0000
0000
1001
0001
0010
0100
1000
,
0001
0010
1000
0000
0010
0000
0100
0000
1000
0000
0000
0000
0001
0000
0100
0000
,
0010
1000
0001
0000
0000
0000
0001
0000
0100
0000
0010
0000
1000
0000
0001
0000
,
1000
0010
0001
0000
0010
0000
0100
0000
0001
1000
0100
0000
0001
0100
0010
0000
,
0100
1000
0001
0000
0000
0000
0101
0000
0000
0000
1001
0000
0000
0000
1100
0000
,
1000
0001
0010
0100
1000
0000
1000
0001
,
0100
0010
0001
0000
0010
1000
0001
0000
0010
0100
0001
0000
0100
1000
0001
0000
,
0100
0010
0100
0010
0100
0120
1000
1030
,
0000
0000
0010
0000
0100
0000
0001
0000
1000
0001
0100
0000
0010
0000
0101
0000
,
0000
0000
1010
0000
0000
0000
1100
0000
0000
0000
0011
0000
0100
1000
0001
0000
,
0000
0000
0001
0000
0100
0000
0010
0000
0100
0001
1000
0000
0001
0010
1000
0000
,
0010
0000
0001
0000
1000
0010
0001
0000
0010
1000
0001
0000
0010
0000
0100
0000
,
0000
0000
0010
0000
0100
0000
1000
0000
0001
1000
0100
0000
0010
0000
1100
0000
,
0000
0000
0011
0000
0000
0000
0101
0000
0000
0000
1010
0000
0100
0001
1000
0000
,
0000
0000
1000
0000
0100
0000
0010
0000
0100
1000
0001
0000
1000
0010
0001
0000
,
0010
0000
1000
0000
0001
0010
1000
0000
0010
0001
1000
0000
0010
0000
0200
0000
,
0301
0000
0100
0000
1000
0000
0100
0010
0100
0000
0001
0000
0101
0000
0000
0000
,
1001
0000
0000
0000
1100
0000
0000
0000
1001
0000
0001
0010
0100
0000
0000
0000
,
0100
0000
1000
0000
0001
0000
0010
0100
0010
0000
1000
0010
0001
0000
0000
0000
,
0001
0000
0100
0010
0100
0000
1000
0100
0001
0000
0010
0000
0110
0000
0000
0000
,
0100
0000
1000
0000
0001
0000
1000
0010
0100
0000
0001
0000
1100
0000
0000
0000
,
1001
0000
0000
0000
0101
0000
0000
0000
1001
0000
0001
0100
0010
0000
0000
0000
,
0010
0000
0100
0000
0001
0000
1000
0100
0010
0000
1000
0010
0001
0000
1000
0000
,
0001
0000
1000
0000
0001
0000
1000
0010
0001
0000
0010
0000
0120
0000
0000
0000
,
0000
1000
0000
1030
0001
0010
0021
0000
,
0000
0100
0000
0130
1000
0001
0102
0000
,
0000
1000
0000
1000
0000
0103
0210
0000
,
0000
0301
1000
0000
1001
0000
0102
0000
,
0000
0100
0000
0103
0010
1000
2010
0000
,
0000
0010
0000
3010
0100
0001
0012
0000
,
0000
0010
0000
0013
0100
1000
0001
0100
,
0001
0100
0001
0000
0000
0000
0000
0000
;

//--------------- dance-single - ----------------
#NOTEDATA:;
#STEPSTYPE:dance-single;
#DESCRIPTION:;
#DIFFICULTY:Challenge;
#METER:18;
#RADARVALUES:0.855589,1.177599,0.069017,0.05368,0.210885,781,772,9,7,27,0,0,0,51,0.855589,1.177599,0.069017,0.05368,0.210885,781,772,9,7,27,0,0,0,51;
#CHARTNAME:;
#CHARTSTYLE:;
#CREDIT:;
#NOTES:
0000
0000
0000
0000
,
0000
0000
0000
0000
,
0000
0000
0000
0000
,
0000
0000
0000
0000
,
0000
0000
0000
0000
,
0000
0000
0000
0000
,
0000
0000
0000
0000
,
0000
0000
0000
0000
,
0000
0000
0000
0000
,
0000
0000
0000
0000
,
0001
0000
0000
0000
0000
0000
1000
0000
0000
0010
0000
0000
0100
0000
0000
0001
0010
0100
1000
0000
0000
0001
0100
0001
,
0100
0000
0000
0000
0000
0000
1010
0000
0000
0000
0000
0000
0101
0000
0000
0001
0000
0000
1000
0000
0000
0010
0100
0010
,
0100
0000
0000
0000
0000
0000
0001
0000
0000
0010
0000
0000
0100
0000
0000
1000
0100
0010
0001
0000
0000
1000
0100
1000
,
0100
0000
0000
0000
0000
0000
1000
0000
0000
0001
0100
0001
0100
0000
0000
0001
0010
0100
1000
0000
0000
0001
0000
0000
,
1000
0000
0000
0010
0100
0010
0100
0000
0000
0001
0000
0000
1000
0000
0000
0001
0100
0010
1000
0000
0000
0001
0000
0000
,
0101
0000
0000
0000
0000
0000
1010
0000
0000
0000
0000
0000
0101
0000
0000
0001
0000
0000
1000
0000
0000
0001
0100
0001
,
0100
0000
0000
0010
0000
0000
1000
0000
0000
0001
0000
0000
1000
0000
0000
0001
0010
0100
1000
0000
0000
0001
0100
0001
,
0100
0000
0000
0000
0000
0000
0010
0000
0000
0100
0001
0100
0001
0000
0000
1000
0010
0100
0001
0000
0000
0010
0000
0000
,
0200
0000
0000
1300
0000
0000
0100
0000
0000
0010
0000
0000
0100
1000
0001
0100
0000
0000
0001
0000
0000
1100
0000
0000
,
0000
0000
0000
0101
0000
0000
0000
0000
0000
1100
0000
0000
0001
0000
0000
1000
0000
0000
0010
0100
0010
0100
0000
0000
,
0000
0000
0000
0001
0000
0000
0010
0000
0000
0100
0000
0000
0010
0001
1000
0010
0000
0000
0100
0001
0100
0001
0000
0000
,
0010
0000
0000
0100
0000
0000
0010
0001
0010
0001
0000
0000
1000
0001
0010
0100
0000
0000
1000
0000
0000
0001
0000
0000
,
0100
0001
0100
0001
0000
0000
1000
0000
0000
0010
0000
0000
0100
0001
1000
0100
0000
0000
0010
0000
0000
1100
0000
0000
,
0000
0000
0000
0011
0000
0000
0000
0000
0000
1100
0000
0000
1000
0000
0000
0001
0000
0000
1000
0100
1000
0100
0000
0000
,
0010
0000
0000
0001
0000
0000
1000
0000
0000
0001
0000
0000
1000
0010
0100
0001
0000
0000
0010
0100
0010
0100
0000
0000
,
1100
1001
0101
2100
0001
3001
0000
0001
,
0010
0100
1000
0010
0100
0010
0000
0010
,
1000
0001
0000
1001
0000
0010
0000
1000
,
0001
0100
0010
1000
0000
0001
0010
0100
,
1000
0001
0100
0001
1000
0010
0000
0010
,
0100
0001
1000
0001
0010
0100
0000
0100
,
1000
0001
0000
0101
0000
0100
0000
0001
,
1000
0001
0010
0001
1000
0010
1000
0001
,
0010
0100
1000
0001
1000
0010
0100
0101
,
0100
0001
0010
0110
0010
0001
0100
0101
,
0100
0010
1000
1001
0001
1000
0001
0011
,
0001
0010
0100
0110
0100
0010
0001
0101
,
0001
0000
1000
0000
0001
1000
0001
0000
1000
0000
0010
0000
1000
0000
1100
0000
,
1000
0100
0010
0110
0010
0100
1000
1100
,
1000
0010
1000
1001
0001
0010
0100
1100
,
0100
1000
0010
0110
0010
1000
0010
0001
,
0100
0000
0000
0000
0000
0000
0000
0000
0000
0000
0000
0000
0000
0000
0000
0000
0000
0000
0000
0000
0000
0000
0000
0000
1000
0000
0000
0000
0000
0000
0000
0000
0000
0000
0000
0000
0000
0000
0000
0000
0000
0000
0000
0000
0000
0000
0000
0000
0010
0000
0000
0000
0000
0000
0000
0000
0000
0000
0000
0000
0000
0000
0000
0000
0000
0000
0000
0000
0000
0000
0000
0000
0001
0000
0000
0000
0000
0000
0000
0000
0000
0000
0000
0000
0000
0000
0000
0000
0000
0000
0000
0000
0000
0000
0000
0000
0100
0000
0000
0000
0000
0000
0000
0000
0000
0000
0000
0000
0000
0000
0000
0000
0000
0000
0000
0000
0000
0000
0000
0000
2000
3000
0000
0000
0000
0000
0000
0000
0000
0000
0000
0000
0000
0000
0000
0000
0000
0000
0000
0000
0000
0000
0000
0000
0010
0000
0000
0000
0000
0000
0000
0000
0000
0000
0000
0000
0000
0000
0000
0000
0000
0000
0000
0000
0000
0000
0000
0000
0100
0000
0000
0000
0000
0000
0000
0000
0000
0000
0000
0000
0000
0000
0000
0000
0000
0000
0000
0000
0000
0000
0000
0000
,
0001
0000
0000
0000
0000
0000
0010
0000
0000
0000
0000
0000
0110
0000
0000
0000
0000
0000
0000
0000
0000
0000
0000
0000
1000
0000
0000
0000
0000
0000
0000
0000
0000
0000
0000
0000
0001
0000
0000
0000
0010
0000
0000
0000
0100
0000
0000
0000
1000
0000
0000
0001
0000
0000
1000
0000
0000
0001
0000
0000
1000
0000
0000
0000
0000
0000
0000
0000
0000
0000
0000
0000
0001
0000
0000
0000
0000
0000
0000
0000
0000
0000
0000
0000
0101
0000
0000
0000
0000
0000
0000
0000
0000
0000
0000
0000
,
1000
1100
0010
0101
1000
0110
0010
0001
,
1000
0100
1000
0100
1000
0000
0000
0000
0001
0000
0000
0000
0101
0000
0000
0000
1000
0000
0000
0000
1100
0000
0000
0000
0010
0000
0000
0000
0110
0000
0000
0000
,
0100
0000
0000
1001
0000
0000
1000
0100
0010
0001
0000
0000
0100
0000
0000
1001
0000
0000
0001
0000
0000
1000
0000
0000
,
0010
0000
0000
0000
0000
0000
0100
0000
0000
0000
0000
0000
0010
0000
0000
0000
0000
0000
0100
0000
0000
0000
0000
0000
0001
0000
0000
0000
0000
0000
0000
0000
0000
0000
0000
0000
1000
0000
0000
0000
0010
0000
0000
0000
0100
0000
0000
0000
0001
0000
0000
1000
0000
0000
0001
0000
0000
1000
0000
0000
0001
0000
0000
0000
0000
0000
0000
0000
0000
0000
0000
0000
0010
0000
0000
0000
0000
0000
0000
0000
0000
0000
0000
0000
0110
0000
0000
0000
0000
0000
0000
0000
0000
0000
0000
0000
,
0100
0000
0000
0000
0000
0000
0000
0000
0000
0000
0000
0000
0010
0000
0000
0000
0000
0000
0000
0000
0000
0000
0000
0000
0100
0000
0000
0000
0000
0000
0000
0000
0000
0000
0000
0000
0000
0000
0000
0000
0000
0000
0000
0000
0000
0000
0000
0000
0110
0000
0000
0000
0000
0000
0000
0000
0000
0000
0000
0000
0000
0000
0000
0000
0000
0000
0000
0000
0000
0000
0000
0000
1001
0000
0000
0000
0000
0000
0000
0000
0000
0000
0000
0000
0000
0000
0000
0000
0000
0000
0000
0000
0000
0000
0000
0000
0110
0000
0000
0000
0000
0000
0000
0000
0000
0000
0000
0000
0000
0000
0000
0000
0000
0000
0000
0000
0000
0000
0000
0000
0002
0003
0000
0000
0000
0000
0000
0000
0000
0000
0000
0000
0000
0000
0000
0000
0000
0000
0000
0000
0000
0000
0000
0000
0100
0000
0000
0000
0000
0000
0000
0000
0000
0000
0000
0000
0000
0000
0000
0000
0000
0000
0000
0000
0000
0000
0000
0000
1000
0000
0000
0000
0000
0000
0000
0000
0000
0000
0000
0000
0000
0000
0000
0000
0000
0000
0000
0000
0000
0000
0000
0000
,
0100
0001
0100
1000
0100
0001
0010
1000
,
0010
0001
0010
1000
0010
0001
0001
1000
,
1000
0010
0010
0100
0100
0001
0010
0100
,
1000
0001
0000
2000
3001
0010
0100
0010
,
0001
0010
0100
1000
0010
0100
0010
1000
,
0010
0000
0000
0100
0000
0000
0001
0000
0000
1000
0100
0010
0001
0000
0000
1000
0000
0000
0001
0000
0000
1000
0000
0000
,
0010
0000
0000
0100
0000
0000
0010
0000
0000
0100
0001
0010
0100
0000
0000
1000
0000
0000
0001
0000
0000
1000
0100
1000
,
0100
0000
0000
1000
0001
1000
0001
0000
0000
0100
0000
0000
0010
0000
0000
1000
0100
0010
0001
0000
0000
0010
0000
0000
,
0100
0010
0001
0010
0100
1000
0010
0100
,
0010
0000
0000
1000
0000
0000
0010
0000
0000
0100
0001
1000
0100
0000
0000
0010
0000
0000
0100
0000
0000
1000
0000
0000
,
0001
0000
0000
0100
0000
0000
0010
0000
0000
1000
0001
0010
0100
0000
0000
1000
0000
0000
0001
0000
0000
0100
0010
0100
,
0010
0000
0000
1000
0001
1000
0001
0000
0000
0010
0000
0000
0200
0000
0000
0310
0000
0000
0000
0000
0000
1001
0000
0000
,
1000
0000
0000
0001
0000
0000
0010
0100
1000
0001
0000
0000
0100
0000
0000
0010
0000
0000
1000
0000
0000
0001
0000
0000
,
0010
0000
0000
0100
0000
0000
1000
0001
0100
0010
0000
0000
1000
0000
0000
0001
0000
0000
0010
0000
0000
0100
0000
0000
,
1000
0000
0000
0001
0000
0000
1000
0100
0010
0001
0000
0000
0100
0000
0000
0010
0000
0000
0100
0001
0100
0001
0000
0000
,
1000
0000
0000
0000
0000
0000
0000
0000
0100
0000
0000
0000
0000
0000
0000
0000
1000
0000
0000
0000
0000
0000
0000
0000
0100
0000
0000
0000
0000
0000
0000
0000
0000
0000
0000
0000
0000
0000
0000
0000
0000
0000
0000
0000
0000
0000
0000
0000
0010
0000
0000
0000
0000
0000
0000
0000
0000
0000
0000
0000
0000
0000
0000
0000
0000
0000
0000
0000
0000
0000
0000
0000
0220
0330
0000
0000
0000
0000
0000
0000
0000
0000
0000
0000
0000
0000
0000
0000
0000
0000
0000
0000
0000
0000
0000
0000
1001
0000
0000
0000
0000
0000
0000
0000
0000
0000
0000
0000
0000
0000
0000
0000
0000
0000
0000
0000
0000
0000
0000
0000
0001
0000
0000
0000
0000
0000
0000
0000
0000
0000
0000
0000
0000
0000
0000
0000
0000
0000
0000
0000
0000
0000
0000
0000
0010
0000
0000
0000
0000
0000
0000
0000
0000
0000
0000
0000
0000
0000
0000
0000
0000
0000
0000
0000
0000
0000
0000
0000
0100
0000
0000
0000
0000
0000
0000
0000
0000
0000
0000
0000
0000
0000
0000
0000
0000
0000
0000
0000
0000
0000
0000
0000
,
0010
0001
0010
0100
1000
0010
0100
0010
,
1000
0000
0000
0010
0100
0001
1000
0000
0000
0100
0000
0000
0010
0000
0000
0001
0000
0000
1000
0000
0000
0010
0000
0000
,
0100
0000
0000
0001
0100
0010
1000
0000
0000
0100
0000
0000
0001
0000
0000
0100
0000
0000
1000
0000
0000
0010
0000
0000
,
0001
0010
1000
000M
00M0
0M00
M000
000M
,
0M00
0000
0000
000M
00M0
0M00
M000
0000
0000
0M00
0000
0000
00M0
0000
0000
000M
0000
0000
0000
0000
0000
0001
0000
0000
,
0010
0000
0000
0100
0000
0000
1000
0000
0000
0001
0000
0000
0100
0000
0000
0001
0010
0100
1000
0000
0000
0100
0000
0000
,
0010
0000
0000
0001
0000
0000
1000
0000
0000
0001
0000
0000
0010
0000
0000
0001
0100
0010
1000
0000
0000
0100
0000
0000
,
0010
0000
0000
0001
0000
0000
1000
0000
0000
0010
0000
0000
0100
0000
0000
0010
1000
0100
0010
0000
0000
0100
0000
0000
,
1000
0000
0000
0001
0100
0010
0100
0000
0000
0010
0100
0010
1000
0000
0000
0100
0000
0000
0010
0000
0000
0001
1000
0010
,
0100
0010
1000
0001
0010
0001
0100
0010
,
1000
0000
0000
0001
0000
0000
0010
0000
0000
0100
0000
0000
1000
0000
0000
0001
0010
0100
1000
0000
0000
0010
0000
0000
,
0100
0000
0000
0010
0000
0000
1000
0000
0000
0100
0000
0000
0010
0000
0000
0100
1000
0001
0010
0000
0000
0100
0000
0000
,
1000
0000
0000
0000
0000
0000
0000
0000
0000
0000
0000
0000
0000
0000
0000
0000
0000
0000
0000
0000
0000
0000
0000
0000
0010
0000
0000
0000
0000
0000
0000
0000
0100
0000
0000
0000
0000
0000
0000
0000
0010
0000
0000
0000
0000
0000
0000
0000
1000
0000
0000
0000
0000
0000
0000
0000
0000
0000
0000
0000
0000
0000
0000
0000
0000
0000
0000
0000
0000
0000
0000
0000
0001
0000
0000
0000
0000
0000
0000
0000
0010
0000
0000
0000
0000
0000
0000
0000
0100
0000
0000
0000
0000
0000
0000
0000
0010
0000
0000
0000
0000
0000
0000
0000
0000
0000
0000
0000
0000
0000
0000
0000
0000
0000
0000
0000
0000
0000
0000
0000
0000
0000
0000
0000
0000
0000
0000
0000
0000
0000
0000
0000
0000
0000
0000
0000
0000
0000
0000
0000
0000
0000
0000
0000
2002
3003
0000
0000
0000
0000
0000
0000
0000
0000
0000
0000
0000
0000
0000
0000
0000
0000
0000
0000
0000
0000
0000
0000
M00M
0000
0000
0000
0000
0000
0000
0000
0000
0000
0000
0000
0000
0000
0000
0000
0000
0000
0000
0000
0000
0000
0000
0000
,
M000
0M00
00M0
000M
M000
00M0
0M00
00M0
,
M000
0000
0000
1001
1000
0100
0010
0001
,
1000
0010
0100
0010
1000
0001
0010
0100
,
1000
0001
0100
0010
0000
0000
1000
0000
0000
0010
0000
0000
0100
0000
0000
0001
0000
0000
0010
0000
0000
0001
0000
0000
,
0100
0001
0010
0100
0000
0000
1000
0000
0000
0001
0000
0000
1000
0010
0100
0010
0000
0000
0100
0010
0100
0001
0000
0000
,
0010
0000
0000
0100
0000
0000
1000
0100
0010
0001
0000
0000
1000
0000
0000
0010
0000
0000
1000
0000
0000
0100
0000
0000
,
1000
0001
0010
0100
1000
0001
0100
0001
,
0010
0100
1000
0001
0000
0000
0100
0000
0000
0010
0000
0000
0100
0000
0000
0001
0000
0000
1000
0000
0000
0100
0000
0000
,
0010
0011
0110
1100
1001
0210
0001
0301
,
0000
0000
0000
1001
0000
0000
1000
0000
0000
0001
0000
0000
0010
0100
1000
0010
0000
0000
1000
0000
0000
1100
0000
0000
,
0001
0000
0000
0101
0000
0000
1000
0000
0000
1100
0000
0000
0001
0000
0000
1000
0000
0000
0010
0100
0010
0100
0000
0000
,
0000
0000
0000
1001
0000
0000
1000
0000
0000
0010
0000
0000
0100
0001
0010
0100
0000
0000
1000
0001
1000
0001
0000
0000
,
0100
0000
0000
0110
0000
0000
0010
1000
0010
1000
0000
0000
0001
0010
0001
0010
0000
0000
0100
0000
0000
1000
0000
0000
,
0001
0100
0001
0100
0000
0000
0010
0000
0000
1000
0000
0000
0100
0010
0001
1000
0000
0000
0001
0000
0000
0011
0000
0000
,
1000
0000
0000
1010
0000
0000
0001
0000
0000
0011
0000
0000
1000
0000
0000
0010
0000
0000
1000
0001
1000
0001
0000
0000
,
0010
0000
0000
0100
0000
0000
0010
0000
0000
0001
0000
0000
1000
0100
0010
0001
0000
0000
0100
0010
0100
0010
0000
0000
,
1000
0000
0000
1001
0000
0000
0001
0010
0001
0010
0000
0000
0100
1000
0100
0010
0000
0000
0001
0000
0000
0200
0000
0000
,
0310
0000
0000
0100
0000
0000
0010
0000
0000
1000
0100
0010
0001
0000
0000
0100
0000
0000
0110
0000
0000
1000
0000
0000
,
1001
0000
0000
0010
0000
0000
0110
0000
0000
0001
0000
0000
1001
0000
0000
1000
0100
0010
0001
0000
0000
0010
0000
0000
,
0100
0000
0000
1000
0000
0000
0001
0000
0000
1000
0010
0100
0001
0000
0000
0010
0100
0010
0100
0000
0000
1000
0000
0000
,
1100
0000
0000
0100
1000
0100
1000
0000
0000
0001
0100
0001
0100
0000
0000
0010
0000
0000
1010
0000
0000
1000
0001
1000
,
0001
0000
0000
0010
0000
0000
0100
0000
0000
1000
0100
0010
0001
0000
0000
0010
0000
0000
0110
0000
0000
0001
0000
0000
,
1001
0000
0000
0100
0000
0000
0110
0000
0000
1000
0000
0000
1001
0000
0000
0001
0100
0001
0100
0000
0000
0010
0000
0000
,
1000
0000
0000
0001
0000
0000
0100
0000
0000
0001
0010
0100
1000
0000
0000
0001
1000
0001
1000
0000
0000
1100
0000
0000
,
0101
0000
0000
0011
0000
0000
1010
0000
0000
1000
0010
0100
0001
0000
0000
0010
0000
0000
0120
0000
0000
0000
0000
0000
,
0000
0001
0000
0031
1000
0010
0120
0000
,
0000
1000
0000
1030
0010
1000
2100
0000
,
0000
0001
0000
3001
0000
0001
0102
0000
,
0000
1003
0010
0000
0110
0000
1020
0000
,
0000
1000
0000
1030
0100
0010
0120
0000
,
0000
0001
0000
0031
0010
0001
0102
0000
,
0000
0100
0000
0103
0010
0100
0001
1000
,
0001
1000
0001
0000
0000
0000
0000
0000
;
