#TITLE:アノーイング!さんさんウィーク!;
#SUBTITLE:;
#ARTIST:五十嵐双葉(楠木ともり),桜井桃子(早見沙織),黒部夏美(青山玲菜),月城モナ(古賀葵);
#TITLETRANSLIT:annoying! sunsun week!;
#SUBTITLETRANSLIT:;
#ARTISTTRANSLIT:Futaba Igarashi (CV;
#GENRE:Anime;
#CREDIT:;
#MUSIC:annoying! sunsun week!.ogg;
#BANNER:annoying! sunsun week!.png;
#BACKGROUND:annoying! sunsun week!-bg.png;
#CDTITLE:;
#SAMPLESTART:51.916;
#SAMPLELENGTH:13.821;
#SELECTABLE:YES;
#OFFSET:1.120;
#BPMS:0.000=140.000;
#STOPS:;
#LASTBEATHINT:0.280000;
#BGCHANGES:3.000=annoying! sunsun week!.avi=1.000=0=0=0=StretchNoLoop====,
99999.000=-nosongbg-=1.000=0=0=0=StretchNoLoop====
;
#FGCHANGES:;

//--------------- dance-single - ----------------
#NOTES:
     dance-single:
     :
     Hard:
     12:
     0.616508,0.652256,0.576887,0.122034,0.188598,389,337,52,11,0,0,0.616508,0.652256,0.576887,0.122034,0.188598,389,337,52,11,0,0:
0000
0000
0000
0000
,
1000
1000
1000
0000
0001
0001
0001
0000
,
0100
0100
0010
0010
1000
0001
2000
0000
,
3001
0000
0010
0000
0100
0000
1000
0000
0002
0000
0000
0100
0000
0000
1003
0000
,
1000
0000
0010
0000
0100
0000
0001
0000
2000
0000
0000
0100
0000
0000
3001
0000
,
0001
0000
1000
0000
0001
0000
0100
0000
0020
0000
0000
1000
0000
0000
0130
0000
,
0110
0000
1001
0000
1001
0101
1100
0000
,
0001
0000
1000
0000
0100
0000
0001
0000
0200
0000
0000
1000
0000
0000
0310
0000
,
0010
0000
0001
0000
0100
0000
1000
0000
0200
0000
0000
0001
0000
0000
0310
0000
,
1000
0020
0000
0000
0130
0000
0001
1000
,
1010
0000
0101
0000
1001
0100
0010
0000
,
1010
0000
1100
0000
0101
0001
1001
0000
,
0011
0000
0101
0000
1100
1000
1001
0000
,
0001
0100
0010
1000
0001
0010
0100
0000
,
1000
1000
0001
0001
0200
0010
0310
0000
,
0110
0000
1001
0000
0110
0000
0101
0100
,
0110
0000
0010
1000
0001
1100
0011
0000
,
0001
0010
1000
0001
0100
0010
0001
1000
,
0010
0000
0100
0001
1000
0010
0100
0001
,
1000
1000
0010
0010
0100
0001
0100
0001
,
0010
0010
0100
0100
1000
0001
1000
0001
,
0010
0000
0000
0010
0000
0000
0110
0000
0000
0000
0100
0000
1000
0000
0010
0000
,
0100
0000
0000
0100
0000
0000
1001
0000
0000
0000
0001
0000
0100
0000
0010
0000
,
1000
0100
0000
0000
0001
0100
0000
0010
,
1000
0001
0000
0001
0010
0100
1000
0001
,
0100
0010
0000
0000
0100
0001
0000
0001
,
0010
0100
1000
0001
1000
0100
0010
0001
,
1000
1000
0010
0100
0001
0001
0010
0100
,
1000
0100
0001
0100
1000
0010
0001
0010
,
1000
1000
1000
0000
0001
0001
0001
0000
,
0010
0010
0100
0100
0110
0000
0000
0000
,
1001
0000
0001
0100
0000
0001
0100
0000
0010
0000
0000
1010
0000
0000
0100
0000
,
1001
0000
1000
0100
0000
1000
0100
0000
0010
0000
0000
0011
0000
0000
1000
0000
,
0001
0100
0010
0100
1000
0100
0001
0010
,
0100
0000
0000
0100
0000
0000
1000
0000
0001
0000
0000
0001
0000
0000
0100
0000
,
0010
0000
0100
0001
1000
0010
0001
0010
,
0110
0100
0110
0010
0000
0100
0100
0100
,
0001
0000
0010
0100
0000
1000
0000
0001
0010
0000
0010
0000
0100
0000
0100
0000
,
1100
0000
0000
0110
0000
0000
0110
0000
1001
0000
0000
0000
0000
0000
0100
0000
,
0001
0000
1000
0010
0000
1000
0010
0000
0100
0000
0000
0101
0000
0000
0001
0000
,
1000
0000
0001
0010
0000
0001
0010
0000
0100
0000
0000
1100
0000
0000
1000
0000
,
0100
0000
0010
0001
0000
1000
0001
0000
0101
0000
0001
0000
1100
0000
1000
0000
,
1001
0000
0000
0101
0000
0000
0010
0000
1010
0000
0000
0110
0000
0000
0001
0000
,
1001
0000
0001
1000
0100
0010
0100
1000
,
0001
0000
0100
0000
0001
0000
2000
0000
0000
0000
3010
0000
0000
0010
0100
0000
,
0001
0000
0010
0100
0000
1000
0000
0001
0000
0100
0010
0000
1000
0000
0001
0000
,
0011
0000
0000
1100
0000
0000
1010
0000
0101
0000
0000
1001
0000
0000
0001
0000
,
1000
1000
1000
0000
0001
0001
0001
0000
,
0100
0100
0010
0010
1000
0001
1001
0000
,
0001
0001
0001
0000
1000
1000
1000
0000
,
0010
0010
0100
0100
0001
1000
2002
0000
,
0000
3003
0000
0000
0000
0000
0000
0000
;

//--------------- dance-single - ----------------
#NOTES:
     dance-single:
     :
     Challenge:
     15:
     0.914461,0.82241,0.954082,0.05547,0.832048,577,491,86,5,0,0,0.914461,0.82241,0.954082,0.05547,0.832048,577,491,86,5,0,0:
0000
0000
0000
0000
0000
0000
0000
0000
0000
0000
0000
0000
0000
0000
0000
0100
,
1000
0000
1001
0000
1010
0000
0000
0100
0001
0000
1001
0000
0011
0000
0000
1000
,
0100
0000
1100
0000
0101
0000
1001
0000
0100
0001
0100
0001
2000
0000
0000
0000
,
3001
0000
1010
0000
1000
0010
0100
0000
0001
0000
0010
0100
0000
1000
0001
0000
,
0010
0000
0011
0000
0001
1000
0010
0000
0100
0000
0001
1000
0000
0010
0100
0001
,
0010
0000
0110
0000
0100
1000
0001
0000
0100
0000
0010
1000
0000
0001
0010
0000
,
0011
0000
1000
0000
0101
0000
1000
0000
0110
0000
0100
0001
0010
0000
0100
1000
,
0001
0000
1010
0000
0010
0100
0001
0000
0010
0000
0100
1000
0000
0001
0100
0000
,
0010
0000
0110
0000
0100
0001
1000
0000
0100
0000
1000
0001
0000
0010
0100
1000
,
0001
0000
0101
0000
0100
0001
0000
1000
0010
0000
0100
0000
0001
0000
0010
0000
,
1100
0000
0010
0000
0101
0000
0010
0000
1001
0000
0001
0100
0010
0000
0000
0000
,
1010
0000
1000
0000
1001
0000
1000
0010
0100
0000
0000
0000
0110
0000
0000
0000
,
0101
0000
0001
0000
1001
0000
0001
0010
0100
0010
1000
0000
1010
0000
0000
0000
,
0011
0001
1001
1000
1100
1000
1001
0000
,
0101
0001
1001
1000
1020
0100
0130
0000
,
0110
0000
0010
0000
1010
0000
0010
0000
0110
0000
0100
0002
0000
0000
0013
0000
,
0110
0010
1010
0010
0011
0001
1001
0000
,
1010
0000
0000
0100
0001
0000
0010
0000
0100
0000
0010
0100
1000
0000
0010
0000
,
0100
0000
0001
0000
1010
0000
1000
0000
0001
0000
0100
0001
0010
0100
1000
0100
,
0010
0000
0010
0001
0000
0001
0100
0001
1000
0100
0010
0001
1000
0100
0010
0001
,
0100
0000
0010
1000
0000
0001
0100
0000
0010
1000
0001
0100
0010
1000
0001
0100
,
0010
0000
0010
1000
0000
0001
0010
0000
0100
1000
0001
0000
0011
0000
1100
0000
,
0110
0000
0000
0110
0000
0000
1001
0000
0000
0000
0001
0010
0100
1000
0001
0000
,
1000
0000
1100
0000
0000
0000
0001
0000
0101
0000
0000
0000
0010
0000
0100
0001
,
0010
0000
1000
0000
0010
0000
0100
1000
0001
0000
0100
0000
0001
0000
1000
0000
,
0010
0000
0110
0000
0000
0000
0100
0000
0101
0000
0001
0000
1000
0000
0010
0100
,
0010
0000
1000
0000
0001
0000
0010
0100
1000
0000
0100
0000
0010
0000
0100
1000
,
0001
0000
0001
0100
0010
0000
0100
0000
1000
0000
0100
0001
0000
1000
0010
0100
,
0001
0000
0001
0010
0100
0000
1000
0000
0010
0100
0000
0001
1000
0000
0001
0000
,
1100
1001
1100
0000
0101
1001
0101
0000
,
0101
1010
1100
0011
1001
0000
0000
0000
,
1001
0000
0001
0100
0001
0100
0010
0000
0100
0000
0001
0010
0000
0010
0100
1000
,
0001
0000
0100
1000
0001
0000
0010
0000
1000
0000
0100
0010
0000
0010
0001
0000
,
1000
0001
0100
0001
0100
0010
1000
0100
0010
0001
1000
0001
1000
0010
0100
0001
,
1000
0000
0001
0100
0000
0100
0010
0000
0110
0000
0010
1000
0000
1000
0100
0010
,
1000
0000
0010
0000
0100
0000
1000
0000
0001
0000
0100
0000
1000
0100
0010
0000
,
1010
0000
0100
0000
0001
0000
1001
0000
0000
0000
0011
0000
0100
1000
0100
1000
,
0001
0000
0100
1000
0000
1100
0000
0100
0001
0010
0100
1000
0010
0000
1010
0000
,
0101
0000
0001
0010
0000
0001
1000
0000
0001
0100
1000
0100
0010
0001
1000
0100
,
0001
0000
0001
0010
0000
0100
1000
0000
0001
0010
1000
0010
1000
0001
0100
0010
,
0001
0000
1000
0010
0000
0100
0001
0000
1000
0010
0001
0010
0001
1000
0100
0010
,
1000
0000
0100
0010
0000
0001
1000
0000
1010
0000
0001
0000
0101
0000
1000
0000
,
1001
0000
0001
0100
0000
0001
0100
0010
1000
0000
1000
0100
0000
1000
0100
0010
,
0001
0000
0010
0000
0100
0000
1000
0000
0001
0000
0100
0010
0100
0000
1000
0000
,
0100
0000
0001
0000
0010
0000
0100
1000
0000
0001
0100
0000
0010
0000
1000
0100
,
0001
0000
0100
1000
0000
0010
0000
0110
0000
0100
0001
1000
0001
0100
0001
1000
,
0100
0000
0100
0010
0000
0000
0011
0000
1001
0000
0001
1000
0000
0001
0010
0100
,
1000
0000
1001
0000
1010
0000
0000
0100
0001
0000
1001
0000
0011
0000
0000
1000
,
0100
0000
1100
0000
0101
0000
1001
0000
0001
0010
0100
1000
0001
0000
0000
0001
,
0100
0000
1010
0000
1001
0000
0000
1000
0100
0000
0011
0000
1001
0000
0000
0001
,
0100
0010
0100
1000
0100
0010
1000
0100
0001
0100
0010
0002
2000
0000
0000
0000
,
0000
3003
0000
0000
0000
0000
0000
0000
;
