#TITLE:adrenaline!!!;
#SUBTITLE:;
#ARTIST:TrySail;
#TITLETRANSLIT:adrenaline!!!;
#SUBTITLETRANSLIT:;
#ARTISTTRANSLIT:TrySail;
#GENRE:ANIME;
#CREDIT:;
#MUSIC:adrenaline!!!.ogg;
#BANNER:adrenaline!!!.png;
#BACKGROUND:adrenaline!!!-bg.png;
#CDTITLE:;
#SAMPLESTART:48.135;
#SAMPLELENGTH:14.198;
#SELECTABLE:YES;
#OFFSET:1.213;
#BPMS:0.000=134.000;
#STOPS:;
#LASTBEATHINT:0.485574;
#BGCHANGES:2.000=adrenaline!!!.avi=1.000=0=0=0=StretchNoLoop====,
99999.000=-nosongbg-=1.000=0=0=0=StretchNoLoop====
;
#FGCHANGES:;

//--------------- dance-single - ----------------
#NOTES:
     dance-single:
     :
     Medium:
     12:
     0,0,0,0,0:
0000
0000
0000
0000
,
0000
0000
0000
0000
,
1000
0100
0010
0001
1000
0100
0010
0001
,
0010
0100
0010
0000
0001
0000
0010
0000
0100
0000
1000
0000
0001
0000
0010
0000
,
0100
0000
0000
1001
0000
0000
1000
0000
0001
0000
0000
0000
1001
0000
0000
0000
,
1000
0000
0010
0000
0100
0001
0000
0001
0000
0000
0010
0000
0100
0000
1000
0000
,
0001
0000
0100
0000
1000
0100
0000
0100
0000
0000
0001
0000
0010
0000
0100
0000
,
0000
0000
1000
0000
0100
0010
0000
0010
0000
0000
0001
0000
0010
0000
0100
0000
,
1000
0000
0001
0000
0100
0010
0000
0010
0000
0000
1000
0000
0001
0000
1000
0000
,
0100
0000
0000
0000
0100
0000
1000
0001
0000
1000
0001
0000
1001
0000
0000
0000
,
1000
0000
0001
0000
0010
0000
0100
1000
0000
0100
1000
0000
0010
0000
1000
0000
,
0001
0000
1000
0000
0010
0000
0100
0001
0000
0100
0001
0000
1000
0000
0100
0000
,
0000
0000
0100
0000
0010
0000
0100
1000
0000
0100
0010
0000
0001
0000
1000
0000
,
0002
0203
0320
2030
,
3000
0000
1001
0000
0100
0000
1000
0001
0000
1000
0001
0000
0100
0000
0001
0000
,
0100
0000
1000
0000
0100
0000
0001
1000
0000
0000
0100
0000
0010
0000
0001
0000
,
1000
0000
0000
1100
0000
0000
0010
0000
0001
0000
0100
0000
0001
1000
0000
0000
,
0010
0000
1000
0000
0001
0010
0000
0100
0000
1000
0001
0000
0010
0000
0001
0000
,
1000
0100
0001
0100
1000
0100
0001
0100
,
2000
0000
3002
0000
0103
0001
1000
1000
,
0001
0100
1000
0100
0001
0100
1000
0100
,
0002
0000
2003
0000
3100
1000
0010
1000
,
1100
1100
0101
0101
,
1100
0000
0000
0000
0101
0000
0000
0000
1001
0000
0000
0110
0000
0000
1001
0000
,
0110
0000
0100
0001
0010
0000
0100
1000
,
0010
0000
0000
0000
0100
0000
0001
0000
1000
0000
0000
1001
0000
0000
1100
0000
,
0101
0001
0010
0001
1000
0100
1000
0100
,
1100
0000
0000
0101
0000
0000
1001
0000
1001
0000
0000
0000
0110
0000
0000
0000
,
0010
0000
1000
0000
0100
0000
0001
0100
0000
0100
1000
0000
0010
0000
0001
0000
,
0011
0000
0000
1010
0000
0000
1001
0000
0000
0000
0001
0000
0100
0000
1000
0000
,
0100
0000
0010
0000
1000
0000
0100
0010
0000
0010
0001
0000
1000
0000
0001
0000
,
0200
0000
0310
1000
0001
0100
1000
0100
,
0001
0000
1001
0001
0010
0100
0001
0100
,
1000
0000
1001
0001
0100
0010
0100
1000
,
0200
0000
0302
0000
0023
0000
0230
0300
,
0110
0000
0000
0110
0000
0000
1001
0000
0000
0000
1000
0000
0010
0000
1000
0000
,
0100
0000
0010
0000
0100
0000
1000
0010
0000
0010
0100
0000
1000
0000
0100
0000
,
0110
0000
0000
1010
0000
0000
0101
0000
0000
0000
0001
0000
0010
0000
0100
0000
,
0010
0000
0001
0000
1000
0000
0010
0100
0000
0100
0001
0000
0010
0000
1000
0000
,
0010
0000
0110
0010
0001
0100
0001
1000
,
1001
0000
1001
1000
0100
1000
0001
0010
,
0011
1010
1100
0101
,
2001
0000
0000
3001
0100
0001
1000
0100
,
1000
0000
0001
0000
1000
0100
0000
0010
0000
0100
1000
0000
0001
0100
0010
0000
,
0100
0001
0101
0000
0010
1000
1010
0000
,
1000
0100
1100
0000
0010
0001
0011
0000
,
0100
1001
0010
1001
,
0001
0000
0001
0010
0000
0010
0100
0000
1000
0000
0000
1001
0000
0000
0100
0000
,
1010
0000
0000
1001
0000
0000
0110
0000
1001
0000
0000
0000
0000
0000
0000
0000
;

//--------------- dance-single - ----------------
#NOTES:
     dance-single:
     :
     Hard:
     15:
     0.798811,0.824224,0.603024,0.175425,0.729111,510,455,55,16,0,0,0.798811,0.824224,0.603024,0.175425,0.729111,510,455,55,16,0,0:
0000
0000
0000
0000
,
0000
0000
0000
0000
,
0001
0010
0100
1000
0010
0100
0001
0010
,
0100
1000
0100
0000
0010
0000
0001
0010
0100
0010
0001
1000
0100
0010
0100
1000
,
1100
0000
0000
1010
0000
0000
0011
0000
1001
0000
0001
0010
0200
0000
0000
0000
,
0310
0000
0010
0000
0001
1000
0000
1010
0000
0000
0100
0000
0001
0000
0010
0000
,
1000
0000
0010
0000
0001
0010
0000
0100
0000
1000
0010
0000
0010
0000
0100
0000
,
0100
0000
0001
0000
1000
0010
0000
0110
0000
0000
0100
0000
0010
0000
1000
0000
,
0001
0000
0010
0000
0100
1000
0100
0010
0001
0100
0001
0010
0100
1000
0010
1000
,
0100
0010
0100
0010
0100
0000
1000
0001
1000
0001
1000
0000
0001
0010
0001
0000
,
1000
0000
0100
0000
1000
0000
0100
1000
0000
0001
0010
0000
0100
0000
0010
0000
,
0001
0000
0100
0000
0010
0000
1000
0010
0000
0100
0001
0000
1000
0000
0010
0000
,
0001
0000
0010
0000
1000
0000
0001
0010
0000
0100
1000
0000
0001
0000
0010
0000
,
0100
1000
2000
3100
0200
0310
0020
0031
,
0001
0000
0011
0000
0100
0000
1000
0010
0000
0010
1000
0000
0100
0000
0001
0000
,
0100
0000
1000
0000
0010
0000
0100
0001
0000
0001
0100
0000
0010
0000
0100
0000
,
0001
0000
0000
0101
0000
0000
1000
0000
0010
0000
0100
0000
0001
0100
0000
0100
,
0010
0000
1000
0000
0001
0010
0000
0010
0001
0010
0100
1000
0010
0001
0010
0100
,
0001
0010
0100
1000
0001
0010
0100
1000
,
0001
0100
0001
0000
1000
0100
1000
0000
0001
0100
0001
1000
0100
1000
0001
0000
,
1000
0100
0010
0001
1000
0100
0010
0001
,
1000
0010
1000
0000
0001
0010
0001
0000
1000
0010
1000
0001
0010
0001
1000
0001
,
1000
0010
1000
0010
0200
0000
0000
0000
0301
0010
0001
0010
0200
0000
0000
0000
,
0310
0100
1000
0010
0001
0000
0010
0000
0110
0000
0000
1010
0000
0000
1001
0000
,
0011
0000
1100
0100
0110
0000
0011
0001
,
0101
0000
0000
0000
1001
0000
0100
0000
1001
0000
0000
0011
0000
0000
1100
0000
,
0011
0000
0001
0100
0010
0000
1000
0100
0010
0001
1000
0001
0010
0100
0010
0001
,
0101
0000
0000
1100
0000
0000
0101
0000
1100
0000
0001
0010
0100
0010
0001
0000
,
0001
0010
0001
0100
0010
0100
0001
0010
0001
0100
0010
0100
0001
0010
0001
0100
,
0110
0000
0000
1010
0000
0000
0101
0000
0010
0000
1000
0000
0100
0000
0010
0000
,
0001
0010
0100
1000
0001
0010
0100
1000
0010
0100
0001
1000
0010
0100
0001
1000
,
0200
0310
0002
0103
0020
1030
0200
0310
,
0110
0000
1001
0010
0100
0010
1000
0001
,
1001
0000
0110
0001
1000
0001
1000
0001
,
0002
1003
2000
3010
0020
0130
0200
0310
,
0110
0000
0000
0110
0000
0000
1010
0000
1000
0000
1000
0100
0010
0100
1000
0000
,
1000
0100
1000
0010
0100
0010
1000
0100
1000
0010
0100
0010
1000
0100
1000
0010
,
0110
0000
0000
0101
0000
0000
1010
0000
0100
0000
0001
0000
0010
0000
0100
0000
,
1000
0100
0010
0001
1000
0100
0010
0001
0100
0010
1000
0001
0100
0010
1000
0001
,
0010
0000
1000
0001
0100
0000
0001
1000
0100
0000
1000
0100
0010
0000
0001
0100
,
0110
0000
1001
1000
0100
1000
0001
0100
,
0101
1000
1100
0001
0011
1000
1010
0010
,
0210
0000
0000
0301
0010
0100
1000
0010
,
0100
0000
0001
0100
1000
0100
0001
0010
1000
0010
0001
1000
0100
0010
0001
0100
,
0001
0010
0001
0010
1100
0000
0000
0000
1000
0010
1000
0010
0101
0000
0000
0000
,
0001
1000
0100
0010
1001
0000
0000
0000
1000
0001
0010
0100
1001
0000
0000
0000
,
0001
0011
1000
1100
,
0010
0000
1000
0010
0100
0010
0001
0000
0010
0000
0000
0010
0200
0000
0301
0000
,
0011
0000
0000
1001
0000
0000
1001
0000
1100
0000
0000
0000
0000
0000
0000
0000
;

//--------------- dance-single - ----------------
#NOTES:
     dance-single:
     :
     Challenge:
     16:
     0.935079,0.8774,0.756521,0.043856,1.058033,597,528,69,4,0,0,0.935079,0.8774,0.756521,0.043856,1.058033,597,528,69,4,0,0:
0000
0000
0000
0000
,
0000
0000
0000
0000
,
0011
1000
0100
0010
0011
1000
0100
0010
,
0001
0100
0010
0000
1010
0000
1000
0010
0100
1000
0100
0001
0010
0100
0001
0100
,
0110
0000
0000
0011
0000
0000
0110
0000
1100
0000
1000
0010
0001
0000
0000
0000
,
0110
0000
1001
0000
0001
0010
0000
0110
0000
1000
0010
0100
0001
0000
0101
0000
,
1010
0000
1000
0000
0001
0100
0010
1000
0000
1000
0010
0000
0110
0000
0100
0000
,
0011
0000
0110
0000
0100
1000
0000
0011
0000
0001
0010
0100
1000
0000
1100
0000
,
0011
0000
0001
0000
0001
0010
0100
1000
0000
1000
0100
0000
0110
0000
0100
1000
,
0100
0010
0001
0010
1000
0000
0001
0100
1000
0100
0010
0000
0100
1000
0001
0000
,
1000
0000
0001
0100
0010
0000
1000
0100
0000
0100
1000
0000
1000
0100
0010
0000
,
0010
0000
0001
0010
0100
0000
1000
0010
0000
0010
1000
0000
1000
0100
0010
0000
,
0001
0000
1000
0010
0100
0000
0001
0010
0000
0010
0001
0000
1000
0010
1000
0000
,
1010
0010
0110
0100
0101
0001
0011
0010
,
0110
0000
1001
0000
1000
0000
0100
1000
0000
1000
0010
0000
0100
0001
0010
0000
,
0100
1000
0010
0000
0100
0000
0001
0100
0000
0100
0010
0000
0100
0000
0010
1000
,
0100
0000
0010
0002
0000
0000
0103
0000
0010
1000
0001
0000
0001
0100
0000
0100
,
0010
1000
0001
0010
0100
0001
0000
0001
0100
0010
0100
1000
0001
0010
0100
1000
,
0001
0000
0010
0001
0100
0000
0010
1000
0100
0000
0010
0001
0100
0000
1000
0000
,
0100
0001
0010
0000
0100
1000
0010
0000
0100
0001
0010
0100
1000
0010
0100
0000
,
0001
0000
1000
0010
0001
0000
1000
0100
0001
0000
1000
0010
0001
0000
1000
0000
,
0001
0010
1000
0000
0001
0100
1000
0000
0001
0010
1000
0001
0100
1000
0001
0010
,
1000
0100
0010
0100
2000
0000
0010
0000
3001
0010
0100
0010
0002
0000
0100
0000
,
1003
0100
0010
0001
1000
0000
0100
0000
1001
0000
1000
0100
0000
1000
0010
0000
,
0101
0001
0101
0000
1100
1000
1100
0000
,
0110
0000
0100
0000
1001
0000
0010
0000
1001
0000
0001
0010
0000
0010
1000
0000
,
0011
0000
0001
0010
0100
1000
0001
1000
0010
0100
0001
1000
0001
0100
0010
1000
,
1010
0000
0000
0011
0000
0000
0101
0000
1100
0000
0001
1000
0100
0010
0001
0000
,
1000
0010
0100
1000
0001
0010
0100
0001
0010
0100
0001
1000
0010
0001
0100
1000
,
0110
0000
0010
1000
0000
0100
0001
0000
0010
0100
1000
0100
0010
0001
1000
0000
,
0100
0010
0001
1000
0010
0100
0001
0010
0100
1000
0010
0100
0001
0010
0100
1000
,
0010
1000
0100
0010
0011
0000
1000
0100
0010
0000
0001
0100
0010
0000
1000
0010
,
0100
0000
0010
0100
1001
0000
0001
0010
0100
0000
1000
0010
0100
0000
0010
0100
,
0010
0000
1000
0001
0110
0000
1000
0000
0001
0100
1000
0000
1000
0100
0001
0000
,
0110
0100
1010
0010
0101
0100
1010
1000
,
0101
0000
0001
0100
0000
0010
1000
0000
1001
0000
0001
0100
0010
1000
0001
0000
,
0100
0001
0100
0010
0100
1000
0100
0010
0001
0010
0100
0010
1000
0010
0100
0001
,
1001
0000
0001
0010
0000
0100
1000
0000
0001
0010
0100
0001
0100
1000
0010
0000
,
1000
0010
0100
0001
0100
0010
1000
0001
0010
0100
1000
0100
0010
0001
0100
0001
,
1000
0100
1000
0001
0100
0000
0010
0100
0001
0100
0010
1000
0100
0001
0100
1000
,
0001
0100
0001
0000
1001
0000
0001
0100
0001
0100
0010
1000
0010
1000
0100
0010
,
0110
0001
1010
0100
0011
0100
1010
0100
,
0110
0000
0000
0000
1001
0000
0001
0010
0001
1000
0010
1000
0001
0100
0001
1000
,
0100
0000
0010
0001
0100
1000
0100
0001
1000
0100
0001
0100
1000
0010
0100
0001
,
1000
0100
0010
0001
1100
0000
0000
0000
0001
0100
0010
1000
0101
0000
0000
0000
,
0010
0001
0100
0010
0110
0000
0000
0000
0010
1000
0100
0010
0110
0000
0000
0000
,
0011
1010
1100
0101
,
1001
0000
0010
1000
0100
0001
0100
1000
0010
0001
0000
0010
0200
0000
0301
0000
,
0011
0000
0000
1001
0000
0000
1100
0000
0101
0000
0000
0000
0000
0000
0000
0000
;
