#TITLE:ずんどこ☆どんどんどーん!;
#SUBTITLE:;
#ARTIST:南ノ南 feat.ずんだもん;
#TITLETRANSLIT:Zundoko Dondondon!;
#SUBTITLETRANSLIT:;
#ARTISTTRANSLIT:Minami no Minami feat. Zundamon;
#GENRE:POP;
#CREDIT:;
#MUSIC:Zundoko Dondondon!.ogg;
#BANNER:Zundoko Dondondon!.png;
#BACKGROUND:Zundoko Dondondon!-bg.png;
#CDTITLE:;
#SAMPLESTART:39.714;
#SAMPLELENGTH:9.429;
#SELECTABLE:YES;
#OFFSET:0.000;
#BPMS:0.000=210.000
,72.000=420.000
,76.000=210.000
,324.000=105.000
,328.000=210.000
;
#STOPS:72.000=0.571;
#DISPLAYBPM:210.000;
#BGCHANGES:3.750=Zundoko Dondondon!.avi=1.000=0=0=0=StretchNoLoop====,
99999.000=-nosongbg-=1.000=0=0=0=StretchNoLoop====
;
#FGCHANGES:;

//--------------- dance-single - ----------------
#NOTES:
     dance-single:
     :
     Medium:
     13:
     0,0,0,0,0:
0000
0000
0000
0000
,
0000
0000
0000
0000
,
0000
0000
0000
0000
,
1000
0000
0001
0100
0001
2000
0000
3010
,
0200
0000
0301
2000
0000
3001
2000
0000
,
3001
0100
0010
1000
0001
0020
0000
0130
,
2000
0000
3001
2000
0000
3001
2000
0000
,
3010
0100
0001
1000
0002
0000
0000
0103
,
0002
0000
1003
0002
0000
1003
0001
0000
,
0011
0000
1100
0000
1000
0010
0100
0001
,
1000
0000
1000
0001
0020
0000
0000
0000
,
0130
1000
0001
0100
,
0010
1000
0001
0010
0000
0100
0000
0100
,
1000
0001
1000
0001
,
0100
0010
0000
0010
0000
1000
0001
0000
,
0010
0100
1000
0001
,
1000
0010
0000
1010
0000
0101
0000
0001
,
0010
0100
1000
0001
,
2000
0000
0000
0000
,
3001
0010
0100
1000
,
0001
0100
0000
0010
0000
0100
0000
0100
,
0001
0100
0001
0010
,
0001
0100
0010
1000
,
0001
0000
0001
0010
0000
0100
1000
0000
,
1000
0001
1000
0010
,
0100
0001
1000
0001
1000
0000
0010
0000
,
0100
0001
0010
0100
,
2000
0000
0000
3001
0100
0000
0100
0002
,
0000
1000
0000
1003
0020
0000
0130
0000
,
2001
0000
0000
3001
0020
0000
0130
2000
,
0000
3001
0100
1000
0100
0001
0010
0100
,
1000
0000
0010
1000
0001
0000
0010
0100
,
0000
0100
1000
0010
0001
0000
0010
0000
,
1000
1000
0001
0001
,
0010
0100
0010
0100
1000
0001
0100
0010
,
1000
0000
1000
0001
0010
0000
0010
0100
,
1000
0000
0001
0100
0001
0000
1000
0000
0001
0000
0000
0000
0010
0000
0100
0000
,
0010
0000
0001
1000
0001
0000
0100
0000
,
0010
1000
0100
0010
0001
0010
0100
1000
,
0001
0000
0001
0010
0100
0000
0100
1000
,
0001
0000
1000
0100
1000
0000
0001
0000
0100
0000
0000
0000
0010
0000
1000
0000
,
0100
1000
0010
1000
0001
0100
0001
0010
,
0100
0000
0100
1000
0001
0000
0100
0000
,
1000
0100
0001
0010
0000
0100
0000
1000
,
0001
1000
0000
0001
1000
0001
0000
1000
,
0100
0001
0100
1000
0000
0010
0000
1000
,
0100
1000
0001
1000
0010
0000
0100
0001
,
1000
0100
0001
0100
0000
1000
0000
1000
,
0001
1000
0000
0001
1000
0001
0000
1000
,
0100
0010
0001
1000
0000
0001
0100
0001
,
0100
0000
0010
0000
1000
0001
0110
0000
,
0001
0100
0001
0010
0001
1000
0001
1000
,
0001
0010
0100
1000
0001
0000
0100
0000
,
0100
0001
1000
0100
0001
0100
1000
0010
,
0001
0000
0010
1000
0100
0010
0001
0100
,
0001
0100
1000
0100
0001
0000
0001
0010
,
0000
0010
1000
0010
0001
0000
0001
0000
,
1000
0010
0100
0010
1000
0001
0010
0100
,
1000
0000
1000
0000
1000
0000
1000
0001
,
0100
0001
1000
0001
0100
0001
0010
0100
,
1000
0001
1000
0100
1000
0001
1000
0100
,
1000
0010
0100
0001
1000
0010
0100
0001
,
0010
0100
1000
0100
0010
0001
0010
0100
,
1000
0001
0100
0001
0100
0001
1000
0001
,
1000
0001
0010
0001
0010
0100
1000
0100
,
1000
0100
0010
0001
1000
0100
0010
0001
,
1000
0010
0100
0010
0100
0000
0100
0001
,
0100
0001
1000
0100
0010
0001
0000
1000
,
0001
0000
1000
0001
0000
1000
0001
0000
,
0200
0302
2003
3200
0320
0032
0000
2003
,
3002
0000
2003
3002
0000
2003
3002
0000
,
1003
0100
0010
0001
1000
0001
0000
0100
,
0010
0000
0100
0010
0000
0100
0010
0000
,
2000
3200
0320
0032
2003
3002
0000
0203
,
0320
0000
0230
0320
0000
0230
0320
0000
,
0130
0001
1000
0100
0010
0000
0000
0001
,
1000
0000
0001
0100
0000
0001
0100
0000
,
0200
0302
2003
3200
0320
0000
0000
0032
,
2003
0000
3002
0203
0000
0302
0203
0000
,
0310
0000
0110
0000
0100
0001
1000
0100
,
0010
0000
0001
1000
0000
0000
0010
0000
,
0020
0030
0000
0000
0000
0000
0000
0000
0000
0000
0000
0000
0000
0000
0000
0000
0000
0000
0000
0000
0000
0000
0000
0000
0110
0000
0000
0000
0000
0000
0000
0000
0000
0000
0000
0000
0000
0000
0000
0000
0000
0000
0000
0000
0000
0000
0000
0000
0100
0000
0000
0000
0000
0000
0000
0000
0000
0000
0000
0000
0001
0000
0000
0000
0000
0000
0000
0000
0000
0000
0000
0000
1000
0000
0000
0000
0000
0000
0000
0000
0000
0000
0000
0000
0100
0000
0000
0000
0000
0000
0000
0000
0000
0000
0000
0000
0010
0000
0000
0000
0000
0000
0000
0000
0000
0000
0000
0000
0000
0000
0000
0000
0000
0000
0000
0000
0000
0000
0000
0000
0001
0000
0000
0000
0000
0000
0000
0000
0000
0000
0000
0000
1000
0000
0000
0000
0000
0000
0000
0000
0000
0000
0000
0000
0000
0000
0000
0000
0000
0000
0000
0000
0000
0000
0000
0000
1000
0000
0000
0000
0000
0000
0000
0000
0000
0000
0000
0000
0100
0000
0000
0000
0000
0000
0000
0000
0000
0000
0000
0000
0010
0000
0000
0000
0000
0000
0000
0000
0000
0000
0000
0000
,
0002
0003
0000
0000
0000
0000
0000
0000
0000
0000
0000
0000
0000
0000
0000
0000
0000
0000
0000
0000
0000
0000
0000
0000
0000
0000
0000
0000
0000
0000
0000
0000
0000
0000
0000
0000
0000
0000
0000
0000
0000
0000
0000
0000
0000
0000
0000
0000
0001
0000
0000
0000
0000
0000
0000
0000
0000
0000
0000
0000
0000
0000
0000
0000
0000
0000
0000
0000
0000
0000
0000
0000
0010
0000
0000
0000
0000
0000
0000
0000
0000
0000
0000
0000
0000
0000
0000
0000
0000
0000
0000
0000
0000
0000
0000
0000
0100
0000
0000
0000
0000
0000
0000
0000
0000
0000
0000
0000
0000
0000
0000
0000
0000
0000
0000
0000
0000
0000
0000
0000
0000
0000
0000
0000
0000
0000
0000
0000
0000
0000
0000
0000
0000
0000
0000
0000
0000
0000
0000
0000
0000
0000
0000
0000
0100
0000
0000
0000
0000
0000
0000
0000
0000
0000
0000
0000
0000
0000
0000
0000
0000
0000
0000
0000
0000
0000
0000
0000
1000
0000
0000
0000
0000
0000
0000
0000
0000
0000
0000
0000
0000
0000
0000
0000
0000
0000
0000
0000
0000
0000
0000
0000
,
0001
0000
0100
0010
0100
0000
0001
0000
1000
0000
0000
0000
0001
0000
0010
0000
,
0100
0000
0100
1000
0001
0000
0100
0000
,
1000
0100
0001
0010
0100
1000
0001
0010
,
1000
0000
1000
0010
0001
0000
0001
1000
,
0001
0000
0100
0010
0100
0000
0001
0000
1000
0000
0000
0000
0001
0000
0100
0000
,
0010
1000
0001
0010
0100
0010
0001
1000
,
0001
0010
0100
1000
0001
0000
0100
0000
,
0101
0000
1100
0000
1000
0010
0000
0010
,
1000
0001
0000
0010
0001
1000
0000
0001
,
0011
0000
1010
0000
1000
0010
0000
0010
,
0100
0001
0010
0100
1000
0000
0001
0000
,
0101
0000
1010
0000
0100
0001
0000
0010
,
0100
1000
0000
0010
0100
0001
0000
1000
,
0100
0001
0100
1000
0000
0001
0100
1000
,
0100
0000
0001
0000
0010
0100
0010
0100
,
1100
0000
0101
0000
0001
0010
0000
0100
,
1000
0001
0100
0010
1000
0000
0101
0000
,
0011
1001
1100
1001
,
1000
0001
0010
0100
1000
0100
0010
0001
,
1001
0000
1010
0000
0100
0001
0000
0010
,
0100
0010
0001
0010
0100
1000
0000
1000
,
1010
0000
0101
0000
0001
1000
0100
1000
,
0001
0010
0100
1000
0002
0000
0000
0000
,
1003
0100
0001
0100
1000
0000
0001
0100
,
0000
1000
0100
0001
0010
0000
0100
1000
,
0001
1000
0001
1000
0001
1000
0001
1000
,
1100
0000
0011
0000
0101
0000
1010
0010
,
1000
1000
0100
0010
0000
0100
0000
0100
,
1000
0010
0000
0100
0001
0010
0000
0100
,
1000
1000
0001
0010
0000
0100
0000
1000
,
0002
0100
2003
0010
,
3001
0000
0000
0000
;

//--------------- dance-single - ----------------
#NOTES:
     dance-single:
     :
     Hard:
     17:
     0,0,0,0,0:
0000
0000
0000
0000
,
0000
0000
0000
0000
,
0000
0000
0000
0000
,
1000
0010
0100
0001
1000
0002
0000
0103
,
0020
0000
1030
0002
0000
0013
0200
0000
,
0310
0001
1000
0001
0100
0020
0000
1030
,
0002
0000
0013
0200
0000
1300
0002
0000
,
1003
0100
0010
0001
2000
0000
3010
0100
,
0002
0000
0013
0200
0000
1300
0001
0000
,
0011
0000
1100
0000
1000
0010
0100
0001
,
1000
0000
1000
0001
0020
0000
0000
0000
,
0230
1000
0302
0010
0203
1000
0302
1000
,
0023
0230
0302
2003
0000
3002
0000
0023
,
0230
1000
0302
0010
0203
0010
0302
0010
,
0203
2300
0000
3020
0000
0130
0010
1000
,
0002
0100
0023
1000
0032
0010
0203
1000
,
0302
2003
0000
3020
0000
0230
0000
0302
,
2003
0100
3020
0001
2030
0010
3200
0001
,
0320
0000
0000
0000
,
0230
1000
0320
0100
0032
1000
0203
0010
,
0302
2003
0000
3020
0000
0230
0000
0301
,
0020
0100
2030
0010
3200
0001
0320
0100
,
2030
3010
0200
0001
2300
0100
3020
0100
,
2030
0000
3001
0200
0000
0310
2000
0000
,
3002
0000
0203
0001
2300
0001
3200
0000
,
0302
0023
0230
2300
3200
0010
0302
1000
,
0023
0100
0032
1000
0203
0010
0302
0103
,
0020
0000
0000
1030
0002
0000
0013
0200
,
0000
1000
0000
1300
0002
0000
0203
0000
,
0320
0000
0000
1030
0002
0000
0013
0200
,
0000
1300
0010
0100
0001
1000
0100
0010
,
0002
0000
1003
0010
0200
0000
0301
0020
,
0000
0130
1000
0001
0010
0100
1000
0001
,
0101
1010
1100
0011
,
1000
0000
0001
0000
0100
0000
0001
0000
1000
0100
1000
0100
1000
0000
0010
0000
,
0100
0000
0000
0000
0100
0000
0001
0000
1000
0000
0001
0100
0001
0000
1000
0000
,
1100
0000
0100
1000
0001
0000
0100
0000
0110
0000
0000
0000
0001
0000
0010
0000
,
0100
0000
1000
0001
1000
0000
0010
0000
0100
0000
0001
1000
0001
0000
0010
0000
,
0100
0000
1000
0010
1000
0000
0010
0100
0010
0000
0100
0001
0100
0000
0001
1000
,
0100
0000
0000
0000
0100
0000
1000
0000
0001
0000
1000
0100
1000
0000
0001
0000
,
0101
0000
0100
0001
1000
0000
0100
0000
0110
0000
0000
0000
0010
0000
0001
0000
,
1000
0000
0010
0000
0100
0000
0001
0000
0010
0000
0100
0000
1000
0000
0001
0100
,
0001
0000
0010
0000
0100
0000
1000
0000
0001
0100
0001
0100
0001
0100
0001
0100
,
0001
0010
0100
1100
0000
0101
0000
1001
,
0001
0100
0000
1001
1000
0100
0000
0010
,
0001
0000
0100
0010
0100
0000
0010
0000
1000
0000
0100
0010
0100
0000
0010
0000
,
0001
0000
1000
0010
1000
0000
0001
0000
0101
0000
0000
0000
1010
0000
1000
0000
,
0010
0000
0100
0001
0010
0000
0200
0000
0000
0000
0310
0000
0000
0000
1100
0000
,
1000
0010
0000
0101
0001
0010
0000
0100
,
1000
0000
0001
0000
0100
0000
0001
0000
1000
0000
0010
0100
0010
0000
1000
0000
,
0100
0000
0010
0000
0001
0000
0100
0000
0001
1000
0001
1000
0001
1000
0001
1000
,
0100
0000
0100
0000
0100
0000
1000
0001
1000
0000
0100
0000
0010
0000
0100
0000
,
1000
0010
0100
0001
0011
0000
1100
0000
,
0001
0000
1000
0001
1000
0000
0010
0000
0100
0000
0010
0000
1000
0000
0001
0000
,
0011
0000
0000
0000
1010
0000
1000
0000
0100
0000
0010
0000
0001
0000
0100
0010
,
0100
0010
1000
0001
0010
0000
0010
0100
,
0000
0100
1000
0001
0100
0000
0010
0000
,
1000
0001
1000
0100
1000
0001
0100
0001
,
1000
0000
0100
0000
1000
0000
0001
0000
1000
0000
0010
0000
0100
0001
0100
0001
,
0010
0000
0100
1000
0100
0000
1000
0001
1000
0000
0100
1000
0100
0000
1000
0000
,
0001
0100
0001
0100
0010
0000
1000
0000
0001
0010
0001
0010
0100
0000
1000
0000
,
0001
0100
0001
0000
0100
0010
0100
0000
0010
1000
0010
0000
1000
0001
1000
0000
,
0001
0000
0010
0100
0010
0000
0001
0000
1000
0000
0010
0100
0010
0000
0100
0000
,
0001
1000
0001
1000
0100
0000
0010
0000
0001
1000
0001
1000
0010
0000
0100
0000
,
0001
0000
1000
0100
1000
0000
0010
0100
0010
0000
0100
0001
0100
0000
0001
0010
,
0001
0010
0100
0000
1000
0001
1000
0000
0010
0100
0010
0000
0100
0001
1000
0000
,
0100
0010
0100
0010
0100
0010
0100
0010
0200
0000
0000
0000
1300
0001
1000
0001
,
0100
0010
1000
0001
0100
0010
0000
1000
,
0001
0000
1000
0001
0000
1000
0001
0000
,
0200
0320
2030
3002
0203
0320
0030
2000
,
3002
0003
2000
3002
0003
2000
3002
0003
,
1000
0100
0010
0001
1000
0001
0000
0100
,
0010
0000
0100
0010
0000
0100
0010
0000
,
2000
3200
0320
0032
2003
3002
0003
0200
,
0320
0030
0200
0320
0030
0200
0320
0030
,
0100
0001
1000
0001
0010
0000
0100
1000
,
0001
0000
0100
0001
0000
0100
0001
0000
,
0200
0302
2003
3002
0023
0030
0200
2300
,
3002
0003
0200
0302
0003
0200
0302
0003
,
1000
0100
1000
0100
0010
0001
1000
0001
,
0100
0000
0100
0010
0000
1000
0001
0000
,
2000
3000
0000
0000
0000
0000
0000
0000
0000
0000
0000
0000
0100
0000
0000
0000
0000
0000
0000
0000
0000
0000
0000
0000
1000
0000
0000
0000
0000
0000
0000
0000
0000
0000
0000
0000
0100
0000
0000
0000
0000
0000
0000
0000
0000
0000
0000
0000
0010
0000
0000
0000
0000
0000
0000
0000
0000
0000
0000
0000
0001
0000
0000
0000
0000
0000
0000
0000
0000
0000
0000
0000
1000
0000
0000
0000
0000
0000
0000
0000
0000
0000
0000
0000
0001
0000
0000
0000
0000
0000
0000
0000
0000
0000
0000
0000
0100
0000
0000
0000
0000
0000
0000
0000
0000
0000
0000
0000
0000
0000
0000
0000
0000
0000
0000
0000
0000
0000
0000
0000
0100
0000
0000
0000
0000
0000
0000
0000
0000
0000
0000
0000
0010
0000
0000
0000
0000
0000
0000
0000
0000
0000
0000
0000
0000
0000
0000
0000
0000
0000
0000
0000
0000
0000
0000
0000
1000
0000
0000
0000
0000
0000
0000
0000
0000
0000
0000
0000
0001
0000
0000
0000
0000
0000
0000
0000
0000
0000
0000
0000
0000
0000
0000
0000
0000
0000
0000
0000
0000
0000
0000
0000
,
2002
3003
0000
0000
0000
0000
0000
0000
0000
0000
0000
0000
0000
0000
0000
0000
0000
0000
0000
0000
0000
0000
0000
0000
0000
0000
0000
0000
0000
0000
0000
0000
0000
0000
0000
0000
0000
0000
0000
0000
0000
0000
0000
0000
0000
0000
0000
0000
1000
0000
0000
0000
0000
0000
0000
0000
0000
0000
0000
0000
0000
0000
0000
0000
0000
0000
0000
0000
0000
0000
0000
0000
0010
0000
0000
0000
0000
0000
0000
0000
0000
0000
0000
0000
0000
0000
0000
0000
0000
0000
0000
0000
0000
0000
0000
0000
0100
0000
0000
0000
0000
0000
0000
0000
0000
0000
0000
0000
0000
0000
0000
0000
0000
0000
0000
0000
0000
0000
0000
0000
0010
0000
0000
0000
0000
0000
0000
0000
0000
0000
0000
0000
1000
0000
0000
0000
0000
0000
0000
0000
0000
0000
0000
0000
0001
0000
0000
0000
0000
0000
0000
0000
0000
0000
0000
0000
0000
0000
0000
0000
0000
0000
0000
0000
0000
0000
0000
0000
0010
0000
0000
0000
0000
0000
0000
0000
0000
0000
0000
0000
0000
0000
0000
0000
0000
0000
0000
0000
0000
0000
0000
0000
,
0110
0000
0100
1000
0001
0000
0100
0000
0101
0000
0000
0000
0001
0000
0100
0000
,
0010
0000
1000
0001
0010
0000
0100
0000
1000
0000
0001
0100
0010
0000
1000
0000
,
0001
0000
1000
0100
0010
0000
0100
1000
0001
0000
0100
0010
1000
0000
0001
0010
,
0100
0000
0000
0000
1000
0000
0100
0000
1000
0000
0001
1000
0100
0000
0010
0000
,
0110
0000
0100
1000
0001
0000
0100
0000
0110
0000
0000
0000
0010
0000
1000
0000
,
0001
0000
0100
0010
1000
0000
0001
0010
0100
0000
1000
0001
1000
0001
0010
0100
,
1000
0000
0100
0000
0010
0000
0001
0000
1000
0001
1000
0001
1000
0001
1000
0001
,
0100
0010
0100
0101
0000
1001
0000
1000
,
0010
0101
0000
0001
0010
1100
0000
1000
,
0001
0100
0001
0011
0000
1100
0000
1000
,
0001
0000
0100
0001
1000
0000
0100
0000
0000
0000
0010
0000
0001
0000
0000
0000
,
1000
0001
0100
0101
0000
1010
0000
0011
,
0100
1000
0000
1010
0100
0001
0000
1000
,
0100
1000
0001
0000
0010
0000
0100
0000
0000
0000
0100
0000
1000
0000
0001
0000
,
0010
0000
0100
0000
1000
0000
0001
0000
1000
0100
0010
0001
2000
0000
0000
0000
,
3010
0100
0001
1000
0100
0010
0100
1000
,
0001
0000
0100
0010
0100
0000
0001
0000
0010
0000
0100
0000
1000
0000
0001
0000
,
0100
0000
0010
1000
0001
0000
0010
0000
0100
0000
1000
0001
0100
0000
0010
0000
,
1000
0000
0010
0100
0001
0000
0010
0100
0010
0000
0001
0100
0010
0000
1000
0001
,
0100
0010
1000
0100
0010
0001
1000
0010
,
0100
0101
0000
0001
1000
1100
0000
1000
,
0001
0000
0100
0000
0001
0000
0100
0000
0010
0000
1000
0000
0010
0000
1000
0001
,
0010
0000
0100
0000
1000
0000
0001
0000
0100
0010
0100
0010
0100
0010
0100
0010
,
1000
0010
0100
0001
0020
0000
0130
2000
,
0000
3001
0100
0010
2000
0000
3001
0010
,
0100
1000
0100
1000
0100
1000
0100
1000
,
1001
0000
0101
0000
1001
0000
1100
1000
,
0010
0100
0001
0100
0001
0011
0000
0100
,
1000
1010
0000
0100
0001
0011
0000
0010
,
0100
1000
0001
1000
0100
1000
0001
1000
,
0001
0010
0100
1000
0001
0010
0100
1000
0001
0100
0001
0100
0001
0100
0001
0100
,
0010
0000
0000
0000
;

//--------------- dance-single - ----------------
#NOTES:
     dance-single:
     :
     Challenge:
     19:
     1.21278,1.578384,0.714135,0.17489,0.918173,1165,1067,98,24,0,0,1.21278,1.578384,0.714135,0.17489,0.918173,1165,1067,98,24,0,0:
0000
0000
0000
0000
,
0000
0000
0000
0000
,
0000
0000
0000
0000
,
0001
1000
0100
1000
0001
0200
0000
0010
,
0320
0000
1000
2030
0000
0001
3002
0000
,
0013
0100
0010
0001
1000
0010
0100
0001
,
0102
0000
1003
2100
0000
3001
0101
0000
,
1000
0100
1000
0100
2000
0000
3001
0100
,
1002
0000
0103
2001
0000
3100
1001
0000
,
1100
0000
0011
0000
1000
0010
0100
0001
,
0101
0000
0110
1001
0020
0000
0000
0000
,
0130
1000
0001
0010
0100
0010
0001
1000
,
0010
0001
0010
1000
0001
0010
1000
0010
,
0001
0100
0001
0010
0001
0100
0001
0010
,
0100
1000
0010
1000
0100
1000
0010
0100
,
0001
0010
0100
1000
0001
0010
0100
1000
,
0001
0100
0010
1000
0001
0100
0010
1000
,
0001
0010
1000
0010
0001
0100
1000
0100
,
0002
0000
0000
0000
,
1003
0100
0010
0100
1000
0001
0100
0010
,
0100
1000
0001
0010
1000
0100
0001
1000
,
0010
0001
0100
0010
0100
0001
0010
0100
,
1000
0010
0100
0010
1000
0100
0010
0100
,
0001
0100
1000
0100
0001
0100
1000
0001
,
0100
1000
0100
0001
0100
1000
0100
0001
,
0101
0010
1100
0010
0101
0010
1001
1000
,
0010
0100
0001
1000
0001
0010
1002
0103
,
0020
0000
0000
1030
0002
0000
0010
0023
,
0000
0100
0000
0230
1000
0000
1300
0000
,
2001
0000
0000
0010
3020
0000
0100
0230
,
0000
0000
0301
0000
0010
0000
0100
0000
1000
0000
0100
0000
0010
0000
0001
1000
,
0001
0100
1001
1000
0010
0100
1001
0001
,
0010
0001
0110
0010
0001
1000
0110
0100
,
0001
1000
0001
1000
0010
0100
0010
0100
,
0001
0000
0000
0010
0000
0000
0100
0000
0000
1000
0000
0000
0001
0000
0000
0010
0000
0000
0100
0000
0000
1000
0000
0000
0001
0000
1000
0000
0001
0000
1000
0000
0001
0000
1000
0000
0200
0000
0000
0000
0000
0000
0000
0000
0000
0000
0000
0000
,
0310
0000
0001
0100
0001
0000
0010
0000
0100
0000
1000
0100
1000
0000
0001
0000
,
0101
0000
0100
0001
1000
0000
1100
0000
0101
0000
0000
0000
0001
0000
0010
0000
,
0100
1000
0100
0010
0100
1000
0001
0000
0100
0001
0100
0010
0100
0001
1000
0000
,
0001
0010
0100
0010
0001
0010
0100
1000
0100
0010
0100
1000
0100
0010
0001
0010
,
0100
0000
1000
0000
0010
0000
1000
0000
0100
0000
1000
0001
0100
0000
0010
0000
,
1010
0000
1000
0001
0010
0000
0011
0000
1010
0000
0000
0000
1000
0000
0001
0000
,
0101
0000
0000
0100
0000
0000
0110
0000
0000
0010
0000
0000
1010
0000
0000
1000
0000
0000
0001
0000
0000
1000
0100
0010
,
0001
0000
0011
0000
0110
0000
1100
0000
1000
0001
1000
0001
1000
0001
1000
0001
,
0100
0010
0001
0010
0100
0001
0010
0110
,
0100
1000
0010
0000
0100
0000
0110
0000
0100
0001
0010
0000
0100
0000
1000
0000
,
0001
0010
0100
0000
0010
0001
0100
0000
0010
1000
0001
0000
0010
0100
1000
0000
,
0001
0100
0010
0100
0001
1000
0001
0000
0011
0000
0000
0000
1100
0000
1000
0000
,
0001
0100
0010
0100
0001
0000
0010
0000
0100
1000
0001
1000
0100
0000
0110
0000
,
0010
0001
0100
0000
0010
0000
0110
0000
0010
1000
0100
0000
0010
0000
0001
0000
,
1000
0100
1000
0100
0010
0000
0001
0000
1000
0010
1000
0010
0100
0000
0001
0000
,
0010
0000
0100
0000
1000
0000
0001
0000
0010
0100
0010
0100
1000
0001
0010
0100
,
1000
0000
1000
0000
1000
0000
0010
0100
0001
0000
0100
0000
0001
0000
0100
0000
,
0001
0000
0000
0010
0000
0000
0100
0000
0000
1000
0000
0000
1100
0000
0000
0000
0000
0000
0101
0000
0000
0001
1000
0001
,
1000
0000
0001
0100
0001
0000
0010
0000
0100
0000
0010
0000
0001
0000
1000
0000
,
1100
0000
0000
0000
0000
0000
1010
0000
0000
0010
0000
0000
0101
0000
0000
1000
0000
0000
0001
0000
0000
1000
0100
1000
,
0100
0010
0001
0010
0100
0000
0100
1000
,
0000
1000
0010
0100
0001
0000
1000
0000
,
0010
0100
1000
0100
0001
0010
0100
1000
,
0001
0000
0000
0010
0000
0000
0001
0000
0000
0010
0000
0000
0100
0000
0000
1000
0000
0000
0100
0000
0000
1000
0000
0000
0001
0000
0000
0010
0000
0000
0100
0000
0000
1000
0000
0000
0001
0000
0010
0000
0100
0000
1000
0000
0001
0000
0010
0000
,
0100
1000
0100
1000
0001
0100
0001
0100
0010
1000
0010
1000
0001
0010
0001
0010
,
0100
1000
0001
0100
0010
1000
0001
0010
0100
1000
0001
0100
0010
1000
0001
1000
,
0100
0010
0001
0010
0100
0010
0001
0010
0100
1000
0010
0100
0010
1000
0010
0100
,
0010
1000
0001
0010
0100
1000
0010
1000
0100
0010
0001
0100
0001
0010
0100
1000
,
0001
0100
0001
0100
0010
0100
0010
0100
0001
1000
0001
1000
0010
1000
0010
1000
,
0001
0010
0001
0010
0100
0010
0100
1000
0001
1000
0001
1000
0100
1000
0100
1000
,
0001
0100
0010
0100
0001
0010
0100
1000
0100
0010
0100
1000
0001
0100
0010
0100
,
0001
1000
0001
1000
0001
1000
0001
1000
0002
0000
0000
0000
0013
0100
0010
0100
,
1000
0001
0100
0010
1000
0010
0000
1000
,
0001
0000
1000
0001
0000
1000
0001
0000
,
2000
3002
0203
0320
0230
0302
0003
2000
,
3002
0003
2000
3002
0003
2000
3002
0003
,
0001
0100
1000
0100
0001
1000
0000
0010
,
0100
0000
0010
0100
0000
0010
0100
0000
,
0002
0203
2300
3200
0302
2003
3000
0020
,
0230
0300
0020
0230
0300
0020
0230
0300
,
0101
0001
1001
0001
0101
0101
1001
0001
,
0101
0000
0101
1001
0000
1001
1100
0000
,
1100
1000
1001
1000
1100
1100
1001
1000
,
1100
0000
1100
1001
0000
1001
0101
0000
,
0100
0010
0100
0000
0001
0000
1000
0000
0100
0010
0100
0000
1000
0000
0001
0000
,
0101
0000
0000
0000
0101
0000
0110
0000
0010
0000
1000
0001
1000
0000
0010
0000
,
0200
0300
0000
0000
0000
0000
0000
0000
0000
0000
0000
0000
0000
0000
0000
0000
0000
0000
0000
0000
0000
0000
0000
0000
0100
0000
0000
0000
0000
0000
0000
0000
0000
0000
0000
0000
0000
0000
0000
0000
0000
0000
0000
0000
0000
0000
0000
0000
0001
0000
0000
0000
0000
0000
0000
0000
0000
0000
0000
0000
1000
0000
0000
0000
0000
0000
0000
0000
0000
0000
0000
0000
0001
0000
0000
0000
0000
0000
0000
0000
0000
0000
0000
0000
1000
0000
0000
0000
0000
0000
0000
0000
0000
0000
0000
0000
0100
0000
0000
0000
0000
0000
0000
0000
0000
0000
0000
0000
0000
0000
0000
0000
0000
0000
0000
0000
0000
0000
0000
0000
0100
0000
0000
0000
0000
0000
0000
0000
0000
0000
0000
0000
0000
0000
0000
0000
0000
0000
0000
0000
0000
0000
0000
0000
0100
0000
0000
0000
0000
0000
1000
0000
0000
0000
0000
0000
0100
0000
0000
0000
0000
0000
1000
0000
0000
0000
0000
0000
0001
0000
0000
0000
0000
0000
0000
0000
0000
0000
0000
0000
0000
0000
0000
0000
0000
0000
0000
0000
0000
0000
0000
0000
,
0002
0003
0000
0000
0000
0000
0000
0000
0000
0000
0000
0000
0000
0000
0000
0000
0000
0000
0000
0000
0000
0000
0000
0000
0010
0000
0000
0000
0000
0000
0000
0000
0000
0000
0000
0000
0001
0000
0000
0000
0000
0000
0000
0000
0000
0000
0000
0000
1000
0000
0000
0000
0000
0000
0000
0000
0000
0000
0000
0000
0000
0000
0000
0000
0000
0000
0000
0000
0000
0000
0000
0000
0010
0000
0000
0000
0000
0000
0000
0000
0000
0000
0000
0000
0000
0000
0000
0000
0000
0000
0000
0000
0000
0000
0000
0000
0100
0000
0000
0000
0000
0000
0000
0000
0000
0000
0000
0000
0000
0000
0000
0000
0000
0000
0000
0000
0000
0000
0000
0000
0010
0000
0000
0000
0000
0000
0000
0000
0000
0000
0000
0000
1000
0000
0000
0000
0000
0000
0000
0000
0000
0000
0000
0000
0001
0000
0000
0000
0000
0000
0000
0000
0000
0000
0000
0000
0000
0000
0000
0000
0000
0000
0000
0000
0000
0000
0000
0000
0010
0000
0000
0000
0000
0000
0000
0000
0000
0000
0000
0000
0000
0000
0000
0000
0000
0000
0000
0000
0000
0000
0000
0000
,
1100
0000
0001
1000
0010
0000
1010
0000
0102
0000
0023
0000
0230
0000
2300
0000
,
3001
0000
0000
0100
0000
0000
0001
0000
0000
0010
0000
0000
0100
0000
0000
1000
0000
0000
0001
0000
0000
1000
0000
0000
0100
0000
0000
0010
0000
0000
0001
0000
0000
1000
0000
0000
0001
0000
0000
0010
0000
0000
0100
0000
1000
0000
0001
0000
,
0010
0100
1000
0001
0100
0010
1000
0010
0100
0001
0010
0100
0010
0001
1000
0010
,
0100
0000
0010
1000
0001
0000
0010
0000
0100
0000
0010
0001
1000
0000
0010
0000
,
0101
0000
1000
0001
0010
0000
0011
0000
2100
0000
3020
0000
0230
0000
0302
0000
,
1003
0000
0000
0010
0000
0000
0100
0000
0000
0010
0000
0000
1000
0000
0000
0001
0000
0000
0100
0000
0000
0001
0000
0000
1000
0000
0000
0001
0000
0000
0010
0000
0000
0100
0000
0000
1000
0000
0000
0001
0000
0000
0010
0000
0100
0000
1000
0000
,
0001
0000
0010
0000
0100
0000
1000
0000
0001
1000
0001
1000
0001
1000
0001
1000
,
0010
0000
0100
0001
1000
0000
1100
0000
0100
1000
0001
0000
0100
0000
0101
0000
,
0001
0010
1000
0000
0001
0100
1000
0000
0001
0010
1000
0000
0001
0100
1000
0000
,
1100
0000
0100
1000
0001
0000
0100
0000
0101
0000
0001
1000
0100
0000
1100
0000
,
1000
0010
0100
0000
1000
0100
0010
0000
1000
0100
0010
0100
1000
0000
0001
0000
,
0100
0010
1000
0010
0100
0010
1000
0000
1001
0000
0001
0010
0100
0000
1100
0000
,
1000
0100
0001
0000
0100
0000
1001
0000
0001
0100
1000
0000
0100
0000
0001
0010
,
0100
0000
0001
0100
0010
0000
0001
0100
0010
0000
0001
0010
1000
0000
0001
0000
,
0010
0000
0100
0000
1000
0000
0001
0000
1000
0100
0010
0001
0012
0000
0000
0000
,
0023
0000
0000
0100
0000
0000
2030
0000
0000
0001
0000
0000
3200
0000
0000
0010
0000
0000
2300
0000
0000
3001
0100
0010
,
0100
0000
0010
1000
0002
0000
1003
0000
1100
0000
0001
0000
0101
0000
0100
0000
,
0001
0000
0000
0010
0000
0000
0100
0000
0000
1000
0000
0000
0001
0000
0000
0100
0000
0000
0010
0000
0000
0100
0000
0000
0001
0000
0000
1000
0000
0000
0010
0000
0000
0100
0000
0000
0001
0000
0000
0010
0000
0000
0100
0000
1000
0000
0010
0000
,
0100
0001
0010
0001
0100
0010
0100
0001
1000
0001
0010
0100
0010
0001
1000
0010
,
0200
0000
0000
0001
0000
0000
0320
0000
0000
1000
0000
0000
0032
0000
0000
0100
0000
0000
2003
0000
0000
3010
0100
0001
,
0010
0000
0100
1000
0001
0000
1000
0100
0010
0001
1000
0100
0010
0001
1000
0000
,
1100
0000
0000
1100
0000
0000
0101
0000
0000
0101
0000
0000
0011
0000
0000
1010
0000
0000
1001
0000
0000
1000
0100
0010
,
0001
0000
0000
0010
0000
0000
0100
0000
0000
1000
0000
0000
0100
0000
0000
0010
0000
0000
0100
0000
0000
1000
0000
0000
0001
0000
1000
0000
0001
0000
1000
0000
0001
0000
1000
0000
0001
0000
1000
0000
0001
0000
1000
0000
0001
0000
1000
0000
,
0001
0010
0100
1000
0020
0000
0130
0002
,
0000
0013
0100
1000
0002
0000
0103
0010
,
0100
1000
0100
0010
0100
0001
0010
0100
,
1100
0000
0011
0000
0101
0000
1010
1000
,
0001
0010
0010
0010
1100
0010
0000
0010
,
0101
0010
0000
0010
1100
0010
0000
0001
,
0110
1000
0001
1000
0100
1000
0001
0100
,
0001
0000
0000
0010
0000
0000
0100
0000
0000
1000
0000
0000
0001
0000
0000
0010
0000
0000
0100
0000
0000
1000
0000
0000
0001
0000
1000
0000
0001
0000
1000
0000
0001
0000
1000
0000
0001
0000
1000
0000
0001
0000
1000
0000
0001
0000
1000
0000
,
0001
0000
0000
0000
;
