#TITLE:ゾンビ;
#SUBTITLE:;
#ARTIST:DECO*27;
#TITLETRANSLIT:Zombie;
#SUBTITLETRANSLIT:;
#ARTISTTRANSLIT:DECO*27;
#GENRE:POP;
#CREDIT:;
#MUSIC:Zombie.ogg;
#BANNER:Zombie.png;
#BACKGROUND:Zombie-bg.png;
#CDTITLE:;
#SAMPLESTART:45.024;
#SAMPLELENGTH:12.722;
#SELECTABLE:YES;
#OFFSET:1.495;
#BPMS:0.000=158.000;
#STOPS:171.000=0.190
,203.250=0.759
,233.000=0.190
,233.500=0.190
,234.000=0.190
,300.000=0.190
,300.500=0.190
,301.000=0.190
;
#LASTBEATHINT:1.303500;
#BGCHANGES:4.000=Zombie.avi=1.000=0=0=0=StretchNoLoop====,
99999.000=-nosongbg-=1.000=0=0=0=StretchNoLoop====
;
#FGCHANGES:;

//--------------- dance-single - ----------------
#NOTES:
     dance-single:
     :
     Hard:
     12:
     0,0,0,0,0:
0000
0000
0000
0000
,
0000
0000
0000
0000
,
0000
0000
0000
0000
,
0010
0000
0100
0000
1001
0000
1000
0100
,
1000
0000
0001
0100
0000
0010
2000
0000
,
3100
0000
0010
0000
1001
0000
0001
0100
,
0001
0000
1000
0010
0000
0100
0001
1000
,
0100
0000
0010
0000
1001
0000
0010
0100
,
0010
0000
0100
0001
0000
1000
0200
0000
,
0310
0000
0001
0000
1000
0001
0100
0010
,
1000
0000
0001
0000
0010
0100
0000
0000
0100
1000
0000
0000
1000
0000
0001
0000
,
0010
0100
1000
0100
1000
0000
0001
0100
,
1000
0100
0010
0001
0000
1000
0100
0001
,
0000
1000
0100
1000
0100
0000
1000
0100
,
0001
0100
0010
1000
0000
0001
0100
1000
,
1010
0000
0101
0000
1000
0100
0001
0100
,
1000
0000
0001
2000
0000
3010
0100
0000
,
0001
0200
0302
0023
0230
2300
3002
1003
,
1100
0011
1010
0101
,
1001
0000
0100
0000
1001
0000
0001
0100
,
0001
0000
1000
0100
0000
1000
0002
0000
,
0103
0000
0010
0000
1001
0000
1000
0001
,
0010
0000
0100
0000
1000
0010
0000
0000
0010
0100
0000
0000
0100
0000
0001
0000
,
0011
0010
0100
1000
0002
0000
1003
0000
,
1100
0100
0010
0001
2000
0000
3001
0000
,
0101
0100
1000
0100
0002
0000
0013
0200
,
0000
1300
0001
1000
0010
0000
0101
0000
,
0001
0010
0100
1000
1100
0000
1001
0000
,
1000
0010
0100
0001
0101
0000
1001
0000
,
1000
0100
0001
0100
0010
0100
1000
0001
,
0000
1000
0001
1000
0000
0010
0100
0010
,
0110
0000
1001
0000
0110
0000
1001
0001
,
0010
1000
0001
0200
0000
1300
0010
0002
,
0000
1003
0100
0001
1000
0001
0010
2100
,
0000
3010
0000
0102
0000
0013
0100
0010
,
0110
0000
1001
0000
0110
0000
1001
1000
,
0010
0001
1000
0200
0000
0301
0010
2000
,
0000
3001
0100
1000
0010
0100
0001
0101
,
0000
0110
0000
2001
0000
0100
3100
0000
,
1000
0100
0010
0001
0010
0100
1000
0001
,
1000
0010
0000
0010
0100
0000
0100
0001
0000
0001
1000
0000
0200
0000
0000
0000
,
1300
0010
0100
0001
0100
0010
1000
0001
,
0010
0100
0000
0100
1000
0000
1000
0001
0000
0001
0200
0000
0300
0000
0010
0000
,
1000
0001
0010
1000
0010
0001
0100
0101
,
0000
1010
0000
1100
0000
0011
0000
0010
,
0001
0100
1000
0100
0010
1000
0100
0011
,
0000
1100
0000
1010
0000
0101
0000
0100
,
0001
1000
0100
0001
1000
0010
0100
1000
,
0001
0101
0000
1000
0100
1100
0000
0001
,
1000
0010
0100
1000
0001
0010
0100
0101
,
0001
1001
0000
1100
1000
1001
0000
0000
,
0000
0000
0000
2001
0000
0100
0000
0001
,
0000
3001
0010
0100
1000
0001
1000
0000
,
0001
1000
0001
0000
0100
0010
0100
0010
,
1000
0001
1000
0000
1100
0000
0001
0000
,
1001
0010
0100
0110
0000
1010
0000
1100
,
0000
0011
0010
0001
1000
0010
0100
0000
,
0100
0001
1000
0000
1000
0100
0010
0100
,
1000
0000
0000
0000
0000
0000
0000
0000
0000
0000
0000
0000
0000
0000
0000
0000
0000
0000
0000
0000
0000
0000
0000
0000
0001
0000
0000
0000
0000
0000
0000
0000
0000
0000
0000
0000
0000
0000
0000
0000
0000
0000
0000
0000
0000
0000
0000
0000
0200
0300
0000
0000
0000
0000
0000
0000
0000
0000
0000
0000
0000
0000
0000
0000
0000
0000
0000
0000
0000
0000
0000
0000
0020
0030
0000
0000
0000
0000
0000
0000
0000
0000
0000
0000
0000
0000
0000
0000
0000
0000
0000
0000
0000
0000
0000
0000
2002
3003
0000
0000
0000
0000
0000
0000
0000
0000
0000
0000
0000
0000
0000
0000
0000
0000
0000
0000
0000
0000
0000
0000
1000
0000
0000
0000
0000
0000
0000
0000
0000
0000
0000
0000
0000
0000
0000
0000
0000
0000
0000
0000
0000
0000
0000
0000
0001
0000
0000
0000
0000
0000
0000
0000
0000
0000
0000
0000
0000
0000
0000
0000
0000
0000
0000
0000
0000
0000
0000
0000
1000
0000
0000
0000
0000
0000
0000
0000
0000
0000
0000
0000
0000
0000
0000
0000
0000
0000
0000
0000
0000
0000
0000
0000
,
1010
0000
1100
0000
0011
0000
0101
0001
,
1000
0000
0001
0100
0001
0000
1000
0000
0000
0000
1000
0100
1000
0000
0001
0000
,
0000
0001
0010
0100
1000
0010
0100
0110
,
0000
1001
0000
0110
0000
1001
1000
0001
,
0101
0000
0011
0000
1100
0000
1010
1000
,
0001
0000
1000
0100
1000
0000
0001
0000
0000
0000
0001
0100
0001
0000
1000
0000
,
0000
1000
0100
0010
0100
1000
0001
1000
,
0010
0000
0100
0010
0100
0000
0001
0000
1000
0000
0100
0010
0100
0000
1000
0000
,
1100
0000
1001
0000
1001
0000
0001
0100
,
0110
0000
0010
0110
0000
1000
0001
1000
,
0000
0001
0010
0100
1000
0100
0010
0001
,
1000
0000
0010
0000
0100
0000
0001
0000
1000
0001
1000
0000
0010
0000
0010
0000
,
0100
0000
0110
0000
1001
0000
0021
0001
,
0130
0000
1020
0130
0000
0010
1000
0001
,
0000
1000
0100
1000
0001
0100
1000
0001
,
0010
0100
0010
0000
1000
0000
0100
0010
0100
0000
1000
0000
0001
0000
0100
0000
,
0020
0030
0000
0000
0000
0000
0000
0000
0000
0000
0000
0000
0000
0000
0000
0000
0000
0000
0000
0000
0000
0000
0000
0000
0200
0300
0000
0000
0000
0000
0000
0000
0000
0000
0000
0000
0000
0000
0000
0000
0000
0000
0000
0000
0000
0000
0000
0000
0220
0330
0000
0000
0000
0000
0000
0000
0000
0000
0000
0000
0000
0000
0000
0000
0000
0000
0000
0000
0000
0000
0000
0000
1000
0000
0000
0000
0000
0000
0000
0000
0000
0000
0000
0000
0000
0000
0000
0000
0000
0000
0000
0000
0000
0000
0000
0000
0001
0000
0000
0000
0000
0000
0000
0000
0000
0000
0000
0000
0000
0000
0000
0000
0000
0000
0000
0000
0000
0000
0000
0000
0000
0000
0000
0000
0000
0000
0000
0000
0000
0000
0000
0000
0000
0000
0000
0000
0000
0000
0000
0000
0000
0000
0000
0000
0001
0000
0000
0000
0000
0000
0000
0000
0000
0000
0000
0000
0000
0000
0000
0000
0000
0000
0000
0000
0000
0000
0000
0000
1000
0000
0000
0000
0000
0000
0000
0000
0000
0000
0000
0000
0000
0000
0000
0000
0000
0000
0000
0000
0000
0000
0000
0000
,
0001
0010
0000
0100
1000
1001
0001
0100
,
0001
0100
0000
0010
1000
0001
0010
0100
,
1100
0000
0100
1000
0001
0000
1000
0100
,
1000
0100
0000
0010
0001
1000
0010
0100
,
0101
0000
0001
0010
0001
1000
0010
1000
,
0010
0100
0001
1000
0100
0012
0000
1003
,
1020
0000
0130
0000
0000
0001
0100
1000
,
0100
0001
0010
1000
0001
0100
0000
1000
,
0000
0001
0000
0100
0000
0010
0000
0000
;

//--------------- dance-single - ----------------
#NOTES:
     dance-single:
     :
     Challenge:
     16:
     0.722329,0.559176,0,0,0,661,661,0,0,0,0,0.722329,0.559176,0,0,0,661,661,0,0,0,0:
0000
0000
0000
0000
,
0000
0000
0000
0000
,
0000
0000
0000
0000
,
0010
0000
0101
0000
1100
0001
1000
0010
,
0101
0000
0010
1100
0000
1001
0010
0100
,
0010
0000
0101
0000
0011
1000
0001
0010
,
1100
0000
1000
0101
0000
0001
0010
0100
,
0110
0000
1001
0000
0101
0010
1000
0001
,
0110
0000
1000
0110
0000
1000
0001
0010
,
1100
0000
0011
1000
0001
0100
0010
1000
,
0001
0000
1000
0000
0001
0010
0100
0000
0010
0100
1000
0000
0100
1000
0001
0010
,
0100
0000
1000
0100
1000
0000
0001
0010
0001
0000
0000
0000
1100
0000
1000
0000
,
0010
0100
0010
0101
0000
0001
1000
0001
,
0000
0000
0001
0100
0001
0000
1000
0010
1000
0000
0000
0000
0110
0000
0010
0000
,
1000
0000
0001
0000
1000
0000
1001
0000
0000
0000
0001
1000
0100
0000
0010
0000
,
0001
0100
1000
0100
0001
0100
1000
0100
0001
0000
0001
1000
0100
0001
0100
1000
,
0001
0000
1000
1100
0000
0001
1001
1000
,
0020
0230
0302
0023
0230
2300
3002
0103
,
0101
0011
1010
1100
,
1001
0100
0110
0000
1100
0001
1000
0010
,
0101
0000
0010
1100
0000
1000
0001
0100
,
0001
1000
0110
0000
0110
0001
1000
0001
,
0100
0001
0100
0001
1000
0100
1000
0100
0010
0001
1000
0010
0100
0000
0001
0000
,
1001
0000
1000
0000
0100
0000
0001
0000
0100
1000
0010
1000
0100
0000
1000
0000
,
1001
0000
0001
0000
0100
0000
1000
0000
0100
0001
0010
0001
0100
0000
0010
0000
,
0110
0000
0100
0000
0001
0000
0010
0000
0001
0100
1000
0100
0001
0000
0010
0000
,
0110
0000
0100
0000
1000
0000
0010
0000
1000
0100
0001
0100
1000
0000
0001
0000
,
0101
0000
1000
0000
1100
0000
0100
0000
1000
0001
1000
0001
0100
0000
0001
0000
,
0101
0000
1000
0000
1010
0000
0010
0000
1000
0001
1000
0001
0010
0000
0100
0000
,
1000
0100
1000
0010
1000
0001
1000
0001
0010
0001
0100
0001
1000
0100
0010
0001
,
1000
0000
0000
0000
0000
0000
0010
0000
0000
0000
0000
0000
0100
0000
0000
0010
0000
0000
0100
0000
0000
0010
0000
0000
1000
0000
0100
0000
0010
0000
0001
0000
0000
0000
0000
0000
0001
0000
0000
0000
0000
0000
0010
0000
0000
0000
0000
0000
,
0110
0000
0100
1000
0010
0000
0100
0001
0010
0000
0100
1000
0010
0000
0100
0000
,
0001
0000
1000
0010
0001
0000
0010
0000
0100
0000
0001
0010
1000
0000
0010
0000
,
0100
1000
0010
0100
1000
0100
0001
0102
,
0100
0013
0000
2100
0100
3010
0100
0010
,
0110
0000
0100
0001
0010
0000
0100
1000
0010
0000
0100
0001
0010
0000
0100
0000
,
1000
0000
0001
0100
1000
0000
0100
0000
0010
0000
1000
0100
0001
0000
0100
0000
,
0010
0001
1000
0010
0001
0010
1000
0100
,
0010
0000
0000
0001
0000
0000
0010
0000
0000
0001
0000
0000
1000
0000
0000
0000
0000
0000
0010
0000
0100
0000
0010
0000
0100
0000
0000
0000
0000
0000
0100
0000
0000
0001
0000
0000
1000
0000
0000
0000
0000
0000
0010
0000
0000
1000
0000
0000
,
0001
0100
0001
0100
0010
1000
0010
1000
0001
0010
0001
0010
0100
1000
0100
1000
,
0001
0100
0000
0010
0100
0000
1000
0100
0000
0001
0010
0000
0200
0000
0000
0000
,
1300
0010
1000
0010
0100
0001
0100
0001
1000
0100
1000
0100
0010
0001
0010
0001
,
1000
0010
0000
0100
0010
0000
0001
0010
0000
0100
0020
0000
0030
0000
1000
0100
,
0010
0100
0001
0100
0010
0100
1000
0010
0100
0010
0001
0010
0100
0010
1000
0000
,
0100
0000
1100
0000
0000
0000
0001
0000
0100
0000
0101
0000
0000
0000
0001
0100
,
0010
0100
1000
0100
0010
0100
0001
0010
0100
0010
1000
0010
0100
0010
0001
0000
,
0010
0000
0011
0000
0000
0000
1000
0000
0010
0000
1010
0000
0000
0000
0100
0001
,
1000
0001
0010
0100
1000
0001
1000
0010
0100
0001
1000
0100
0010
0001
0100
0000
,
0010
1000
0100
0000
0010
0000
0100
0000
0010
0001
0200
0000
0010
0000
0310
0100
,
1000
0100
0010
1000
0100
0010
0001
1000
0100
0001
1000
0010
0100
1000
0001
0000
,
1000
0010
0100
0000
1000
0100
0001
1000
0100
0010
0001
0010
0100
2000
0000
0000
,
3010
0100
0010
0210
0000
0010
0000
0010
,
0000
0301
0010
0100
1000
0100
1000
0000
,
0001
0100
0001
0000
1000
0001
0100
0010
,
1000
0001
0010
0000
1100
0000
1000
0000
,
0101
0001
1000
0010
1000
0001
0010
0100
,
1000
0001
0010
1000
0010
0001
0100
1000
,
0001
0010
1000
0100
0001
0100
0010
0100
,
1000
0000
0000
0000
0000
0000
0000
0000
0000
0000
0000
0000
0000
0000
0000
0000
0000
0000
0000
0000
0000
0000
0000
0000
0001
0000
0000
0000
0000
0000
0000
0000
0000
0000
0000
0000
0000
0000
0000
0000
0000
0000
0000
0000
0000
0000
0000
0000
0202
0303
0000
0000
0000
0000
0000
0000
0000
0000
0000
0000
0000
0000
0000
0000
0000
0000
0000
0000
0000
0000
0000
0000
2200
3300
0000
0000
0000
0000
0000
0000
0000
0000
0000
0000
0000
0000
0000
0000
0000
0000
0000
0000
0000
0000
0000
0000
2002
3003
0000
0000
0000
0000
0000
0000
0000
0000
0000
0000
0000
0000
0000
0000
0000
0000
0000
0000
0000
0000
0000
0000
1001
0000
0000
0000
0000
0000
0000
0000
0000
0000
0000
0000
0000
0000
0000
0000
0000
0000
0000
0000
0000
0000
0000
0000
0001
0000
0000
0000
0000
0000
0000
0000
0000
0000
0000
0000
0000
0000
0000
0000
0000
0000
0000
0000
0000
0000
0000
0000
0100
0000
0000
0000
0000
0000
0000
0000
0000
0000
0000
0000
0000
0000
0000
0000
0000
0000
0000
0000
0000
0000
0000
0000
,
0010
0000
1000
0100
0010
0000
0100
0000
0010
0100
1000
0010
0001
0000
0010
0000
,
0100
0000
0010
1000
0001
0000
0011
0000
0001
0000
0010
0001
1000
0000
1100
0000
,
1000
0000
0001
0100
0010
0000
0100
0000
1000
0000
0100
0001
0010
0000
0100
0000
,
0100
1001
0100
0010
0010
1001
1000
0001
,
1000
0000
0010
0100
1000
0000
0100
0001
0010
0100
0010
0001
1000
0100
0010
0000
,
0001
0000
0100
0010
1000
0000
1010
0000
1000
0000
0100
0010
0001
0000
0011
0000
,
0001
1000
0010
0001
1000
0100
0001
0010
,
0100
0000
0000
0010
0000
0000
0100
0000
0000
0010
0000
0000
0001
0000
0000
0000
0000
0000
1000
0000
0100
0000
1000
0000
0100
0000
0000
0010
0000
0000
0000
0000
0000
0010
0000
0000
0001
0000
0000
1000
0000
0000
0010
0000
0000
0100
0000
0000
,
0001
0000
0100
0000
1001
0000
0001
0000
1000
0100
0010
0100
1000
0000
0010
0000
,
0100
0000
0010
0000
0001
0000
0010
0000
0100
0001
0010
0001
0100
0000
0001
0000
,
0010
0000
0100
0000
1000
0000
0001
0000
0100
0010
1000
0010
0100
0000
0001
0000
,
0100
0000
0000
0000
0000
0000
0010
0000
0000
0000
0000
0000
1000
0000
0000
0000
0000
0000
0100
0000
0000
0000
0000
0000
0010
0000
0001
0000
0010
0000
0001
0000
0000
1000
0000
0000
0100
0000
0000
0000
0000
0000
0010
0000
0000
0000
0000
0000
,
0100
0000
1000
0000
0001
0000
0100
0000
0001
0100
0010
0100
0001
0000
1000
0000
,
0001
0000
0010
0000
1000
0000
0010
0000
0100
1000
0010
1000
0100
0000
0010
0000
,
0001
0000
0010
0000
0100
0000
1000
0000
0001
0010
0100
0010
0001
0000
1000
0000
,
0001
0100
0001
0100
0000
0000
0010
0000
0000
1000
0100
1000
0100
0000
0000
0010
0000
0000
0001
0010
0100
1000
0000
0000
,
2200
3300
0000
0000
0000
0000
0000
0000
0000
0000
0000
0000
0000
0000
0000
0000
0000
0000
0000
0000
0000
0000
0000
0000
0022
0033
0000
0000
0000
0000
0000
0000
0000
0000
0000
0000
0000
0000
0000
0000
0000
0000
0000
0000
0000
0000
0000
0000
2002
3003
0000
0000
0000
0000
0000
0000
0000
0000
0000
0000
0000
0000
0000
0000
0000
0000
0000
0000
0000
0000
0000
0000
0110
0000
0000
0000
0000
0000
0000
0000
0000
0000
0000
0000
0000
0000
0000
0000
0000
0000
0000
0000
0000
0000
0000
0000
0110
0000
0000
0000
0000
0000
0000
0000
0000
0000
0000
0000
0000
0000
0000
0000
0000
0000
0000
0000
0000
0000
0000
0000
0000
0000
0000
0000
0000
0000
0000
0000
0000
0000
0000
0000
0000
0000
0000
0000
0000
0000
0000
0000
0000
0000
0000
0000
0001
0000
0000
0000
0000
0000
0000
0000
0000
0000
0000
0000
0000
0000
0000
0000
0000
0000
0000
0000
0000
0000
0000
0000
1000
0000
0000
0000
0000
0000
0000
0000
0000
0000
0000
0000
0000
0000
0000
0000
0000
0000
0000
0000
0000
0000
0000
0000
,
0001
0000
0010
0100
0010
0000
0001
0000
1000
0000
1100
0000
0100
0010
0100
0000
,
1000
0001
1000
0000
0101
0000
0001
0000
1000
0000
0010
0000
0100
0000
0001
0000
,
0101
0000
0000
0000
0001
0000
0010
0000
0100
0000
0000
0000
1000
0001
1000
0000
,
0010
0100
0010
0000
1000
0000
0001
0000
0010
0000
0100
0000
1000
0000
0010
0000
,
0110
0000
0000
0000
0010
1000
0001
0000
1001
0000
1000
0100
0001
0100
1000
0100
,
0001
0100
1000
0000
1000
0001
0100
1000
0100
0001
1000
0000
0000
0000
0010
0000
,
0101
0000
0000
0000
1100
0000
0100
1000
0001
0000
0101
0000
0100
0000
0010
0000
,
1000
0010
0100
0001
1000
0100
0000
0010
,
0000
0001
0000
1000
0000
0101
0000
0000
;
