#TITLE:絶体絶命;
#SUBTITLE:;
#ARTIST:Co shu Nie;
#TITLETRANSLIT:Zettai zetsumei;
#SUBTITLETRANSLIT:;
#ARTISTTRANSLIT:Co shu Nie;
#GENRE:ANIME;
#CREDIT:;
#MUSIC:Zettai zetsumei.ogg;
#BANNER:Zettai zetsumei.png;
#BACKGROUND:Zettai zetsumei-bg.png;
#CDTITLE:;
#SAMPLESTART:30.747;
#SAMPLELENGTH:13.007;
#SELECTABLE:YES;
#OFFSET:1.141;
#BPMS:0.000=143.000;
#STOPS:;
#BGCHANGES:;
#FGCHANGES:;

//--------------- dance-single - ----------------
#NOTES:
     dance-single:
     :
     Hard:
     14:
     0,0,0,0,0:
0000
0000
0000
0000
,
0000
0000
0000
0000
,
1000
0000
0010
1000
0000
1000
0100
0010
0000
0001
0010
0100
0010
0100
1000
0000
,
0010
0000
0010
1000
0000
1010
0000
1000
0100
0000
0010
0000
0001
0010
0100
0000
,
0010
0000
0001
0100
0000
0100
1000
0100
0001
0000
1001
0000
1000
0000
0001
0000
,
0001
0010
0001
0100
0000
0100
0010
0100
0001
0000
0110
0000
0001
0000
1000
0100
,
1000
0000
0001
0010
0000
0010
0100
0000
0110
0000
0000
0000
1100
0000
0000
0000
,
1000
0000
0000
0100
0000
0000
1000
0000
0001
0000
0000
0100
0000
0000
0001
0000
,
0101
0000
1010
1000
0010
0000
0100
0000
,
0001
0000
0000
1000
0000
0000
0100
0000
0001
0000
0000
0100
0000
0000
1000
0000
,
0000
1000
0010
0001
0010
0000
0110
1000
,
1010
0000
0000
0101
0000
0000
1001
0000
0011
0000
0000
0000
1100
0000
0000
0000
,
1010
0000
0000
0000
0001
0000
0010
0000
0100
0000
0000
0000
1000
0000
1000
0100
,
1000
0000
0000
0000
0001
0000
0001
0100
0001
0000
0000
0000
0010
0000
0010
0100
,
0010
0000
1001
0000
1000
0100
0010
0100
,
2100
0000
0000
3000
0102
0000
0003
0000
2010
0000
0000
0000
3012
0000
0000
0000
,
0013
0000
0010
0000
0100
0000
1000
0000
1100
0000
0000
0000
1100
0000
1000
0100
,
1000
0000
0001
0100
0001
0000
0100
0010
1000
0000
0100
0010
0001
0000
0100
0010
,
0100
0000
0010
0100
0010
0000
1000
0001
1000
0001
1000
0001
1000
0000
0000
0000
,
1001
0000
0001
0010
0000
0010
1000
0000
0010
0000
0001
0100
0000
0100
1000
0000
,
0001
0000
0001
0010
0000
0010
0100
0000
1000
0100
0010
0001
0000
0011
0000
0000
,
1010
0000
0000
0000
1000
0000
0100
0010
0001
0000
0001
0010
0100
0000
0100
1000
,
1100
0000
0011
0000
1100
0100
0010
0000
,
2000
3100
2000
3002
0103
0002
2003
3010
,
2000
3001
0020
0031
2000
3100
0020
0031
,
0011
0000
0000
1100
0000
0000
1100
0000
1010
0000
0000
1010
0000
0000
0101
0000
,
0101
0000
0000
0110
0000
0000
1001
0000
1001
0000
0000
0000
0001
0010
0100
0000
,
1000
1000
0001
0001
0010
0010
0100
0100
,
1100
1000
1010
0010
0110
0100
0101
0000
,
0001
0001
0010
0010
0100
0100
1000
1000
,
1100
0100
0110
0010
0011
0001
1001
0000
,
0001
0100
1000
1000
0100
0001
1000
1000
,
0011
0010
0110
1000
1100
0100
1001
0000
,
1000
0100
0001
0001
0100
1000
0001
1000
,
1010
0000
1001
1001
1001
1001
1001
0000
,
0011
0000
0000
0011
0000
0001
0010
0000
0100
0000
0000
1100
0000
0000
0001
0000
,
0100
0000
0010
1000
0000
1010
0000
0000
1001
0000
0001
1000
0000
0100
1000
0100
,
0010
0000
0000
0000
0011
0000
0001
0100
0001
0000
0101
0000
1100
0000
1000
0100
,
1000
0000
0001
0100
0001
0000
1000
0100
1000
0001
0100
0010
1000
0000
0000
0000
,
1100
0000
1000
0100
0000
1000
0100
0010
0001
0000
0001
0100
0000
0001
0100
0010
,
1000
0000
1000
0010
0000
1000
0010
0100
0001
0000
0001
0010
0000
0001
0010
0100
,
1000
0000
0100
1000
0010
0000
0110
0000
0100
0000
0100
0001
0010
0000
0100
0000
,
1000
0000
0000
0000
0001
0000
0000
0000
1000
0000
0000
0000
0001
0000
0000
0000
1000
0000
0000
0000
0001
0000
0000
0000
1000
0000
0000
0000
0001
0000
0000
0000
1000
0000
0000
0000
0001
0000
0000
0010
0000
0000
0100
0000
0000
1000
0000
0000
,
0001
0000
0000
0000
,
0001
0010
0001
0010
0100
1000
0100
1000
0001
0100
0010
1000
0000
0001
0000
0010
,
0100
0000
1100
0000
0011
0000
0001
0010
0100
0000
0100
1000
0000
1000
0100
0010
,
0001
0000
0001
0010
0100
0000
0100
1000
0010
0000
0100
0001
0100
0010
0000
0010
,
1000
0000
1000
0100
0001
0000
0001
0100
1000
0010
0000
0010
1000
0100
0010
0000
,
1000
0000
0010
0001
0100
0000
0100
0010
1000
0000
0100
0010
0001
0000
0100
0010
,
1000
0001
0000
0001
1000
0000
1000
0100
0010
0001
0000
0001
0010
0000
0010
0100
,
1000
0000
0001
0100
1000
0000
1000
0100
0001
0010
0000
0011
0000
0001
0010
0100
,
0000
1000
0010
0100
0010
0000
1000
0100
1000
0000
0001
0100
0001
0000
0010
0001
,
0100
0000
0010
1000
0100
0000
0000
0000
0000
0000
0000
0000
0000
0000
0000
0000
;

//--------------- dance-single - ----------------
#NOTES:
     dance-single:
     :
     Challenge:
     17:
     0,0,0,0,0:
0000
0000
0000
0000
,
0000
0000
0000
0000
,
0001
0010
0100
1000
0001
1000
0010
0100
0000
0001
0100
0010
1000
0100
1000
0100
,
0010
0001
0100
0010
0000
1010
0000
1000
0100
1000
0010
0100
0001
0010
1000
0000
,
0010
0001
0100
0010
1000
0010
0100
0001
1000
0000
1001
0000
1000
0010
0001
0000
,
0010
1000
0100
1000
0010
0100
0001
0100
0010
0000
0110
0000
1000
0010
0001
1000
,
0100
0000
0001
0010
0000
0100
0010
0000
0110
0000
0000
0000
1001
0000
0000
0000
,
2000
0000
0000
3200
0000
0000
1300
0000
0002
0000
0000
0203
0000
0000
0310
0000
,
1100
0000
0000
0000
0011
0000
1000
0100
0020
0000
0000
0000
0032
0000
0000
0000
,
0023
0000
0000
0230
0000
0000
1300
0000
2000
0000
0000
3200
0000
0000
0302
0000
,
0000
0000
1003
0000
0010
0000
0001
0001
0020
0000
0000
0000
0130
0000
1000
1000
,
0002
0000
0000
0203
0000
0000
1300
0000
0011
0000
0000
0000
1100
0000
0000
0000
,
1010
0000
0000
0000
1001
0000
0001
0100
0010
0000
0100
0000
0010
0000
1000
0100
,
0010
0000
0000
0100
0000
0000
0100
0000
1001
0000
0000
0010
0000
0000
0010
0000
,
1001
0000
0000
0000
0110
0000
0001
0100
1000
0000
0100
0000
0001
0000
0100
0000
,
0120
0000
0000
0000
2030
0000
0000
3000
0012
0000
0000
0000
0023
0000
0000
0030
,
1010
0000
0010
0000
0100
0000
0001
0000
0011
0000
0000
0000
1100
0000
1000
0100
,
0010
0000
0001
0010
0100
0000
1000
0010
0100
0000
0001
0010
0100
0000
1000
0100
,
0010
0001
1000
0010
0100
0001
1000
0001
0100
0010
0100
0010
0100
0000
0000
0000
,
1001
0000
0001
1000
0010
1000
0001
0100
0010
0000
0010
1000
0001
0010
1000
0010
,
0001
0000
0001
0100
0010
1000
0001
0100
1000
0100
0001
0101
0000
1010
0000
0000
,
0011
0000
0000
0001
1000
0010
0100
0001
1000
0100
0010
0100
1000
0001
0100
0010
,
0110
0000
1000
0000
0011
0000
0001
0000
1100
0000
0100
1000
0010
0000
0000
0000
,
2000
0100
0010
3002
0100
2003
0100
3020
,
1000
0000
0230
0000
1000
0000
0320
0000
0001
0000
2030
3000
0200
0000
1300
0000
,
0011
0000
0000
1100
0000
0000
0110
0000
0011
0000
0000
1010
0000
0000
1100
0000
,
0110
0000
0000
1001
0000
0000
1010
0000
0101
0000
0000
0000
0010
0100
0010
0000
,
1010
1000
1001
1000
1100
1000
1010
0001
,
0101
0001
1001
0001
0011
0001
0101
0000
,
0101
0100
0110
0100
1100
0100
0110
0010
,
1010
0010
0110
0010
0011
0010
0110
0000
,
1100
0010
0101
1000
0110
0001
1100
0010
,
0101
1000
0110
0001
1010
0100
1001
0000
,
0110
0001
1100
0010
0101
1000
0110
0001
,
1010
0000
1100
0011
1100
0110
1001
0000
,
1001
0000
0011
0000
1000
0010
0000
1100
0000
0011
0000
0101
0000
1010
0000
0100
,
0010
0000
0010
0100
0000
0110
0000
0000
1001
0000
0001
1000
0000
0010
1000
0100
,
0010
0001
0000
0001
0010
0100
1000
0100
0010
0000
0110
0000
1100
0000
0001
1000
,
0001
0000
1000
0000
0100
0000
1000
0000
0100
0000
1000
0000
0001
0000
1000
0000
0100
0000
1000
0000
0100
0000
1000
0000
0001
0000
1000
0000
0100
0000
1000
0000
0100
0000
1000
0000
0001
0000
0000
1000
0000
0000
0100
0000
0000
1000
0000
0000
,
1001
0000
0100
0001
1000
0100
0010
0001
1001
0000
0001
0010
0100
1000
0010
0100
,
0101
0000
1000
0010
0100
0001
0010
0100
1100
0000
0001
0100
0010
1000
0010
0100
,
0001
0100
0001
0100
0010
1000
0010
1000
0001
0010
0001
0010
0100
1000
0100
1000
,
0001
0000
0000
0000
0010
0000
0000
0000
0010
0000
0000
0000
1000
0000
0000
0000
0100
0000
0000
0000
0100
0000
0000
0000
0001
0000
0000
0000
0010
0000
0000
0000
0010
0000
0000
0000
1000
0000
0000
0010
0000
0000
0100
0000
0000
0001
0000
0000
,
0101
0000
0000
0000
,
0001
0000
0100
0000
0010
0000
0100
0000
0001
0000
0100
0000
0010
0000
0100
0000
0001
0000
0100
0000
0010
0000
1000
0000
0001
0000
0000
0100
0000
0000
0010
0000
0000
0100
0000
0000
0000
0000
0000
0001
0000
0000
0000
0000
0000
0010
0000
0000
,
0100
0000
1010
0000
0110
0000
0001
1000
0100
0010
0001
1000
0100
1000
0001
0100
,
0001
0000
1000
0100
0010
0001
0010
0100
1000
0010
0100
0001
0100
0010
0000
1000
,
0010
0100
1000
0100
0010
1000
0100
1000
0010
0100
0010
0001
0010
0100
0001
0000
,
1000
0001
0010
0100
0010
0001
0100
0010
1000
0000
0010
0100
0001
0010
0100
0010
,
0001
0100
0010
1000
0001
0100
0010
1000
0010
0100
0001
0010
0100
1000
0100
0010
,
0001
0000
0001
0010
1000
0000
1000
0010
0001
1000
0000
1010
0000
1000
0001
0100
,
0001
0000
0000
1000
0000
0000
0010
0000
0000
0100
0000
0000
0010
0000
0000
1000
0000
0000
0100
0000
0000
1000
0000
0000
0001
0000
0100
0000
0010
0000
0100
0000
0001
0000
0010
0000
0100
0000
1000
0000
0010
0000
0100
0000
0010
0000
1000
0000
,
0001
0010
0100
1001
0000
0000
0000
0000
0000
0000
0000
0000
;
