#TITLE:贅沢な匙;
#SUBTITLE:;
#ARTIST:Van de Shop;
#TITLETRANSLIT:Zeitaku na Saji;
#SUBTITLETRANSLIT:;
#ARTISTTRANSLIT:Van de Shop;
#GENRE:ANIME;
#CREDIT:;
#MUSIC:Zeitaku na Saji.ogg;
#BANNER:Zeitaku na Saji.png;
#BACKGROUND:Zeitaku na Saji-bg.png;
#CDTITLE:;
#SAMPLESTART:53.285;
#SAMPLELENGTH:14.655;
#SELECTABLE:YES;
#OFFSET:1.238;
#BPMS:0.000=131.016;
#STOPS:;
#DISPLAYBPM:131.000;
#LASTBEATHINT:0.422330;
#BGCHANGES:3.000=Zeitaku na Saji.avi=1.000=0=0=0=StretchNoLoop====,
99999.000=-nosongbg-=1.000=0=0=0=StretchNoLoop====
;
#FGCHANGES:;

//--------------- dance-single - ----------------
#NOTES:
     dance-single:
     :
     Medium:
     12:
     0,0,0,0,0:
0000
0000
0000
0000
,
0101
0000
0000
1000
0001
0000
0010
0000
0100
0000
0000
0110
0000
0000
0010
0000
,
0001
0000
0001
0000
1000
0000
1000
0000
0010
0100
0000
0001
0000
0000
0001
1000
,
0000
0000
0100
0000
0100
0000
0100
0000
1000
0001
0000
0100
0000
0010
0000
0100
,
0001
0001
1000
1000
0110
0000
0110
0000
,
0001
0000
1000
0000
0010
0000
0100
0000
0001
0010
0000
1100
0000
0000
0101
0000
,
1000
0000
0010
0000
0100
0000
0001
0000
1000
0001
0000
1001
0000
1001
0000
0000
,
1000
0100
0001
0100
1000
0010
0001
0010
,
1010
1100
0101
0011
,
1001
0000
0000
0000
0000
0110
0000
0000
,
1001
0000
0000
0000
0000
0011
0000
0000
,
1100
0000
0000
0000
0000
1010
0000
0000
,
0101
0000
0000
0000
0100
0000
0000
0000
0010
0000
0000
1001
0000
0000
0000
0000
,
1000
0001
0100
0001
0100
2000
0000
3100
,
0001
0010
1000
0010
1000
0020
0000
0031
,
0101
1100
0101
1100
,
0101
0000
0001
0000
1000
0000
0001
0000
0100
0000
0010
0000
1000
0001
0000
0000
,
0010
1000
0001
0100
1000
0001
0100
0010
,
0000
0100
1000
0001
0010
1000
0001
0010
,
0000
0100
1000
0010
1000
0100
1000
0001
,
0101
0000
0000
0000
1100
0000
0000
0000
0101
0000
0000
1100
0000
0000
1000
0000
,
0001
1000
0100
0001
1000
0010
0001
0100
,
0000
0001
1000
0001
0100
1000
0001
0010
,
0000
1000
1100
0000
0011
0000
0101
0000
,
1010
0000
0010
0100
0000
0001
0000
1000
0001
0000
0001
0000
0010
0000
0100
0000
,
1100
0000
0101
0000
0110
0001
2000
0000
,
0000
0000
3002
0023
0230
2300
3002
0023
,
0130
0000
0000
1100
0000
1000
0001
0000
0101
0000
0000
0000
0100
0000
0001
0000
,
1000
0000
0001
0100
0000
0001
1000
0000
0100
0000
0000
0000
0100
0000
1000
0000
,
0010
0000
1000
0100
0000
1000
0001
0000
0100
0000
0000
0000
0010
0000
0010
0000
,
1000
0000
0001
0100
0000
0001
0100
0000
0001
0000
0010
0000
0100
0000
1000
0000
,
0001
0000
1000
0100
0000
1000
0100
0000
0020
0000
0000
0000
0032
0000
1000
0000
,
0010
0100
2003
0001
0100
3020
0000
0130
,
0101
0000
0001
0000
1100
0000
1000
0000
0110
0000
0000
0100
0020
0000
0000
0000
,
2030
0100
3200
0010
0320
0000
0031
1000
,
0200
0001
0010
1000
2300
0100
0001
3010
,
0110
0001
0101
1000
1001
0001
1000
0100
,
1100
0000
0011
0000
1100
0000
1000
0001
,
1000
0000
0100
0010
0000
0100
0010
0000
0001
0000
0010
0000
0100
0000
1000
0000
,
0001
0000
0100
0010
0000
0100
0010
0000
2000
0000
0000
0000
3001
0000
0010
0000
,
1100
0000
0000
0000
0011
0000
0001
0000
1000
0010
0000
0110
0000
0000
1000
0000
,
0001
0000
1000
0100
0000
0010
0001
0000
2000
0000
0000
0000
3001
0000
0100
0000
,
0101
0000
0001
0010
0000
0100
1000
0000
1100
0000
0000
0000
1000
0000
0100
0000
,
1100
0000
1000
0010
0000
0100
0001
0000
0101
0000
0000
0000
0001
0000
0010
0000
,
0011
0000
0000
0000
1100
0000
0000
0000
1010
0000
0010
0100
0000
0001
1000
0000
,
0200
0000
0001
0000
0010
0000
1300
0010
,
0100
0000
0110
0110
,
1001
0000
0000
0000
0001
0000
0010
0000
0100
0000
0000
1100
0000
0000
1000
0001
,
0000
0000
0100
0000
0010
0000
1000
0000
0001
0010
0000
0100
0000
0000
1000
0001
,
0000
0000
0000
1001
0000
0000
0000
0000
0000
0000
0000
0000
0000
0000
0000
0000
;

//--------------- dance-single - ----------------
#NOTES:
     dance-single:
     :
     Hard:
     15:
     0,0,0,0,0:
0000
0000
0000
0000
,
1001
0000
0000
0000
0000
0000
0000
0000
0000
0001
0000
0000
0010
0000
0000
0000
0000
0000
0100
0000
0000
0000
0000
0000
2100
0000
0000
0000
0000
0000
0000
0000
0000
0000
3010
0000
0000
0000
0000
0000
0100
0000
0010
0000
0000
0000
0000
0000
,
2000
0000
0000
3002
0000
0000
0023
0000
0000
0230
0000
0000
2300
0000
3020
0000
0000
0230
0000
0000
0000
0301
0000
0010
,
0000
0000
0000
1100
0000
0000
0101
0000
0000
1100
0000
0000
1000
0000
0010
0000
0000
0100
0000
0000
0001
0010
0000
0100
,
0000
0000
0100
1000
0000
1000
0100
0000
0100
1000
0000
1000
0001
0000
0100
0000
0000
0010
0000
0000
1000
0001
0000
0000
,
0020
0000
0000
0001
0000
0000
0230
0000
0000
1000
0000
0000
0310
0000
0001
0000
0000
0101
0000
0000
0000
1000
0000
0000
,
0020
0000
0000
1000
0000
0000
0230
0000
0000
0001
0000
0000
0310
0000
1000
0000
0000
1100
0000
0000
1100
0000
0000
0000
,
2000
0000
0000
3002
0000
0000
0203
0000
0000
0320
0000
0000
1030
0000
0001
0100
0000
0010
0100
0000
0001
1000
0000
0000
,
1100
0000
0000
0010
0000
0000
0101
0000
0000
0010
0000
0000
1000
0000
0001
0000
0000
1000
0100
0000
0010
0100
0000
0000
,
1001
0000
0000
0000
0000
0110
0000
0000
,
1001
0000
0000
0000
0000
0011
0000
0000
,
1100
0000
0000
0000
0000
1010
0000
0000
,
0101
0000
0000
0000
0000
0000
0100
0000
0000
0000
0000
0000
0110
0000
0000
0000
0000
0110
0000
0000
0000
0001
0000
0000
,
1000
0010
0100
0001
0010
2100
0000
3010
,
0110
0001
0010
0100
1000
0102
0000
1003
,
0010
0000
0100
0001
0000
0000
0010
0000
0100
1000
0000
0000
1001
0000
0000
0001
0000
0000
0100
0000
0010
0100
0000
0000
,
0102
0000
0000
0023
0000
0000
0130
0000
1000
0001
0000
0001
1000
0000
1000
0000
0000
0010
0000
0000
0010
0100
0000
0000
,
0001
0000
0001
0010
0000
0010
0100
0000
0100
1000
0000
2000
0010
0000
0000
0100
0000
0000
0010
0000
0000
3100
0000
1000
,
0000
0000
1000
0010
0000
0010
0100
0000
0100
0001
0000
0002
0010
0000
0000
0100
0000
0100
0000
0000
0000
1003
0000
0000
,
0001
0000
1000
0000
0000
1000
0010
0000
0000
0100
0000
0200
0000
0000
0000
0302
0000
0000
1003
0000
0010
0100
0000
0000
,
0010
0000
1000
0100
0000
0000
0010
0000
0001
0100
0000
0000
0110
0000
0000
1000
0000
0001
0000
0000
0001
0100
0000
0000
,
0210
0000
0000
1000
0000
0000
0001
0000
0301
0010
0000
0010
0100
0000
0000
1000
0000
0000
0001
0000
0010
0100
0000
0000
,
0210
0000
0000
1000
0000
1300
0010
0000
0000
0100
0000
0001
2000
0000
0000
0100
0000
0000
3100
0000
0010
0001
0000
0000
,
1001
0000
0000
0100
0000
0000
1001
0000
0000
0010
0000
0000
0110
0000
1000
0001
0000
0001
0010
0000
0010
0100
0000
1000
,
0020
0000
0000
0100
0000
0100
0000
0000
1030
0002
0000
0000
0010
0000
0000
0023
0000
0000
0100
0000
0000
0130
0000
0000
,
1100
0000
1010
0000
0101
0100
1002
0000
,
0000
0000
0023
0230
2300
3020
0032
2003
,
3100
0000
0000
0000
0100
0000
0000
0000
0001
1000
0000
0000
0100
0000
0000
0010
0000
0000
0100
0000
0000
1000
0000
0001
,
0100
0000
0000
0100
0000
0001
0000
0000
1000
0100
0000
0000
1100
0000
0000
0000
0000
1000
0000
0000
0010
0100
0000
0000
,
0101
0000
0000
0000
0000
0000
1010
0000
0000
0000
0000
0010
0100
0000
0100
0010
0000
0000
1000
0001
1000
0001
0000
0000
,
0200
0000
0000
0001
0000
0301
0000
0000
0010
0100
0000
0000
1000
0000
0001
0100
0000
0100
1000
0000
1000
0100
0000
0100
,
0002
0000
0000
0010
0000
0013
0000
0000
0100
2000
0000
0000
3010
0000
0010
0100
0000
0100
0010
0000
0000
1001
0000
0000
,
0001
0000
0001
0100
0000
0000
1000
0000
1000
0100
0000
0000
1001
0000
0000
1001
0000
0000
0001
0010
0100
1000
0000
0001
,
0100
0000
0000
1010
0000
0000
0100
0000
0000
0011
0000
0000
0110
0000
0000
1000
0000
0001
0100
0000
0000
0010
0000
0000
,
0100
0000
0001
1000
0000
0000
0100
0000
1000
0001
0000
0000
1001
0000
0001
0100
0000
0100
0010
0000
0010
0200
0000
0000
,
1000
0010
0010
0301
0020
1000
0100
0100
,
0031
0000
1000
0001
0000
0000
0100
0000
0010
0100
0000
0000
0110
0000
0000
1001
0000
0000
0001
0100
0001
0100
0000
0000
,
1010
0000
0000
0000
0000
0000
1100
0000
0000
0000
0000
0000
0011
0000
0000
0001
0000
1000
0010
0000
0010
0100
0000
0000
,
0101
0000
0000
1000
0000
0100
0000
0000
0100
0010
0000
0001
0100
0000
0010
0100
0000
1000
0100
0000
0010
1000
0000
0001
,
0010
0000
0000
0100
0000
0100
0000
0000
1000
0010
0000
0100
0002
0000
0000
1000
0000
0000
0100
0000
0000
0013
0000
0000
,
0001
0000
0100
0010
0000
0000
1000
0000
0100
0010
0000
0000
0010
0000
0100
0000
0000
1001
0000
0000
1000
0010
1000
0010
,
0100
0000
0100
0001
0000
1000
0000
0000
0001
0010
0000
0000
1100
0000
0000
1000
0000
0001
0100
0000
0100
0010
0000
0000
,
1010
0000
0000
1000
0000
0001
0000
0000
0001
0100
0000
0000
0201
0000
0000
0010
0000
0000
1000
0000
0000
0301
0000
0000
,
1001
0000
0000
0000
0000
0000
1000
0000
0000
0000
0100
0000
0000
0000
0000
0000
0100
0000
0010
0000
0000
0000
0000
0000
0011
0000
0000
0000
0000
0000
0000
0000
0000
1001
0000
0000
0000
0000
0000
0000
0000
0000
1100
0000
0000
0000
0000
0000
,
1001
0000
0000
0010
0000
0000
0101
0000
0000
1000
0000
0000
0001
0000
0010
0000
0000
0110
0000
0000
0100
1000
0000
1000
,
0001
0000
0000
0001
0000
0100
0000
0000
0010
0100
0000
0001
0010
0000
0100
1000
0000
0000
0001
0000
0100
0010
0000
1000
,
0001
0000
0110
0110
,
1001
0000
0000
0000
0000
0000
0000
0000
0000
0001
0000
0000
0100
0000
0000
0000
0100
0000
0010
0000
0000
0000
0010
0000
1000
0000
0000
0000
0000
0000
0000
0000
0000
0000
1100
0000
0000
0000
0000
0000
1000
0000
0001
0000
0000
0000
0200
0000
,
0000
0000
0000
0320
0000
0000
2030
0000
0000
3200
0000
0000
0310
0000
0001
0000
0000
1001
0000
0000
0000
0100
0000
0010
,
0000
0000
0000
1001
0000
0000
0000
0000
0000
0000
0000
0000
0000
0000
0000
0000
;

//--------------- dance-single - ----------------
#NOTES:
     dance-single:
     :
     Challenge:
     18:
     0.613338,0.463832,0.011094,0,0.005547,387,386,1,0,0,0,0.613338,0.463832,0.011094,0,0.005547,387,386,1,0,0,0:
0000
0000
0000
0000
,
1100
0000
0000
0000
0000
0000
0000
0000
0000
0001
0000
0000
1000
0000
0100
0000
0010
0000
0100
0000
0000
0000
1000
0000
0010
0000
0000
0000
0000
0000
0000
0000
0000
0000
0101
0000
0000
0000
0000
0000
1000
0000
0010
0000
0000
0000
0010
0000
,
0100
0000
0000
1002
0000
0000
0013
0000
0000
2001
0000
0000
3100
0000
1000
0000
0000
1000
0001
0000
0000
0100
0000
0010
,
0100
0000
0000
0000
0000
0000
0000
0001
0000
0000
0010
0000
0100
0000
0000
0000
0010
0000
0001
0000
0000
0000
0010
0000
0100
0000
0000
0000
1100
0000
0000
0000
0000
0000
1000
0000
0001
0000
0000
0000
0001
0000
0100
0000
0000
0000
0110
0000
,
0000
0000
0010
0100
0010
0100
0010
0000
0100
0001
0000
0100
0010
0000
1000
0100
0010
0001
1000
0000
0001
0100
0000
0010
,
1000
0000
0001
0020
0000
0000
0130
0000
1000
0020
0000
0000
0130
0000
0001
0000
0000
1001
0000
0000
1000
0100
0000
0000
,
0010
0000
0001
0200
0000
0000
0310
0000
1000
0200
0000
0000
0310
0000
0100
0000
0000
0110
0000
0000
1001
0000
0001
1000
,
0010
0000
0010
0001
0000
1000
0100
0000
0100
0001
0000
1000
0100
0000
0100
0001
1000
0010
0100
0000
0100
0010
0000
0000
,
0011
0000
0010
0100
0000
0000
1100
0000
1000
0001
0000
0000
0101
0000
0001
0010
0100
1000
0001
0000
0010
0100
0000
1000
,
0001
0000
0000
0000
0000
0110
0000
0000
,
1001
0000
0000
0000
0000
0011
0000
0000
,
1100
0000
0000
0000
0000
0101
0000
0000
,
1001
0000
0000
0000
0000
0000
0001
0010
0100
1000
0100
0010
0001
0000
0000
0000
0000
1001
0000
0000
0000
0101
0000
0000
,
1010
0000
1000
0020
0000
0000
0100
0000
0000
1030
0000
1000
0200
0000
0000
0010
0000
0000
0301
0000
0001
0100
0000
0000
,
2001
0000
0000
0010
0000
0000
3100
0000
0100
0010
0000
0010
0002
0000
0000
0103
0000
0100
0010
0000
1000
0010
0000
0000
,
0110
0000
0100
0010
0000
0000
0110
0000
0010
0100
0000
0000
0110
0000
0100
0010
0000
0100
1000
0000
0100
0001
0000
0000
,
0011
0000
0000
1100
0000
0000
1000
0100
0010
0001
0000
0001
1000
0000
1000
0010
0000
0010
0100
0000
0100
0010
0000
1000
,
0001
0000
0010
0100
0000
0100
1000
0000
1000
0100
0000
0200
0001
0000
0000
1000
0000
0000
0001
0000
1300
0010
0000
0110
,
0000
0000
0001
0100
0000
0100
0010
0000
0010
1000
0000
1000
0020
0000
0000
0031
0010
1000
0000
0000
1000
0001
0000
0000
,
1001
0000
1000
0100
0000
0100
1000
0000
1000
0100
0000
0100
2000
0000
0000
0001
0000
3001
0100
0000
0100
0010
0000
0000
,
0101
0000
0001
0010
0000
0000
1100
0000
1000
0010
0000
0000
0110
0000
0100
0001
0000
1001
0000
0000
1000
0010
0000
0000
,
0110
0000
0100
0001
0000
0010
0100
0000
0001
0100
0000
0010
0001
0000
0000
1001
0000
1000
0010
0000
0100
0001
0010
0100
,
1000
0000
0010
0100
0000
1000
0100
0000
0010
0100
0000
0010
1000
0000
0000
1000
0100
0010
0001
0000
1000
0010
0000
0000
,
0110
0000
0100
0001
0000
0000
0011
0000
0010
0100
0000
0100
1000
0000
1000
0001
0000
0001
1000
0000
1000
0010
0100
0001
,
1000
0000
0000
0010
0000
0110
0000
0000
1000
0001
0000
0000
0001
0010
0001
0010
0100
1000
0010
1000
0010
0100
0001
1000
,
1100
0000
0000
0010
0000
0000
0101
0000
0000
0010
0000
0000
1100
0000
0000
0100
1000
0001
0100
0010
0100
0010
0100
0001
,
1000
0100
0010
0100
0010
0100
1000
0001
0100
0010
0100
0010
0002
0000
0000
0023
0000
0000
2030
0000
0000
3200
0000
0000
,
1300
0000
0010
0100
0000
0001
0000
0000
0001
1000
0000
0000
0100
0000
0100
0010
0000
0010
0100
1000
0100
0001
0100
0000
,
1100
0000
0000
0000
0000
0000
1000
0000
0000
0010
0000
0000
0000
0000
0100
0000
0001
0000
0010
0000
0000
0000
0000
0000
0101
0000
0000
0000
0000
0000
0000
0000
0000
0000
0110
0000
0000
0000
0000
0000
1000
0000
0100
0000
0000
0000
0000
0000
,
0110
0000
0000
0000
0000
0000
1001
0000
0000
0000
0000
1000
0010
0000
0000
0110
0000
0000
0001
0010
0100
1000
0001
0010
,
0100
0000
1000
0010
0000
0010
1000
0000
1000
0001
0000
0000
0001
0100
0010
0100
0010
1000
0001
0010
0001
0010
0100
1000
,
0010
0000
0010
0100
0000
0000
0101
0000
0001
0010
0000
0000
0100
0000
1000
0010
0100
0010
0100
0001
1000
0100
1000
0010
,
0100
0000
0001
0010
0000
1000
0010
0000
0001
0010
0000
0100
0010
0000
0000
1001
0000
0000
1000
0100
0010
0001
0000
0001
,
0010
0100
0010
0001
0010
0100
1000
0100
0010
0100
1000
0001
0100
0000
0100
0010
0000
0010
1000
0001
0100
0001
1000
0001
,
0010
0000
0100
1000
0000
0000
1010
0000
0100
0001
0000
0000
0011
0000
0010
0000
0000
0100
1000
0000
1000
0001
0000
0000
,
0001
0010
0001
0100
0001
0010
0100
1000
0010
1000
0100
1000
0010
0000
0010
0100
0000
0100
0001
0000
0001
1000
0000
0000
,
1010
0000
0100
0001
0000
0000
0011
0000
0100
1000
0000
0000
0110
0000
1000
0001
0000
0000
0001
0010
0100
1000
0000
0000
,
1100
0000
0000
0000
0000
0000
0011
0000
0000
0000
0000
0000
0101
0000
0000
0001
0010
0100
1000
0000
0010
0100
0000
0000
,
0101
0000
0001
0010
0000
0100
0010
0000
0001
0010
0100
1000
0001
0100
0010
0100
1000
0100
0010
0100
0001
0010
0100
1000
,
0001
0000
1000
0010
0000
0100
0010
0000
1000
0010
0100
0001
1000
0000
0001
0010
0100
1000
0001
0000
1000
0010
0000
0000
,
0110
0000
1000
0001
0000
0000
0110
0000
0001
1000
0000
0000
1001
0000
0110
0000
0000
0110
0000
0000
0010
1000
0000
0000
,
0001
0010
0100
1000
0001
0100
1000
0100
0001
1000
0100
0010
0001
1000
0100
0001
0100
1000
0001
0000
0001
0010
0000
0000
,
1100
0000
0000
0100
1000
0010
0100
0000
0100
0001
0000
0000
0110
0000
0100
0001
0000
0001
0010
0000
0010
0100
0000
0000
,
0110
0000
0000
0010
0001
0100
0010
0000
0010
1000
0000
1000
0010
0000
0010
0100
0000
0100
0001
0000
0001
1000
0000
0000
,
1100
0000
0100
1000
0000
0000
1010
0000
0010
0100
0000
0000
0101
0000
1010
0000
0000
1001
0000
0000
0001
0100
0000
0010
,
1000
0000
0000
0000
0000
0000
0000
0000
0000
0000
0000
0000
0001
0000
0000
0010
0000
0000
0100
0000
0000
1000
0000
0000
0001
0000
0000
0000
0000
0000
0000
0000
0000
0000
0000
0000
1000
0000
0000
0010
0000
0000
0100
0000
0000
0001
0000
0000
1000
0000
0000
0000
0000
0000
0000
0000
1100
0000
0000
0000
0000
0000
0000
0000
0000
0000
0000
0000
1000
0000
0000
0000
0001
0000
0000
0000
0000
0000
0000
0000
0000
0000
0000
0000
0001
0000
0000
0000
0010
0000
0000
0000
0100
0000
0000
0000
,
1000
0000
0011
1001
,
1100
0000
0000
0000
0000
0000
0000
0000
0000
0001
0000
0000
0010
0000
0100
0000
1000
0000
0001
0000
0010
0000
0100
0000
1000
0000
0000
0000
0000
0000
0000
0000
0000
0000
1010
0000
0000
0000
0000
0000
1000
0000
0010
0000
0000
0000
0101
0000
,
0000
0000
0000
1001
0000
0000
0011
0000
0000
0001
0100
0001
0010
0100
1000
0010
1000
0010
0100
0001
0010
0001
0010
0100
,
0000
0000
0000
1001
0000
0000
0000
0000
0000
0000
0000
0000
0000
0000
0000
0000
;
