#TITLE:残酷シャングリラ;
#SUBTITLE:;
#ARTIST:O★Z(結希アンジュ、ギルティア・ブリオン、イヴ・ルイーズ、ロビン・ラフィット);
#TITLETRANSLIT:Zankoku Shangrila;
#SUBTITLETRANSLIT:;
#ARTISTTRANSLIT:OZ;
#GENRE:ANIME;
#CREDIT:;
#BANNER:Zankoku Shangrila.png;
#BACKGROUND:Zankoku Shangrila-bg.png;
#LYRICSPATH:;
#CDTITLE:;
#MUSIC:Zankoku Shangrila.ogg;
#OFFSET:0.927000;
#SAMPLESTART:67.711998;
#SAMPLELENGTH:14.559000;
#SELECTABLE:YES;
#BPMS:0.000000=97.000000
,8.000000=100.000000
,23.000000=87.000000
,24.000000=88.000000
,25.500000=68.000000
,26.000000=80.000000
,27.500000=65.000000
,28.000000=87.000000
,29.000000=49.000000
,30.000000=47.000000
,30.500000=39.000000
,31.000000=32.000000
,31.500000=24.000000
,32.000000=136.000000
;
#STOPS:128.000000=1.765000
;
#BGCHANGES:1.875=Zankoku Shangrila.avi=1.000=0=0=0=====,
99999=-nosongbg-=1.000=0=0=0 // don't automatically add -songbackground-
;
#KEYSOUNDS:;
#ATTACKS:;

//---------------dance-single - ----------------
#NOTES:
     dance-single:
     :
     Hard:
     13:
     0.589716,0.568676,0.364236,0.495766,0.455295,408.000000,372.000000,36.000000,49.000000,0.000000,0.000000,0.589716,0.568676,0.364236,0.495766,0.455295,408.000000,372.000000,36.000000,49.000000,0.000000,0.000000:
0000
0000
0000
0000
0000
0000
0000
0000
0000
0000
0000
0000
0001
0100
0001
0100
,
0002
0000
0000
0000
0000
0000
1003
0000
0010
0000
0100
0001
0000
0000
1000
0000
,
0100
0000
0100
0010
0000
0000
0001
0000
2000
0000
0000
0000
3010
0100
0010
0100
,
0020
0000
0000
0000
0000
0000
1030
0000
0010
0000
0100
0001
0000
0000
0010
0000
,
0020
0000
0000
0000
0000
0000
0130
1000
0002
0000
0000
0000
0000
0000
0000
0000
,
0103
0000
0100
0010
0000
0000
1000
0000
0001
0000
0001
0010
0000
0000
0100
0000
,
1000
0000
0100
0001
0000
0000
0100
0000
2000
0000
0000
0000
0000
0000
3001
0100
,
0020
0000
0000
0000
0230
0000
0302
0000
2003
0000
3200
0000
0320
0000
0032
0003
,
1001
0000
1000
0000
0001
0000
0000
0000
1000
0000
0001
0100
0000
0001
0020
0000
,
0000
0000
0130
0000
1000
0000
0100
0000
0010
0000
0100
1000
0000
0001
1000
0000
,
0010
0000
0100
0000
0002
0000
0000
0000
0013
0000
0100
1000
0000
0100
0020
0000
,
0000
0000
0031
0000
1000
0000
0001
0000
0010
0000
0100
1000
0000
0001
1000
0000
,
0002
0000
0010
0000
2003
0000
0010
0000
3001
0000
0100
0010
0000
0100
0010
0000
,
2000
0000
0010
0000
3002
0000
0010
0000
1003
0100
1000
0100
1000
0100
1000
0100
,
1000
0000
0001
0100
0000
0010
1000
0000
0001
0000
0010
0000
0100
0000
0001
0000
,
0100
0000
1000
0000
0001
0000
0100
0010
0200
0000
0000
0000
0010
0000
0000
0000
,
0310
0000
1000
0100
0000
1000
0100
0000
0010
0000
0001
0100
0000
0001
0100
0000
,
0001
0000
0010
0000
0100
0000
0100
1000
0000
1000
0001
0000
1001
0000
0000
0000
,
0001
0000
0010
0100
0000
1000
0001
0000
2000
0000
0000
0000
3020
0000
0000
0000
,
0130
0000
0001
0000
1000
0000
0001
0010
0000
0100
1000
0000
1001
0000
0000
0000
,
0001
0000
1000
0100
0000
0100
1000
0000
1000
0000
0001
0100
0000
0100
0001
0000
,
0010
0000
0100
0000
1000
0000
0001
0000
0100
0010
0100
0010
0100
0010
0100
0010
,
2000
0000
0000
3002
0000
0000
0203
0000
2300
0000
0000
3200
0000
0000
0302
0000
,
0023
0030
0110
0000
0100
1000
0010
0100
,
1000
0000
0100
0000
0001
0000
0010
0100
0000
1000
0001
0000
1001
0000
0000
0000
,
0011
0000
0000
1100
0000
0000
0011
0000
0100
0000
0100
0000
1000
0000
0001
0100
,
0000
0100
0010
0000
1000
0000
0001
0000
1000
0000
0001
0000
0010
0000
0100
0000
,
1000
0000
1100
0000
0010
0001
1000
0100
,
0010
0000
0011
0000
0001
0100
0010
1000
,
1010
0000
0000
0110
0000
0000
0101
0000
0001
0000
1000
0000
0100
0000
0010
0000
,
0012
2003
3020
0230
,
1300
0000
0100
0001
0000
0001
1000
0000
0001
0000
0010
0100
0000
0100
0010
0000
,
0220
0000
0330
1001
,
1001
0000
0000
0011
0000
0000
1000
0000
0010
0000
0001
0000
1000
0000
0100
0000
,
0001
0000
1000
0100
0000
0010
0001
0000
1000
0100
1000
0000
0010
0000
1000
0000
,
1010
0000
0000
0101
0000
0000
0001
0000
0100
0000
1000
0000
0001
0000
0010
0000
,
1000
0000
0001
0100
0000
0010
1000
0000
0001
0100
0001
0000
1000
0010
1000
0000
,
1001
0000
0000
0110
0000
0000
1001
0000
0001
0000
0100
0000
1000
0000
0100
0000
,
0001
0000
0010
0100
0000
0100
0010
0000
1000
0000
0010
0001
0000
0000
1000
0000
,
1010
0000
0000
1100
0000
0000
0011
0000
0011
0000
0001
0000
0010
0000
0100
0000
,
0110
1001
0110
1001
,
1000
0000
0100
0020
0000
0000
1000
0000
0130
0000
1000
0020
0000
0000
0001
0000
,
0130
0000
0001
0020
0000
0000
1000
0000
0130
0000
1000
0020
0000
0000
0100
0000
,
0130
0001
0000
0100
0010
0000
0100
1000
0000
0000
2000
0000
3200
0000
0302
0000
,
2003
0000
3001
0010
0000
0000
0100
0000
1000
0000
0010
0000
0100
0000
0010
0000
,
0001
0000
0000
0011
0000
0000
0110
0000
0000
0000
1002
0000
2003
0000
3200
0000
,
0320
0000
0000
0100
0000
0000
0031
0000
0100
0000
0010
1000
0000
0001
0200
0000
,
0000
0000
0301
0000
0100
0000
1000
0000
0100
0000
0001
0010
0000
0100
1000
0000
,
0001
0000
1001
0000
1001
0000
0000
0000
0001
0010
0100
1000
0000
1000
0001
0000
;

//---------------dance-single - ----------------
#NOTES:
     dance-single:
     :
     Challenge:
     17:
     0.912036,0.914827,0.596942,0.323765,1.158473,631.000000,572.000000,59.000000,32.000000,0.000000,0.000000,0.912036,0.914827,0.596942,0.323765,1.158473,631.000000,572.000000,59.000000,32.000000,0.000000,0.000000:
// measure 0
0000
0000
0000
0000
0000
0000
0000
0000
0000
0000
0000
0000
1000
0100
0010
0100
,  // measure 1
2000
0000
3001
0100
0000
0010
1000
0100
0001
0000
0001
0100
0000
1000
0010
0100
,  // measure 2
0010
0000
1000
0100
0000
0010
0100
0000
0001
0100
1000
0010
0100
0001
1000
0001
,  // measure 3
0100
0000
0100
0010
0000
0010
1000
0000
0100
0000
0001
0100
0000
0100
1000
0001
,  // measure 4
0200
0000
0001
0000
0010
0000
1300
0100
0001
0000
1000
0100
0000
0010
0100
1000
,  // measure 5
0010
0000
0010
0100
0000
0100
0001
1000
0001
0000
0001
0010
0000
0010
0100
1000
,  // measure 6
0001
0000
0100
0010
0000
0010
1000
0001
0020
0000
0000
0000
0000
0000
0130
1000
,  // measure 7
0020
0000
0000
0000
0230
0000
0302
0000
0023
0000
0230
0000
2300
0000
0002
3003
,  // measure 8
1001
0000
2000
0000
0001
0010
3100
0000
1000
0000
0100
0010
0000
0001
0100
0000
,  // measure 9
0101
0000
0002
0000
1000
0010
0103
0000
0010
0000
0100
0001
0000
1000
0010
0000
,  // measure 10
1010
0000
2000
0000
0001
0010
3100
0000
0010
0000
0001
0010
0000
1000
0010
0000
,  // measure 11
0110
0000
0000
0000
0000
0000
0200
0000
0000
0000
0000
0000
1000
0000
0000
0010
0000
0000
0301
0000
0000
0000
0000
0000
0010
0000
1000
0000
0001
0000
0100
0000
0010
0000
1000
0000
0001
0000
0100
0000
0010
0000
1000
0000
0100
0000
0010
0000
,  // measure 12
0001
0000
0011
0000
1100
0010
0001
0000
0101
0000
0001
0100
1001
0010
0100
0000
,  // measure 13
1001
0000
0000
0000
0000
0000
1010
0000
0000
0000
0000
0000
0101
0000
0000
0010
0000
0000
1000
0000
0000
0000
0000
0000
1000
0000
0010
0000
0100
0000
0010
0000
1000
0000
0001
0000
0100
0000
0000
0010
0000
0000
0100
0000
0000
0010
0000
0000
,  // measure 14
0110
0000
1001
0000
1000
0010
0100
0000
0001
0000
0010
0100
0000
1000
0001
0000
,  // measure 15
0011
0000
1100
0000
0100
1000
0010
0000
0100
0000
0010
1000
0000
0001
0010
0100
,  // measure 16
0110
0000
0100
1000
0000
1000
0001
0000
0101
0000
0100
0010
1000
0010
0001
0000
,  // measure 17
0011
0000
0010
1000
0100
0000
0100
0010
0001
0010
0100
1000
0001
0010
0100
1000
,  // measure 18
1010
0000
0110
0000
0100
0001
0010
0000
0110
0000
0100
1000
0010
0100
0001
0000
,  // measure 19
1001
0000
0110
0000
1000
0010
0100
0000
0102
0000
0103
0001
0010
0100
1000
0000
,  // measure 20
1100
0000
1000
0100
0001
0100
1000
0000
1001
0000
0001
0100
1000
0100
0001
0000
,  // measure 21
1001
0000
1000
0100
0010
0001
1000
0000
0010
0100
0010
0100
0010
0100
0010
1000
,  // measure 22
0002
0000
0010
2003
0000
0010
3002
0000
0103
1000
0100
0010
0001
1000
0100
0001
,  // measure 23
0020
0000
0000
0000
0130
0000
0100
0010
0001
0000
0000
0011
0000
0000
0110
0000
,  // measure 24
1000
0000
0000
0000
0000
0000
0100
0000
0000
0010
0000
0000
0001
0000
0000
0000
0000
0000
0001
0000
0010
0000
0100
0000
1000
0000
0000
0000
0000
0000
0001
0000
0010
0000
0100
0000
1000
0000
0000
0000
0000
0000
0010
0000
0000
0000
0000
0000
,  // measure 25
0110
0000
0000
1100
0000
0000
1000
0010
0100
0000
0010
0100
1000
0100
0001
0000
,  // measure 26
0101
0000
0000
1010
0000
0000
1001
0000
1000
0010
0100
0001
1000
0010
0100
0001
,  // measure 27
1000
0000
1010
0000
0110
0000
0100
0001
0010
1000
0001
0100
1000
0000
0100
0000
,  // measure 28
0010
0000
0011
0000
1100
0000
0100
1000
0010
0001
1000
0100
0001
0000
1000
0000
,  // measure 29
1010
0001
1100
1000
0011
1000
0101
0010
,  // measure 30
1001
0000
0002
0100
2003
0100
3002
0010
,  // measure 31
0103
0000
0000
1000
0000
0000
0001
0000
0000
0010
0000
0000
0100
0000
0000
1000
0000
0000
0100
0000
0000
1000
0000
0000
0001
0000
0100
0000
0001
0000
0100
0000
0001
0000
1000
0000
0001
0000
1000
0000
0010
0000
0100
0000
0001
0000
0020
0000
,  // measure 32
0200
0000
0000
0000
0000
0330
1001
0000
,  // measure 33
0001
0100
0001
0100
0010
0100
0001
0010
0100
1000
0100
1000
0010
1000
0001
0010
,  // measure 34
0100
0010
0001
0010
1000
0001
0100
1000
0010
0100
0010
1000
0010
0001
1000
0100
,  // measure 35
0001
0000
1001
0000
1000
0100
1000
0001
0100
0001
1000
0010
0001
1000
0100
0001
,  // measure 36
0010
0000
0000
0100
0000
0000
1000
0000
0000
0001
0000
0000
0010
0000
0000
0100
0000
0000
1000
0000
0000
0010
0000
0000
0100
0000
0001
0000
0100
0000
0010
0000
0100
0000
1000
0000
0100
0000
0010
0000
0100
0000
0001
0000
0010
0000
0100
0000
,  // measure 37
1000
0000
1001
0000
1000
0100
1000
0010
0100
0001
1000
0100
0010
0001
1000
0010
,  // measure 38
0100
0010
1000
0010
0100
0010
1000
0001
0010
0100
0010
0001
0010
0100
0010
0001
,  // measure 39
1000
0000
0001
0100
0000
0100
1000
0000
1001
0000
0001
0010
0000
0010
1000
0000
,  // measure 40
0001
0000
0000
0010
0000
0000
0001
0000
0000
0010
0000
0000
0100
0000
0000
1000
0000
0000
0100
0000
0000
1000
0000
0000
0001
0000
0010
0000
0100
0000
1000
0000
0001
0000
0010
0000
0100
0000
0000
0000
0000
0000
1000
0000
0000
0100
0000
0000
,  // measure 41
0010
0000
0001
0010
0000
0000
1001
0000
0001
0000
1000
0010
0000
0000
0110
0000
,  // measure 42
0100
0000
0001
0010
0000
0000
0110
0000
0100
0000
1000
0010
0000
0000
1001
0000
,  // measure 43
1100
1000
0001
0101
0001
1000
1100
1000
0001
0000
2000
0000
3200
0000
0310
0001
,  // measure 44
1000
0000
0000
0000
0000
0000
0010
0000
0000
0000
0000
0000
0100
0000
0000
0010
0000
0000
1000
0000
0000
0000
0000
0000
0010
0000
1000
0000
0100
0000
0010
0000
0001
0000
0100
0000
0010
0000
1000
0000
0100
0000
0010
0000
0001
0000
0100
0000
,  // measure 45
0010
1001
0000
0010
1100
0000
0010
0101
0000
0000
2001
0000
3002
0000
0023
0000
,  // measure 46
0230
0000
0302
0000
0100
1000
0013
0000
0100
0000
1000
0100
0000
0100
0001
0000
,  // measure 47
0010
0000
2000
0000
0010
0001
3100
0000
1000
0000
0100
0000
0001
0010
0100
1000
,  // measure 48
0100
0000
0010
0000
0001
0000
1000
0000
0000
0000
0000
0000
1001
0000
0000
0000
0000
0000
1000
0000
0001
0000
0010
0000
0001
0000
0000
0100
0000
0000
1000
0000
0000
0100
0000
0000
0000
0000
0000
0100
0000
0000
0001
0000
0000
0000
0000
0000
;
