#TITLE:幽霊船戦;
#SUBTITLE:;
#ARTIST:宝鐘マリン;
#TITLETRANSLIT:Yurei Sensen;
#SUBTITLETRANSLIT:;
#ARTISTTRANSLIT:Houshou Marine;
#GENRE:POP;
#CREDIT:;
#MUSIC:Yurei Sensen.ogg;
#BANNER:Yurei Sensen.png;
#BACKGROUND:Yurei Sensen-bg.png;
#CDTITLE:;
#SAMPLESTART:83.840;
#SAMPLELENGTH:12.000;
#SELECTABLE:YES;
#OFFSET:1.473;
#BPMS:0.000=160.000
,220.000=80.000
,224.000=160.000
;
#STOPS:;
#LASTBEATHINT:1.206275;
#BGCHANGES:6.500=Yurei Sensen.avi=1.000=0=0=0=StretchNoLoop====,
99999.000=-nosongbg-=1.000=0=0=0=StretchNoLoop====
;
#FGCHANGES:;

//--------------- dance-single - ----------------
#NOTES:
     dance-single:
     :
     Medium:
     12:
     0.542483,0.625279,0.251678,0.207265,0.277587,513,479,34,28,0,0,0.542483,0.625279,0.251678,0.207265,0.277587,513,479,34,28,0,0:
0000
0000
0000
0000
,
0000
0000
0000
0000
,
0000
0000
0000
0000
,
0000
0000
0000
0000
,
0000
0000
0000
0000
,
0000
0000
0000
0000
,
0000
0000
0000
0000
,
0000
0000
0000
0000
,
0000
0000
0000
0000
,
0000
0000
0000
0000
,
0000
0000
0000
0000
,
0001
0010
0100
1000
0010
0000
1000
0001
,
1000
0010
0100
0001
1000
0000
0001
1000
,
0001
0010
0100
1000
0001
0000
1000
0010
,
0100
0000
0000
0100
0000
0000
0001
0000
1000
0000
0000
0000
1001
0000
0000
0000
,
0001
0000
0010
0000
0001
0000
0100
0010
0000
0000
1000
0000
0001
0000
1000
0000
,
0010
0000
1000
0000
0100
0000
1000
0010
0000
0000
1000
0000
0001
0000
1000
0000
,
0001
0000
0100
0000
0001
0000
0010
0100
0000
0000
1000
0000
0001
0000
1000
0000
,
0100
0000
0000
0100
0000
0000
1000
0000
0001
0000
0000
0000
0110
0000
0000
0000
,
1000
0000
0100
0000
0010
0000
0100
1000
0000
0000
1000
0000
0100
0000
0001
0000
,
0100
0000
1000
0000
0001
0000
0100
0010
0000
0000
1000
0000
0001
0000
0100
0000
,
1000
0000
0100
0000
0001
0000
0010
0100
0000
0000
1000
0000
0001
0000
0100
0000
,
0101
0000
0000
1010
0000
0000
1001
0000
1001
0000
0000
0000
0100
0000
0000
0000
,
0001
0000
0010
0100
1000
0000
0001
0100
,
0000
1000
0100
0001
0020
0000
0001
0000
,
0130
0000
1000
0001
1000
0000
0010
0100
,
0000
0100
0001
1000
0200
0000
0320
0000
,
0032
0000
1003
0000
0010
0100
0010
0000
,
2000
0000
3001
0020
0000
0130
2000
3002
,
0203
0302
2003
3010
0000
0100
0010
0000
,
1000
0100
0000
0000
0001
0100
0000
0000
,
0001
0000
1000
0100
1000
0000
0001
0100
,
0000
0100
0001
0200
1000
0000
0010
0000
,
0001
0000
0301
0010
1000
0000
0010
0100
,
0000
0100
1000
0020
0001
0000
0100
0000
,
1030
0000
1000
0001
0010
0000
0100
1000
,
0001
0000
0010
0100
0000
0100
1000
0001
,
0100
0010
1000
0001
0000
0010
0100
0000
,
1100
0011
0101
1001
,
0001
0100
0001
0100
0010
0000
0100
0001
,
1000
0100
1000
0100
1000
0000
0010
0000
,
0100
0001
1000
0001
1000
0000
0001
0010
,
0100
1000
0001
0010
0100
1000
0100
0010
,
0001
0000
1000
0000
0100
0000
0001
0000
0100
0000
0000
1000
0000
0000
0000
0000
,
1000
0000
0001
0000
0100
0000
1000
0000
0100
0000
0000
0001
0000
0000
0010
0000
,
0200
1000
2300
0010
,
3020
0100
0230
0001
,
0301
1000
0100
1000
0010
0000
0100
0001
,
1000
0001
0100
0001
1000
0000
0010
0000
,
0100
0001
0010
0100
1000
0000
0001
0100
,
1000
0100
0001
0010
1000
0010
0001
1000
,
0010
0100
0001
0200
0000
0001
0301
0000
,
0100
0001
0010
0200
0000
1000
2300
0000
,
3001
0100
0001
1000
0000
1000
0100
0010
,
0001
0000
0000
0011
0000
0000
1001
0000
1000
0000
0000
1100
0000
0000
1001
0000
,
0000
0000
0000
0000
,
0001
0000
0100
0000
0001
0000
0010
0100
0000
0000
1000
0000
0001
0000
1000
0000
,
0100
0000
1000
0000
0010
0000
0100
0010
0000
0000
1000
0000
0001
0000
0000
0000
,
1000
0000
0100
0000
0010
0000
0001
1000
0000
0000
0010
0000
0100
0000
0001
0000
,
0010
0000
0000
0010
0000
0000
0100
0000
1100
0000
0000
0000
1010
0000
0000
0000
,
0101
0000
0001
0000
1000
0010
0100
0001
,
2000
3002
0203
2300
,
3200
0000
0301
0010
1000
0000
1000
0010
,
0001
0000
0001
0100
1000
0000
0100
0000
,
0001
0000
0100
0000
1000
0000
0100
0010
0000
0000
0010
0000
1000
0000
0100
0000
,
0001
0000
0100
0000
1000
0000
0100
0010
0000
0000
0010
0000
0001
0000
1000
0000
,
0001
0000
0010
0000
1000
0000
0010
0100
0000
0000
0100
0000
1000
0000
0001
0000
,
0101
0000
0000
1001
0000
0000
1010
0000
0020
0000
0000
0000
0230
0000
0000
0000
,
0302
0000
1000
0000
1003
0100
0010
0001
,
0011
0101
1100
1010
,
1001
0000
0000
0001
1000
0000
0000
0000
,
0010
0000
0000
0100
0001
0000
0000
0000
,
0000
0000
0000
0000
0000
0000
0001
0100
0001
0100
0010
1000
,
0001
0000
0000
0001
0000
1000
0100
0000
0000
0010
0000
0000
,
0001
0000
1000
0000
0010
0000
0100
0000
0000
0001
0000
0000
,
1000
0000
0000
0010
0000
0100
0001
0000
0010
0000
0100
0000
,
1000
0000
0001
0000
1000
0000
0010
0000
0000
0100
0001
0100
,
0001
0000
0000
1000
0000
0000
0100
0000
0000
0010
0000
0100
,
1000
0000
0001
0100
0000
0010
0100
0000
0000
0101
0000
1000
,
0100
0000
0000
1100
0000
0001
0100
0000
0000
0110
0000
1000
,
0001
0000
0010
0000
0100
1000
0100
0000
0010
0000
0100
0000
,
0110
0000
0010
0001
0000
0001
1000
0000
0000
1010
0000
0010
,
0100
0000
0001
0000
1000
0100
1000
0000
0000
1100
0000
0000
,
0011
0000
0000
0001
0000
0010
0100
0000
1000
0000
0001
0000
,
0100
0010
0100
0010
1000
0000
0001
0000
0000
0010
0000
0100
,
1000
0000
0000
0001
0000
0100
0010
0000
0010
1000
0000
1000
,
0001
0000
0000
0011
0000
0010
0100
0000
0000
1001
0000
1000
,
0001
0000
1000
0010
0100
0010
0100
0000
0001
1000
0000
0001
,
0010
0000
0100
0000
0100
0000
1000
0001
1000
0001
1000
0001
;

//--------------- dance-single - ----------------
#NOTES:
     dance-single:
     :
     Hard:
     16:
     0.744461,0.855645,0.370115,0.340506,0.73653,704,654,50,46,0,0,0.744461,0.855645,0.370115,0.340506,0.73653,704,654,50,46,0,0:
0000
0000
0000
0000
,
0000
0000
0000
0000
,
0000
0000
0000
0000
,
0000
0000
0000
0000
,
0000
0000
0000
0000
,
0000
0000
0000
0000
,
0000
0000
0000
0000
,
0000
0000
0000
0000
,
0000
0000
0000
0000
,
1000
0100
0010
0001
1000
0001
0100
0010
,
0200
0302
0023
0230
,
1300
0000
0001
0000
0100
0000
0001
1000
0000
0000
0000
0000
0001
0000
1000
0000
,
0100
0000
0010
0000
0100
0000
1000
0001
0000
0000
0000
0000
1000
0000
0001
0000
,
0100
0000
0010
0000
0100
0000
0001
1000
0000
0000
0000
0000
1000
0000
0100
0000
,
0010
0000
0000
0010
0000
0000
0001
0000
1000
0000
0000
0000
0001
0000
0000
0000
,
0001
0000
1000
0100
0010
0000
0001
1000
0000
0000
0101
0000
0100
0000
0001
0000
,
1000
0000
0001
0100
0010
0000
1000
0001
0000
0000
1100
0000
0100
0000
1000
0000
,
0001
0000
1000
0010
0100
0000
0001
1000
0000
0000
0110
0000
0001
0000
1000
0000
,
1100
0000
0000
0110
0000
0000
1001
0000
0101
0000
0100
0000
0020
0000
0000
0000
,
1030
0000
0001
0010
0100
0000
1000
0001
0000
0000
1010
0000
0010
0000
1000
0000
,
0001
0000
1000
0010
0100
0000
0001
1000
0000
0000
0011
0000
0010
0000
0001
0000
,
1000
0000
0010
0100
0001
0000
1000
0100
0000
0000
1001
0000
0010
0000
0100
0000
,
0110
0000
0000
0110
0000
0000
0110
0000
1001
0000
0001
1000
0001
1000
0001
1000
,
0100
0010
0100
1000
0001
0100
1000
0200
,
0000
0301
0010
0100
1000
0011
0110
1100
,
1001
0000
0001
0000
1000
0000
0010
0000
0100
0000
0001
1000
0001
0000
0020
0000
,
0000
0000
0130
0000
1000
0000
0001
0100
0010
0000
0100
0001
0010
0000
0100
1000
,
0001
0000
1001
0000
1000
0001
0010
0100
,
2000
0000
3010
0200
0000
0301
2000
3020
,
0230
0000
0302
0000
2003
0000
3100
0000
1000
0100
1000
0000
0001
0100
0001
0100
,
0001
0000
1000
0000
0000
0000
0000
0000
0001
0000
1000
0100
1000
0100
1000
0100
,
1000
0001
0100
0010
1010
0000
0101
0001
,
1000
0000
0001
0010
0100
0000
0010
0100
1000
0000
0100
0000
0010
0000
0001
0000
,
1001
0000
0000
0000
0001
0000
0100
0000
1000
0000
0100
0001
1000
0000
0020
0000
,
0000
0000
0130
0001
0010
0000
0100
0000
1000
0000
0010
0000
0001
0000
0010
0000
,
0200
0000
0301
0020
0000
0130
1000
0001
,
2000
0000
0000
0000
3010
0000
0200
0000
0000
0000
0301
0000
1000
0010
0100
0010
,
1000
0000
0000
0000
0011
0000
0100
1000
0100
0000
0000
0100
0000
0000
0010
0000
,
0011
0000
0000
1001
0000
0000
1100
0000
0001
0000
0100
0010
0100
0010
0100
0010
,
0100
0001
0000
1000
0010
0000
0100
0002
0000
0000
0000
0000
0013
0000
0100
0000
,
1000
0000
0001
0000
1000
0000
0001
0020
0000
0000
0000
0000
0130
0000
0000
0000
,
1000
0100
1000
0100
0010
0000
0001
2000
0000
0000
0000
0000
3010
0000
0100
0000
,
0001
0000
0010
0000
1000
0000
0001
0000
0100
0010
0100
0000
1000
0000
0001
0000
,
2000
0000
3010
0200
0000
0000
0000
0000
,
0302
0000
0000
0023
0000
0000
0230
2300
,
3002
0203
0320
2030
0000
0000
0000
0000
,
0000
0000
0000
0000
0000
0000
0000
0000
3001
0010
0001
0010
0001
0010
0100
0000
,
1000
0001
1000
0000
0010
0000
0100
0002
0000
0000
0000
0000
0013
0000
0100
0000
,
1000
0001
0100
0000
0010
0000
0100
0001
0000
0000
0010
0000
0100
0000
1000
0000
,
0001
0000
0100
0000
1000
0000
0100
0020
0000
0000
0000
0000
1030
0000
0100
0000
,
0010
0000
0100
0000
0001
0000
0100
0000
0010
0000
0100
1000
0001
0000
0100
0000
,
0010
0100
0010
0000
1000
0000
0001
0010
0100
0010
0100
0000
1000
0000
0001
0000
,
0100
0010
0100
0000
1000
0000
0001
0010
0100
0000
0010
1000
0001
0000
0010
0000
,
0100
1000
0100
1000
0001
0100
0001
0100
1000
0000
0100
0010
0000
0100
0001
0000
,
0011
0000
0100
1000
0000
0100
1000
0000
1010
0000
0100
0001
0000
0100
0001
0000
,
0000
0000
0000
0000
0000
0000
0000
1001
,
1000
0000
0010
0100
0010
0000
0100
1000
0000
0100
0010
0000
1000
0000
1000
0000
,
0001
0000
0010
0100
0010
0000
0100
0001
0000
0100
0010
0000
0001
0000
0001
0000
,
1000
0000
0010
0100
0010
0000
1000
0001
0000
0010
0100
0000
1000
0000
0001
0000
,
0101
0000
0000
0110
0000
0000
1001
0000
2000
0000
0000
0000
3020
0000
0000
0000
,
0130
0000
0001
0010
0000
0010
0100
0000
1000
0001
1000
0000
0010
0100
0010
0000
,
0110
0100
0101
0001
1001
1000
1100
0100
,
0210
0000
0000
0000
1300
0000
0001
0100
0010
0000
1000
0000
0001
0000
0010
0000
,
0011
0000
1001
0000
1100
0000
1000
0001
1000
0001
1000
0001
,
0100
0000
0010
0100
1000
0000
0100
0010
0000
0100
0001
1000
0001
0000
0010
0000
,
0100
0000
0010
0100
0001
0000
0100
0010
0000
0100
1000
0001
1000
0000
0010
0100
,
0010
0000
1000
0000
0001
0000
0010
0100
0000
0010
0000
0100
1000
0000
0001
0100
,
0010
0000
0100
0001
0000
0001
1000
0000
0100
0000
0001
0000
0100
0000
1000
0010
,
0100
1000
0100
0001
0010
1000
0001
0100
,
2000
0010
3200
0010
0302
0010
0203
0010
,
2300
0000
0000
3001
0020
0000
0000
0000
,
0230
0000
0000
1300
0002
0000
0000
0000
,
0000
0000
0000
0003
0000
0000
1000
0100
1000
0001
0100
0001
,
1000
0000
0000
0001
0100
0001
0100
0000
0000
0110
0000
0010
,
1000
0000
1000
0100
0010
0001
1000
0000
1000
0010
0000
0010
,
0100
0000
0000
0001
0000
1000
0100
0000
1100
0000
0101
0000
,
1100
0000
1000
0010
0100
0001
0010
0000
0010
0100
1000
0010
,
0100
0000
0000
0101
0000
0001
0010
0000
0100
1000
0001
0100
,
0010
0000
0010
1000
0100
1000
0001
0000
0001
0010
0000
0010
,
0100
0000
1000
0010
0100
0010
0001
0000
0010
0100
0001
1000
,
0100
0000
0100
1000
0100
0020
0001
0000
0100
0000
0031
0000
,
1001
0000
0001
0100
1000
0100
0001
0000
1000
0100
0001
0100
,
1000
0000
0001
0010
0100
1000
0001
0000
0100
0010
0000
0000
,
0110
0000
1000
0010
0000
0100
0001
0000
0011
0000
0110
0000
,
1100
0000
1000
0100
0010
0001
1000
0000
1000
0010
0000
0010
,
0100
0000
0001
0010
1000
0010
0001
0000
1000
0010
0001
0010
,
1000
0000
0001
0100
1000
0100
0010
0000
0100
0001
0000
0100
,
1000
0000
0100
0001
0010
1000
0001
0100
1000
0001
1000
0001
,
0100
1000
0001
0010
1000
0100
0010
0001
1000
0001
1000
0001
;

//--------------- dance-single - ----------------
#NOTES:
     dance-single:
     :
     Challenge:
     18:
     0.942208,1.086011,0.318299,0.325702,1.31391,891,848,43,44,0,0,0.942208,1.086011,0.318299,0.325702,1.31391,891,848,43,44,0,0:
0000
0000
0000
0000
,
0000
0000
0000
0000
,
0000
0000
0000
0000
,
0000
0000
0000
0000
,
0000
0000
0000
0000
,
0000
0000
0000
0000
,
0000
0000
0000
0000
,
0000
0000
0000
0000
,
0000
0000
0000
0000
,
0001
0000
1000
0000
0100
0000
0010
0000
0001
1000
0001
0000
1000
0001
1000
0000
,
0010
0100
0010
0100
0002
0000
2003
0000
,
3001
0000
0010
0000
0100
0000
1000
0001
0000
0000
0000
0000
1000
0000
0001
0000
,
1000
0000
0100
0000
0010
0000
0001
1000
0000
0000
0000
0000
0001
0000
1000
0000
,
0001
0000
0100
0000
0010
0000
1000
0001
0000
0000
0000
0000
1000
0000
0010
0000
,
0100
0000
0000
0100
0000
0000
0001
0000
1000
0000
0000
0000
0001
0100
0001
0100
,
0001
0010
0100
1000
0010
0000
0100
0010
0000
0000
0110
0000
0100
0001
1000
0000
,
1000
0100
0010
0001
0100
0000
0010
0100
0000
0000
0110
0000
0010
1000
0001
0000
,
0001
0010
0100
1000
0010
0000
0100
0010
0000
0000
0110
0000
0100
0001
1000
0000
,
0100
0000
0010
0100
0000
0100
1000
0000
0001
0000
0100
0000
0020
0000
0000
0000
,
0130
0001
0010
0100
0001
0000
0100
0020
0000
0000
0130
0000
1000
0001
0010
0000
,
0100
1000
0010
0100
1000
0000
0100
0020
0000
0000
0130
0000
0001
1000
0100
0000
,
0010
0001
1000
0010
0001
0000
0010
0200
0000
0000
0301
0000
1000
0100
0010
0001
,
0011
0000
0000
1001
0000
0000
1100
0000
1000
0001
0100
1000
0100
0001
0010
1000
,
0010
0000
0001
0000
0100
0000
0010
1000
0001
0000
0010
0000
0100
0000
0110
0000
,
0000
0000
0010
0000
0001
0000
1000
0001
0200
0000
1000
0000
0010
0000
0001
0000
,
0310
0000
0100
0000
0010
0000
1000
0001
0010
0000
0100
1000
0001
0000
0021
0000
,
0000
0000
0130
1000
0020
0000
0130
0001
0020
0000
0130
1000
0020
0000
0130
0000
,
0120
0000
1030
0000
0001
0000
1000
0100
0000
1000
0001
0000
0100
0000
0010
0000
,
0200
0001
0010
0302
1000
0100
2003
3020
,
0230
0000
0302
0000
2003
0000
3100
0000
0010
0001
0010
0000
0100
0010
0100
1000
,
0001
0000
0101
0000
0000
0000
0000
0000
1100
0000
0100
1000
0100
1000
0100
1000
,
0001
0000
0100
0000
1000
0000
0100
0010
0100
0000
0001
1000
0100
1000
0100
0000
,
0001
0000
0100
1000
0001
0000
0100
0010
0100
0000
0010
1000
0001
0010
0001
0010
,
0100
0000
1000
0001
0100
0000
1000
0000
0100
0000
0001
0010
0100
1000
0020
0000
,
0100
0000
0130
0001
1000
0000
0100
0000
0010
0000
0100
1000
0100
0000
1000
0001
,
2000
0000
0010
0000
0100
0000
0001
0000
3020
0000
0100
0000
1000
0000
0130
0001
,
2000
0000
0000
0000
0000
0000
0001
0000
0000
0000
0000
0000
0010
0000
0000
0000
0000
0000
3200
0000
0000
0000
0000
0000
0010
0000
0000
0000
0000
0000
1300
0000
0000
0001
0000
0000
0010
0000
0000
0100
0000
0000
1000
0000
0001
0000
1000
0000
,
0001
0000
0000
0000
0101
0000
0010
1000
0010
0000
0100
0000
0001
0000
0010
0000
,
1100
0000
0010
0001
0010
0100
1000
0000
0001
0100
0010
0100
0010
1000
0100
0010
,
0100
0010
0001
1000
0100
0000
1000
0020
0000
0000
0000
0000
0130
0000
0001
0000
,
0010
0000
0100
0000
1000
0000
0001
0200
0000
0000
0000
0000
0310
0000
1000
0000
,
0001
0100
0001
0100
0001
0000
1000
0200
0000
0000
0000
0000
0310
0000
0001
0000
,
1000
0000
0010
0000
0100
0000
0010
0000
1000
0001
1000
0000
0100
0000
0010
0000
,
2001
0000
3001
0000
2100
3000
2100
0000
0001
0000
0000
0010
0000
0000
3000
0000
,
0201
0000
0001
0000
0310
0000
0210
0000
0001
0000
0300
0001
0200
0300
0210
0300
,
2010
3000
2000
3000
2000
3000
2000
0000
0010
0000
0000
0000
0000
0000
0000
0000
,
0001
0000
0000
0000
0000
0000
0000
0000
3001
0010
0100
0010
0001
0010
0100
0000
,
1000
0001
1000
0000
0100
0000
1000
0010
0000
0000
0100
0000
0001
1000
0001
0100
,
0010
1000
0100
0000
0010
0000
0100
1000
0000
0000
0001
1000
0001
1000
0010
0100
,
0001
0000
1000
0000
0001
0000
0010
0100
0000
0000
1000
0000
0002
0000
0023
0000
,
0230
0000
2300
0000
3002
0000
2003
0000
3010
0100
0001
0100
0001
0010
0100
1000
,
0100
0010
0100
1000
0010
0100
0010
0100
0001
0100
0001
1000
0001
0010
0100
1000
,
0001
0100
0010
0100
0010
1000
0010
1000
0010
0100
0001
0010
0100
1000
0100
0010
,
0100
1000
0010
0100
0010
0001
0010
0100
0010
1000
0001
0010
0100
0010
1000
0010
,
0100
0000
1000
0001
0000
1000
0001
0000
1001
0000
0100
0010
0000
0100
0010
0000
,
0000
0000
0000
0000
0000
0000
0000
0000
0000
0000
0000
0000
0000
0000
0000
0000
0000
0000
0000
0000
0000
0000
0000
0000
0000
0000
0000
0000
0001
0100
0001
0100
,
0001
0010
0100
1000
0001
0000
0100
0010
0000
0100
1000
0000
0100
0000
0001
0000
,
1000
0100
0010
0001
1000
0001
0010
0100
0000
0001
0100
0000
0010
0100
1000
0010
,
0100
0010
0001
0010
0100
0001
0010
1000
0000
0010
0100
0000
1000
0010
0100
0001
,
1000
0000
0100
0010
0000
0001
0100
0000
0010
0000
0001
0010
0000
0100
0010
0000
,
1000
0100
0010
1000
0010
0100
1000
0001
0100
0010
0001
0010
0100
0001
0010
0100
,
1000
0000
0001
0100
0010
0000
0001
0010
1000
0000
0010
1000
0100
0000
1000
0100
,
0001
0000
0100
0000
1000
0000
0001
0100
0010
0000
0100
0000
0001
0010
0100
1000
,
1100
0000
0101
0000
1100
0000
1000
0001
0101
1000
0001
1100
,
1000
0010
0100
0010
1000
0001
0100
0010
0100
0001
0010
0100
1000
0001
0010
1000
,
0010
0001
0010
0100
0010
0001
1000
0100
0010
0100
1000
0001
0010
1000
0010
0001
,
1000
0010
0100
0010
0001
0010
0100
0001
0010
0100
0010
1000
0010
0001
0010
0100
,
1000
0001
0100
1000
0100
0010
0001
1000
0100
0010
1000
0100
0001
0100
0010
1000
,
0001
0000
0000
0100
0000
0000
0010
0000
0000
0100
0000
0000
0010
0000
0000
0001
0000
0000
1000
0000
0000
0010
0000
0000
0110
0000
0000
0000
0000
0000
0110
0000
0000
0000
0000
0000
0100
0000
0000
0000
0000
0000
0001
0000
1000
0000
0001
0000
,
1000
0000
0001
0100
0101
0000
1000
0100
1100
0000
0001
0100
0110
0000
1000
0100
,
0110
0000
0000
0000
0000
0000
0001
0010
0100
0000
0000
0000
0000
0000
0000
0000
,
1000
0000
0000
0000
0001
0100
0001
1000
0100
1000
0000
0000
,
0000
0000
0000
0000
0000
0000
0000
0000
0000
0001
0100
0001
0100
0000
0010
0000
1000
0000
0100
0000
0010
0000
0001
0000
,
1000
0000
0000
0000
0001
1000
0001
0000
0010
0000
0100
0000
1000
0000
0000
0000
1000
0001
1000
0000
0100
0000
0010
0000
,
0001
0000
0000
0000
0001
1000
0001
0000
0010
0000
0100
0000
1000
0000
0000
1100
0000
0000
1001
0000
0000
0101
0000
0000
,
1001
0000
0000
0000
0001
0100
0001
0000
0010
0000
0100
0000
1000
0000
0000
0000
1000
0100
1000
0000
0010
0000
0100
0000
,
0001
0000
0000
0000
0001
0010
0001
0000
0100
0000
0010
0000
1000
0000
0000
1010
0000
0000
0101
0000
0000
1010
0000
0000
,
0110
0000
0000
0000
0100
0010
0100
0000
0001
0000
1000
0000
0001
0000
0000
0000
0010
0100
0010
0000
0001
0000
1000
0000
,
0001
0000
0000
0000
0100
0010
0100
0000
0001
0000
1000
0000
0001
0000
0000
0011
0000
0000
0110
0000
0000
1100
0000
0000
,
1001
0000
0000
0000
0001
0100
0001
0000
0010
0000
0100
0000
1000
0000
0000
0000
1000
0100
1000
0000
0010
0000
0100
0000
,
0001
0000
1000
0000
0001
0000
1000
0100
0010
0001
1000
0100
0010
0000
0000
0000
0110
0000
0000
0000
1100
0000
0000
0000
,
0101
0000
0000
0000
0100
0010
0100
0000
0001
0000
1000
0000
1100
0000
0100
0000
1000
0001
1000
0000
0010
0000
0100
0000
,
0110
0000
0010
0000
1000
0001
1000
0000
0100
0000
0010
0000
0110
0000
0100
0000
1000
0000
1001
0000
0000
0000
0000
0000
,
1001
0000
0000
0000
0001
0100
0001
0000
1000
0000
0010
0000
0110
0000
0100
0000
0001
1000
0001
0000
1000
0000
0100
0000
,
1100
0000
1000
0000
0001
0100
0001
0000
0100
0000
0010
0000
1010
0000
1000
0000
0001
0100
0001
0000
1000
0000
0010
0000
,
0110
0000
0000
0000
0100
0001
1000
0000
0010
0000
0100
0000
0001
0000
0010
0000
0100
1000
0001
0000
0100
0000
1000
0000
,
0100
0000
0001
0000
0010
0100
1000
0000
0001
0000
0010
0000
1000
0000
0010
0000
0100
1000
0010
0000
0100
0000
0010
0000
,
1001
0010
0100
0001
1000
0100
1001
0010
0100
0001
1000
0010
,
1001
0000
0001
0000
1000
0000
0001
0010
0100
1000
0001
0010
0100
0000
0010
0000
0100
0000
0010
0000
0100
0000
0010
0000
;
