#TITLE:夢であるように feat.緑川 光 (sasakure.UK Arrange ver.);
#SUBTITLE:;
#ARTIST:DEEN / Arranged by sasakure.UK;
#TITLETRANSLIT:Yume de Aru Youni (sasakure.UK Arrange ver.);
#SUBTITLETRANSLIT:;
#ARTISTTRANSLIT:DEEN / Arranged by sasakure.UK;
#GENRE:POP;
#CREDIT:;
#MUSIC:Yume de Aru Youni (sasakure.UK Arrange ver.).ogg;
#BANNER:Yume de Aru Youni (sasakure.UK Arrange ver.).png;
#BACKGROUND:Yume de Aru Youni (sasakure.UK Arrange ver.)-bg.png;
#CDTITLE:;
#SAMPLESTART:59.537;
#SAMPLELENGTH:16.154;
#SELECTABLE:YES;
#OFFSET:0.001;
#BPMS:0.000=130.000;
#STOPS:;
#BGCHANGES:44.000=Yume de Aru Youni (sasakure.UK Arrange ver.).avi=1.000=0=0=0=StretchNoLoop====,
99999.000=-nosongbg-=1.000=0=0=0=StretchNoLoop====
;
#FGCHANGES:;

//--------------- dance-single - ----------------
#NOTES:
     dance-single:
     :
     Medium:
     11:
     0,0,0,0,0:
0000
0000
0000
0000
,
1000
0000
0001
0100
0000
1000
0100
0000
,
0010
0100
0000
0001
1000
0000
0100
0010
,
0001
0000
1000
0100
0000
0001
0100
0000
,
0010
0100
0000
1000
0001
0000
0001
0100
,
0010
1000
0000
0001
0010
0000
0100
1000
,
0001
0000
0100
0010
0000
1000
0001
0010
,
0100
1000
0000
0001
0100
0000
0010
1000
,
0001
0000
0010
0100
0000
1000
0100
0010
,
0001
1000
0000
0010
0100
0000
0010
1000
,
0001
0010
0000
0100
1000
0000
0001
0100
,
0010
1000
0000
0001
1000
0000
0001
0010
,
0100
0010
0000
0001
1000
0000
0001
1000
,
0010
0100
0000
0010
1000
0000
0001
0100
,
0001
0010
0000
0100
1000
0000
0001
1000
,
0010
0100
0000
0001
1000
0000
0001
0010
,
0100
1000
0000
0001
0100
0000
0010
1000
,
1001
0000
0001
0000
0010
0100
0010
0000
,
0110
0000
0010
0000
0001
0100
0001
0000
,
1010
0000
1000
0000
0100
0010
0001
0000
,
0101
1010
1100
0011
,
0001
0100
0000
0100
1000
0000
1000
0100
,
0001
0010
0000
0010
1000
0000
1000
0010
,
0001
0100
0000
0100
0010
0000
0010
1000
,
0100
0010
0000
0010
0001
0000
0100
0000
,
1010
1010
1100
1100
,
0011
0000
0101
0000
2002
0000
0000
3003
,
0011
0011
0101
0101
,
1010
0000
0000
1100
0000
0000
1000
0000
0010
0000
0100
0000
,
0001
0000
0001
0000
0010
0000
0100
0000
0100
0000
1000
0000
,
0010
0000
0010
0000
0100
0000
0001
0000
0001
0000
0010
0000
,
0100
1000
0100
1000
0001
0100
0001
0100
,
0110
0000
0020
0000
2030
0000
3001
0010
,
0100
0000
0100
0000
1000
0100
1000
0001
,
0100
0001
0010
0100
1100
0000
0010
0000
,
1001
0000
1000
0000
0001
0100
0001
1000
,
0100
1000
0010
0100
0101
0000
0010
0000
,
0110
0000
0100
0000
0001
0010
0100
1000
,
0100
0010
0001
0010
0110
0000
1000
0000
,
1001
0000
0001
0000
1000
0010
0100
0001
,
0100
0010
1000
0010
0200
0000
0301
0000
,
0001
0000
0010
0000
1000
0000
0010
0000
0001
0000
0000
1000
0000
1010
0000
0000
,
1000
0000
0001
0000
0010
0000
1000
0000
0010
0000
0000
0001
0000
0101
0000
0000
,
0100
0000
0001
0000
0010
0000
0100
0000
1000
0000
0000
0010
0000
0110
0000
0000
,
1001
0001
0100
0001
1100
0100
1001
0000
,
1000
1000
0001
0001
0010
0100
1000
0000
,
0001
0001
1000
1000
0001
0100
0010
0000
,
1010
0101
0011
1100
,
0110
0000
1000
0001
1000
0001
0100
0000
,
0010
0000
0000
1000
0000
0000
0001
0000
0000
0000
0001
0000
0010
0000
0000
0100
,
0000
1000
0000
1000
0100
0001
1000
0010
,
0001
0000
0000
1000
0000
0000
0001
0000
0000
0000
0100
0000
0010
0000
0000
1000
,
0000
0100
0001
0100
1000
0010
0001
1000
,
0200
0000
0301
0020
0000
0130
2000
0000
,
3001
0200
0000
1300
0002
0000
0013
2000
,
0000
3000
2002
0000
0000
0000
0000
0000
,
0000
3003
0000
0000
;

//--------------- dance-single - ----------------
#NOTES:
     dance-single:
     :
     Hard:
     15:
     0,0,0,0,0:
0000
0000
0000
0000
,
0001
0100
0010
1000
0100
0010
0001
0100
,
1000
0001
0010
1000
0001
0010
0100
1000
,
1000
0100
0010
0001
0100
0010
1000
0100
,
0001
1000
0010
0001
1000
0100
0010
0001
,
1000
0100
0010
0001
0000
1000
0010
0100
0001
0000
0010
0000
1000
0000
0010
0000
,
0001
1000
0010
0001
1000
0100
0001
0010
,
0100
1000
0001
1000
0000
0010
0100
0001
1000
0000
0010
0000
0100
0000
0001
0000
,
0010
0100
1000
0010
0100
0001
1000
0100
,
0010
0001
1000
0010
0000
0100
0001
1000
0100
0000
0010
0000
0001
0000
1000
0000
,
0001
0100
0010
1000
0000
0001
0010
0100
1000
0000
0001
0000
0100
0000
0010
0000
,
1000
0100
0010
0100
0000
1000
0010
0100
0010
0000
0001
0000
1000
0000
0100
0000
,
0001
0010
0100
0010
0000
0001
0100
0010
0100
0000
1000
0000
0100
0000
0001
0000
,
0010
0100
1000
0001
0000
0100
0010
1000
0001
0000
0010
0000
0100
0000
1000
0000
,
0100
0010
0001
1000
0000
0010
0100
0001
1000
0000
0100
0000
0010
0000
0001
0000
,
0010
0100
1000
0010
0000
0100
0001
0010
0100
0000
1000
0000
0100
0000
0010
0000
,
0100
1000
0010
0100
0000
0010
0100
0001
0010
0000
0100
0000
1000
0000
0001
0000
,
1001
1000
0010
0100
0001
0001
0010
0010
,
0110
0100
1000
0100
0010
0010
0001
0001
,
0101
0100
0010
1000
0001
0001
1000
1000
,
1100
0100
0010
0001
0101
0100
0010
1000
,
0001
0010
0100
1000
0000
0001
0100
0010
1000
0000
0001
0000
0010
0000
0100
0000
,
1000
0100
0010
0001
0000
1000
0010
0100
0001
0000
1000
0000
0100
0000
0010
0000
,
0001
0100
1000
0100
0000
0001
0010
1000
0010
0000
0001
0000
0010
0000
0100
0000
,
1000
0100
0001
0100
0000
1000
0010
0001
0010
0000
1000
0000
0100
0000
0010
0000
,
0011
0001
1001
0001
1100
1000
1001
1000
,
0011
0000
0000
0001
0000
0000
1001
0000
0000
0001
0000
0000
0001
1000
0100
1000
0001
1000
0100
1000
0001
1000
0100
1000
,
0001
0100
0101
0100
0110
0010
1010
0010
,
0110
0000
0000
0000
0000
0000
0100
0000
0000
0000
0000
0000
1001
0000
0000
0000
0000
0000
0010
0000
0000
0100
0000
0000
0010
0000
0000
0000
0000
0000
0000
0000
1010
0000
0000
0000
0000
0000
0000
0000
0101
0000
0000
0000
0000
0000
0000
0000
,
0011
0000
1001
0000
1100
0000
1010
0000
1001
0000
0101
0000
,
0110
0000
0101
0000
0011
0000
1001
0000
1100
0000
1010
0000
,
0110
0010
1010
1000
1100
0100
0101
0001
,
2001
0000
0000
0000
0000
0000
0000
0000
0000
0000
0000
0000
3001
0000
0000
0010
0000
0000
0100
0000
0000
1000
0000
0000
0001
0000
0000
0010
0000
0000
0100
0000
0000
1000
0000
0000
0001
0000
0010
0000
0001
0000
0010
0000
0100
0000
1000
0000
,
0001
0000
0100
0000
1000
0000
0100
0000
1000
0100
0010
1000
0100
0010
1000
0010
,
0001
1000
0010
0001
0010
0100
0001
0010
0100
0000
1000
0000
0001
0000
1000
0000
,
1001
0000
0001
0000
0010
0000
0100
0000
0001
0100
0010
0001
0100
0010
0001
0010
,
1000
0001
0010
1000
0010
0100
1000
0010
0100
0000
0001
0000
1000
0000
0001
0000
,
1001
0000
1000
0000
0100
0000
0010
0000
1000
0010
0100
1000
0010
0100
1000
0100
,
0001
1000
0100
0001
0100
0010
0001
0100
0010
0000
1000
0000
0001
0000
1000
0000
,
1001
0000
0001
0000
0100
0000
0010
0000
0001
0010
0100
0001
0010
0100
0001
0100
,
1000
0001
0100
1000
0100
0010
1000
0100
0020
0000
0000
0000
0130
0000
0000
0000
,
0110
0000
0010
0001
1000
0000
1010
0000
0101
0000
0001
0100
0000
1010
0000
0000
,
1001
0000
1000
0100
0010
0000
0100
0000
0110
0000
0010
0001
0000
0101
0000
0000
,
0110
0000
0100
0001
1000
0000
0011
0000
1100
0000
1000
0100
0010
0001
0000
0000
,
1001
0000
0001
0100
1000
0100
0010
1000
0010
0001
0010
1000
0100
0010
0000
0000
,
0110
0000
0100
0010
0001
0000
0001
0100
0000
0110
0000
0010
1000
0000
0001
0000
,
0011
0000
0010
0100
1000
0000
0100
0010
0001
0000
0010
0100
1000
0001
0000
0001
,
0100
0000
0100
0010
1000
0000
1000
0100
0010
0000
0010
0001
0100
1000
0000
0000
,
0110
0000
0010
1000
0100
0000
0010
0001
0100
0000
0010
1000
0100
0010
0000
0010
,
0001
0000
1000
0010
0000
0000
0101
0000
1010
0000
0100
0001
1000
0000
0100
0010
,
0000
0000
1100
0000
0001
0000
1000
0010
0100
1000
0100
0010
1000
0100
0010
1000
,
0010
0000
0010
0001
0000
0000
0101
0000
1010
0000
0010
1000
0100
0000
0010
0001
,
0000
0000
1001
0000
1000
0100
0010
0001
0010
0100
1000
0001
0010
0100
1000
0001
,
0020
0000
0130
2100
0000
3001
0102
0000
,
0013
0210
0000
1300
1020
0000
0130
0102
,
0000
1003
2002
0000
0000
0000
0000
0000
,
0000
3003
0000
0000
;

//--------------- dance-single - ----------------
#NOTES:
     dance-single:
     :
     Challenge:
     16:
     0.856438,0.873497,0.705856,0.564685,0.823498,637,562,75,60,0,0,0.856438,0.873497,0.705856,0.564685,0.823498,637,562,75,60,0,0:
0000
0000
0000
0000
,
1100
0010
0001
1010
0100
0001
0011
0100
,
1000
0101
0010
1000
1100
0100
0010
0001
,
0101
0010
1000
0011
0100
1000
1010
0100
,
0001
1100
0010
0001
0101
0100
0010
1000
,
0001
0010
0100
1000
0000
0010
0001
0010
0100
0000
0001
0000
0011
0000
0100
0000
,
1000
0101
0010
1000
1100
0100
0010
0001
,
1000
0100
0010
0001
0000
0100
1000
0100
0010
0000
1000
0000
1100
0000
0010
0000
,
0001
1010
0100
0001
0011
0010
0100
1000
,
0010
0100
0001
0010
0000
0100
1000
0010
0100
0000
0001
0000
0101
0000
0001
0000
,
0010
0100
1000
0010
0000
0100
0001
0010
0100
0000
1000
0000
1100
0000
1000
0000
,
0010
0001
0010
0100
0000
1000
0100
0010
1000
0000
0001
0000
0011
0000
0001
0000
,
0100
1000
0100
0010
0000
0001
0010
0100
0010
0000
1000
0000
1010
0000
1000
0000
,
0001
0010
0100
0010
0000
0100
1000
0010
0001
0000
0010
0000
0110
0000
0010
0000
,
1000
0100
0010
0100
0000
0010
0001
0100
1000
0000
0100
0000
0110
0000
0100
0000
,
0001
0010
0100
1000
0000
0001
0100
0010
1000
0000
0001
0000
1001
0000
0001
0000
,
1000
0100
0010
0001
0000
1000
0010
0100
0001
0000
1000
0000
1100
0000
0001
0000
,
0011
0000
0010
0001
1000
0000
0010
0000
0100
0000
0100
0001
0010
0000
0100
0000
,
1100
0000
1000
0100
0010
0000
0100
0000
1000
0000
1000
0010
0100
0000
0001
0000
,
0101
0000
0100
0001
1000
0000
0100
0000
0010
0000
0010
0001
1000
0000
0010
0000
,
0110
0000
0100
0001
1000
0000
0100
0000
0110
0000
0010
0001
1000
0000
0010
0000
,
0100
0001
0010
0100
0000
0100
1000
0010
0001
0000
0010
0000
1000
0000
0100
0000
,
0010
0001
0100
0010
0000
0010
1000
0100
0001
0000
0100
0000
1000
0000
0001
0000
,
1000
0010
0100
0001
0000
0001
0010
0100
1000
0000
0010
0000
0110
0000
0100
0000
,
0001
0010
0100
1000
0000
1000
0010
0100
0001
0000
1000
0000
1100
0000
1000
0000
,
1001
0000
0001
0100
0010
0000
0110
0000
1010
0000
1000
0100
0010
0000
0110
0000
,
0011
0000
0000
0000
0000
0000
0001
0000
0000
0010
0000
0000
0100
0000
0000
0000
0000
0000
1100
0000
0000
0000
0000
0000
1000
0000
0001
0000
0100
0000
0001
0000
1000
0000
0001
0000
0100
0000
0001
0000
1000
0000
0001
0000
0100
0000
0001
0000
,
1000
0000
0001
0010
0100
0000
0110
0000
0011
0000
0001
0100
1000
0000
1100
0000
,
0101
0000
0000
0000
0000
0000
0000
0000
0000
0000
0000
0000
0001
0000
0000
0000
0000
0000
0010
0000
0000
0000
0000
0000
0100
0000
0000
0000
0000
0000
0000
0000
0000
0000
0000
0000
0010
0000
0000
0100
0000
0000
0010
0000
0000
0100
0000
0000
0010
0000
0000
0000
0000
0000
0000
0000
0000
0000
0000
0000
0000
0000
0000
0000
0011
0000
0000
0000
0000
0000
0000
0000
0000
0000
0000
0000
0000
0000
0000
0000
0101
0000
0000
0000
0000
0000
0000
0000
0000
0000
0000
0000
0000
0000
0000
0000
,
1010
0100
0001
1000
0001
0010
1100
0001
0100
0001
1000
0010
,
0101
1000
0001
0010
0100
1000
0011
0100
1000
0010
0100
0001
,
0110
1010
1100
0101
0011
1010
1100
0110
,
2001
0000
0000
0000
0000
0000
3001
0010
0100
1000
0001
0010
0100
1000
0001
0010
0100
1000
0010
0100
0010
0100
0010
0100
,
0010
0000
1000
0000
0010
0000
0100
0000
0002
0100
1003
0002
0100
1003
0002
0010
,
0103
2000
0100
3001
2000
0100
3001
2000
3100
0000
0010
0000
0100
0000
0010
0000
,
1001
0000
0001
0000
0010
0000
0100
0000
2000
0100
3001
2000
0100
3001
1000
0010
,
0100
0002
0100
1003
0002
0100
1003
0010
0110
0000
0010
0000
0100
0000
0010
0000
,
1001
0000
1000
0000
0010
0000
0100
0000
0002
0010
1003
0002
0010
1003
0001
0010
,
0100
2000
0010
3001
2000
0010
3001
0100
0110
0000
0100
0000
0010
0000
0100
0000
,
1001
0000
0001
0000
0010
0000
0100
0000
2000
0010
3001
2000
0010
3001
1000
0100
,
0010
0002
0010
1003
0002
0010
1003
0100
0110
0000
0001
0000
0100
0000
0010
0000
,
0110
0000
0100
0001
1000
0000
1100
0000
1010
0000
0010
0101
0000
0101
0010
0000
,
0011
0000
0001
0100
0010
0000
0101
0000
0011
0000
0010
1100
0000
1100
0010
0000
,
1010
0000
1000
0010
0100
0000
0101
0000
1010
0000
1000
0100
0010
0011
0000
0000
,
1001
0000
0001
0100
0010
0100
1000
0100
0001
0010
0100
0010
1000
0010
0001
0000
,
1001
0000
0001
0100
1000
0000
1000
0100
0000
0101
0000
0001
0010
0000
0110
0000
,
1100
0000
1000
0100
0001
0000
0001
0100
1000
0000
1000
0010
0100
0110
0000
0010
,
1000
0000
1000
0100
0010
0000
0010
0100
1000
0000
1000
0010
0100
0001
0000
0000
,
1001
0000
0001
0100
0010
0000
0010
0100
0001
0000
0001
0010
0100
1000
0000
1010
,
0100
0000
0110
0001
0000
0000
0011
0000
0110
0000
0000
0011
0100
0000
0110
1000
,
0000
0000
1001
0000
0010
0000
2000
0100
3001
2000
0100
3001
2000
0100
3001
0010
,
0100
0000
1010
0100
0000
0000
0110
0000
1001
0000
0000
0101
0010
0000
1100
0010
,
0000
0000
1001
0000
1000
0100
0010
0001
0010
0100
1000
0001
0010
0100
1000
0001
,
0020
0100
0130
2100
0010
3010
0102
1000
,
1003
0210
0001
0301
1020
0100
0130
0102
,
0010
0013
2002
0000
0000
0000
0000
0000
,
0000
3003
0000
0000
;
