#TITLE:湯けむりユートピア;
#SUBTITLE:;
#ARTIST:ギンギツネとキタキツネ;
#TITLETRANSLIT:Yukemuri Utopia;
#SUBTITLETRANSLIT:;
#ARTISTTRANSLIT:Silver Fox and Ezo Red Fox's;
#GENRE:ANIME;
#CREDIT:;
#MUSIC:Yukemuri Utopia.ogg;
#BANNER:Yukemuri Utopia.png;
#BACKGROUND:Yukemuri Utopia-bg.png;
#CDTITLE:;
#SAMPLESTART:49.052;
#SAMPLELENGTH:13.810;
#SELECTABLE:YES;
#OFFSET:1.880;
#BPMS:0.000=126.000
,56.000=63.000
,64.000=126.000
,160.000=63.000
,176.000=126.000
;
#STOPS:;
#BGCHANGES:;
#FGCHANGES:;

//--------------- dance-single - ----------------
#NOTES:
     dance-single:
     :
     Medium:
     11:
     0,0,0,0,0:
0000
0000
0000
0000
,
0000
0000
0000
0000
,
0001
0010
0100
1000
0001
0100
0010
0000
,
0010
1000
0001
0010
0200
0000
1300
0000
,
0011
0100
1010
0100
,
2001
0000
0010
0000
0010
0000
0000
3001
,
0010
0000
0100
0000
1000
0000
0100
0000
0020
0000
0000
0001
0000
0000
0130
0000
,
1000
0000
0001
0000
1000
0000
0001
0000
0200
0000
0000
0010
0000
0000
0301
0000
,
0001
0000
1000
0000
0001
0000
0100
0000
0002
0000
0000
1000
0000
0000
0103
0000
,
0001
0010
0100
1000
0001
1000
0100
0010
,
0002
0000
0000
0000
0000
0000
0103
0000
0010
0000
0000
1000
0000
0000
0001
0000
,
0020
0000
0000
0000
0000
0000
0130
0000
1000
0000
0000
0001
0000
0000
0010
0000
,
0002
0000
0000
0000
0000
0000
1003
0000
0010
0000
0000
0100
0000
0000
0001
0000
,
0010
1000
0010
1000
0001
0100
0001
0100
,
2000
0000
3001
0000
0100
0000
0010
1000
0010
0000
0100
0000
0001
0000
1000
0100
,
1000
0000
0000
0000
0001
0000
0010
0000
0100
0000
0000
0000
1000
0000
0001
0000
0100
0000
0000
0010
0000
0000
1000
0000
0001
0000
0000
0000
0010
0000
0000
0000
,
0001
0000
0100
0000
0001
0000
0100
0000
0010
0000
0000
0010
0000
0000
1000
0000
,
0000
0000
0100
0000
1000
0000
0100
0000
0010
0000
0000
0010
0000
0000
0001
0000
,
0000
1000
0010
0100
0001
0010
0100
1000
,
0002
2003
3002
2003
,
3010
0000
0000
0010
0000
0000
0100
0000
0001
0000
0000
0001
0000
0000
0010
0000
,
0100
0000
0000
0100
0000
0000
1000
0000
0001
0000
0100
0000
0001
0000
0100
0000
,
0001
0000
0000
0001
0000
0000
0010
0000
0100
0000
0000
0100
0000
0000
1000
0000
,
1001
0110
1001
0110
,
1001
0000
0000
1000
0100
0000
0010
0000
0002
0000
1000
0000
1003
0000
0010
0000
,
0100
0000
0001
0010
0100
0000
1000
0100
,
0110
0000
0011
0000
1100
0000
0001
1000
,
0100
0000
0010
0001
0100
1000
0100
0001
,
0101
0000
1010
0000
1001
0000
0001
0010
,
0100
0000
1000
0010
0100
0000
0001
0100
,
0110
0000
1010
0000
0101
0000
1000
0001
,
0100
0000
0010
1000
0100
0001
0100
1000
,
0010
0000
1000
0000
0100
0000
0010
0000
0001
0000
0000
1000
0000
0000
0010
0000
,
0100
0000
0001
0000
1000
0000
0010
0000
0100
0000
0000
0001
0000
0000
1000
0000
,
1001
0000
0000
0000
0001
0000
0010
0000
1000
0000
0000
0010
0000
0000
0001
0000
,
0100
0010
0100
0010
1000
0000
1001
0000
,
0001
0000
0010
0000
0100
0000
1000
0000
0010
0000
0000
0100
0000
0000
0010
0000
,
1000
0000
0100
0000
0010
0000
0001
0000
1000
0000
0000
0001
0000
0000
1000
0000
,
0100
0000
0000
0000
0010
0000
0001
0000
0100
0000
0000
0010
0000
0000
0100
0000
,
0001
1000
0001
1000
0010
0000
0100
0001
,
1000
0000
0001
0010
0100
0000
1000
0100
1000
0000
0001
0100
0010
0000
1000
0010
,
1000
0000
0001
0010
0001
1000
0010
0100
0002
0000
0023
0000
2030
0000
3010
0001
,
0100
0000
0010
1000
0001
0000
1000
0100
0010
0001
0100
0010
1000
0000
0001
0100
,
1000
0000
0000
0000
1000
0000
0100
0000
0001
0000
0010
0000
0100
0000
1000
0000
0001
0000
0000
1000
0000
0000
0001
0000
1000
0000
0000
0000
0001
0000
1000
0000
,
0100
0000
0010
0001
1000
0000
0010
0100
,
1001
0000
0110
0000
1001
0000
1000
0100
,
0001
0000
0001
0100
1000
0001
0100
0010
,
0101
0000
1010
0000
1001
0000
0001
0100
,
0001
0000
1000
0100
1000
0000
0001
0100
,
1001
0000
1100
0000
0101
0000
0001
0100
,
1000
0000
1000
0100
0001
1000
0100
0010
,
0011
0000
0001
0000
1000
0000
0001
0000
0100
0000
0000
0110
0000
0000
1001
0000
,
1000
0000
0100
0000
1000
0000
0001
0000
0010
0000
0000
0011
0000
0000
1100
0000
,
1000
0000
0000
0000
0001
0000
0100
0000
0001
0000
0000
0101
0000
0000
1100
0000
,
1000
0001
1000
0001
0010
0000
0110
0000
,
1000
0000
0001
0000
0100
0000
0001
0000
1000
0000
0000
1001
0000
0000
0110
0000
,
0001
0000
1000
0000
0100
0000
1000
0000
0001
0000
0000
0110
0000
0000
1001
0000
,
0001
0000
0000
0000
1000
0000
0100
0000
0010
0000
0000
0011
0000
0000
1100
0000
,
1000
0001
0100
0001
1000
0000
0010
0100
,
0002
0000
0000
0000
,
0000
0000
0000
0000
,
0003
0000
0000
0000
;

//--------------- dance-single - ----------------
#NOTES:
     dance-single:
     :
     Hard:
     15:
     0,0,0,0,0:
0000
0000
0000
0000
,
0000
0000
0000
0000
,
0001
1000
0010
0100
0010
1000
0001
0000
,
0001
1000
0001
0010
0200
0000
1300
0000
,
0011
0100
1010
0100
,
1000
0002
0000
0000
0000
0000
0000
0000
0010
0000
0000
0000
0000
0000
0000
0000
0100
0000
0000
0000
0000
0000
0000
0000
1003
0000
0000
0000
0001
0000
0010
0000
,
0100
0000
1000
0000
0100
0000
0010
0000
0200
0000
0000
0001
0000
0000
1300
0000
,
0010
0100
0001
1000
0010
0000
1000
0000
0020
0000
0000
0001
0000
0000
1030
0000
,
0110
0000
0010
1000
0100
0000
0010
0000
0002
0000
0000
0010
0000
0000
1003
0000
,
1010
0000
0010
1000
0001
0000
0010
0000
0100
1000
0100
0010
0100
1000
0001
0010
,
0100
0000
0000
1001
0000
0000
0100
0001
1000
0000
0000
0011
0000
0000
0100
0000
,
1001
0000
0000
0001
0000
0000
1000
0010
0100
0000
0000
1010
0000
0000
0100
0000
,
0101
0000
0000
0010
0000
0000
1000
0100
0010
0000
0000
0011
0000
0000
0001
0000
,
1000
0001
1000
0001
0010
0100
0010
0100
1000
0010
1000
0010
0100
0001
0100
0001
,
2000
0000
0000
0000
3001
0000
0010
0000
0100
0000
0000
1000
0000
0000
1000
0000
0001
0000
0100
0000
0010
0000
1000
0001
1000
0000
0000
0001
0010
0000
0100
0000
,
1000
0000
0010
0100
0010
0000
1000
0000
0001
0000
0010
0100
0010
0000
0001
0000
1000
0000
0000
0001
0000
0000
1000
0000
1002
0000
0023
0000
0230
0000
1300
0100
,
0010
0000
0001
0000
0010
0000
0001
0000
1000
0000
0000
0010
0000
0000
0100
0000
,
0000
0000
0010
0000
1000
0000
0001
0100
0001
0000
0000
0010
0000
0000
0100
0000
,
0000
0000
1000
0001
1000
0000
0010
0000
0100
0000
0001
0000
0010
0000
0100
1000
,
0100
0000
0010
0000
0001
0000
1000
0000
0001
0010
0100
1000
0001
0010
0100
1000
,
0001
0000
0000
0001
0100
0000
0010
0000
1010
0000
1000
0001
0010
0000
0100
0000
,
1100
0000
0000
1000
0001
0000
0010
0000
2100
0000
0001
0000
0100
0000
3001
0000
,
1001
0000
0000
0001
0010
0000
0100
0000
0110
0000
0010
0001
1000
0000
0010
0000
,
1010
0000
1000
0001
0100
0000
0110
0000
0010
1000
0010
0100
0001
0100
0010
1000
,
0100
0000
0000
0100
0010
0000
0001
0000
2001
0000
0100
0000
3100
0000
0100
1000
,
0001
0000
0000
0010
0001
0000
0100
0001
0010
0000
0100
1000
0010
0000
0010
0000
,
1001
0000
1000
0100
0010
0000
0100
0000
0010
0001
1000
0001
0010
0001
0100
0010
,
0001
0000
0010
1000
0001
0000
0010
0000
0100
0000
0010
0001
1000
0000
0010
0000
,
1010
0000
0000
0000
0101
0000
0000
0000
1001
0001
0010
0000
0110
0000
0100
1000
,
0010
0000
0000
1000
0100
0000
0010
0001
0100
0000
0010
1000
0100
0000
0100
0000
,
1001
0000
0001
0100
0010
0000
1000
0000
0001
0010
0000
0000
0110
0000
0100
1000
,
0001
0000
0001
0100
1000
0000
0100
0001
0010
0100
0000
0010
0001
0000
0010
0000
,
1001
0000
1000
0000
0100
0000
0010
0000
0001
0000
0000
1001
0000
0000
0110
0000
,
0010
0000
1000
0000
0100
0000
0001
0000
0100
0000
0000
0110
0000
0000
1001
0000
,
0001
0000
0000
0000
0001
0000
1000
0000
0100
0000
0000
1100
0000
0000
0011
0000
,
0010
0000
0001
0000
0010
0000
0100
0000
1000
0001
0000
0000
0110
0000
0010
0000
,
1000
0000
0001
0010
0001
0000
0100
0000
0010
0000
0000
1010
0000
0000
0101
0000
,
0001
0000
1000
0100
1000
0000
0010
0000
0100
0001
0000
0001
0100
0000
0010
1000
,
0100
0000
0010
0000
0001
0000
0010
0000
0100
0000
0000
1100
0000
0000
1010
0000
,
0010
0000
0100
0000
0010
0000
0100
0000
0001
1000
0000
0000
0001
0000
0100
0000
,
0010
0000
0000
0000
0000
0000
0000
0000
0000
0000
0000
0000
0010
0000
0000
0000
0000
0000
1000
0000
0000
0000
0000
0000
0001
0000
0000
0000
0000
0000
0010
0000
0100
0000
0010
0000
0100
0000
0000
0000
0000
0000
1000
0000
0000
0000
0000
0000
0001
0000
0000
0000
0000
0000
0100
0000
0000
0001
0000
0000
0100
0000
0000
0000
0000
0000
0010
0000
0000
0000
0000
0000
1000
0000
0000
0000
0000
0000
0000
0000
0000
0000
0000
0000
1000
0000
0000
0000
0000
0000
0100
0000
0000
0000
0000
0000
,
0010
0000
0001
1000
0001
0000
0100
0000
0010
0000
1000
0001
1000
0000
0001
0000
0011
0000
0000
0000
0110
0000
0000
0000
1001
0000
0000
0000
0001
0000
0100
0000
,
0010
0000
0000
0000
0000
0000
0000
0000
0000
0000
0000
0000
0010
0000
0000
0000
0000
0000
1000
0000
0000
0000
0000
0000
0001
0000
0000
0000
0000
0000
0100
0000
0010
0000
0100
0000
0010
0000
0000
0000
0000
0000
1000
0000
0000
0000
0000
0000
0001
0000
0000
0000
0000
0000
0010
0000
0000
0100
0000
0000
0010
0000
0000
0000
0000
0000
0001
0000
0000
0000
0000
0000
1000
0000
0000
0000
0000
0000
0000
0000
0000
0000
0000
0000
1000
0000
0000
0000
0000
0000
0010
0000
0000
0000
0000
0000
,
0001
0000
0000
0000
0001
0000
0010
0000
1000
0000
0100
0010
0100
0000
1000
0000
0001
0000
0000
0100
0010
0000
1000
0000
0001
0000
1000
0100
1000
0100
1000
0100
,
0010
0000
0000
0010
0001
0000
1000
0001
0100
0000
0010
1000
0100
0000
0010
0000
,
1001
0000
1000
0010
0100
0000
0001
0000
1000
0001
0010
0100
0010
0001
1000
0100
,
0010
0000
0100
0010
0001
0000
0100
0000
1000
0000
0100
0001
0010
0000
0100
0000
,
1100
0000
0000
0000
0011
0000
0000
0000
1001
0100
0010
0000
1010
0000
0100
0001
,
0010
0000
0000
0100
1000
0000
0010
1000
0001
0000
0010
0001
0100
0000
0010
0000
,
1001
0000
0001
0100
0010
0000
1000
0000
0001
0010
0000
0000
0110
0000
0100
1000
,
0001
0000
0100
0001
0010
0000
0100
1000
0100
0010
0000
0001
1000
0000
0010
0000
,
0110
0000
0100
0000
0001
0000
1000
0000
0010
0000
0000
0110
0000
0000
0101
0000
,
0001
0000
0010
0000
0100
0000
0001
0000
0100
0000
0000
1100
0000
0000
1010
0000
,
0010
0000
0000
0000
0100
0000
0001
0000
0010
0000
0000
1001
0000
0000
1010
0000
,
1000
0000
0001
0000
0100
0000
0001
0000
0100
0010
0000
0000
1001
0000
1000
0000
,
0100
0000
0010
0001
0100
0000
0010
0000
1000
0000
0000
1001
0000
0000
0110
0000
,
1000
0000
0010
0100
0010
0000
0001
0000
0010
1000
0000
1000
0100
0000
0100
1000
,
0010
0000
0100
0000
0001
0000
1000
0000
0001
0000
0000
0011
0000
0000
0110
0000
,
0100
0000
1000
0000
0100
0000
1000
0000
0010
0100
0000
0000
0001
0000
1000
0000
,
0200
0000
0000
0000
,
0000
0000
0000
0000
,
0300
0000
0000
0000
;

//--------------- dance-single - ----------------
#NOTES:
     dance-single:
     :
     Challenge:
     16:
     0,0,0,0,0:
0000
0000
0000
0000
,
0000
0000
0000
0000
,
1001
0000
0001
0010
0100
0000
0110
0000
0010
0001
1000
0000
1001
0000
0000
0000
,
1000
0001
0100
0010
0100
0001
0010
0100
2000
0000
0000
0000
3001
0000
0000
0000
,
0001
0020
0000
0000
0000
0000
0000
0000
0230
0000
0000
0000
0000
0000
0000
0000
1300
0020
0000
0000
0000
0000
0000
0000
0230
0000
0000
0000
0000
0000
0000
0000
,
0301
2000
0000
0000
0000
0000
0000
0000
0100
0000
0000
0000
0000
0000
0000
0000
0001
0000
0000
0000
0000
0000
0000
0000
3100
0000
0000
0000
0100
0000
1000
0000
,
0001
0000
0100
0000
1010
0000
0100
0000
0011
0000
0000
0110
0000
0000
1100
0000
,
0100
0010
0001
1000
0010
0000
0100
0000
0110
0000
0000
1010
0000
0000
0101
0000
,
0001
1000
0100
0010
0100
1000
0001
0000
0101
0000
0000
1010
0000
0000
1100
0000
,
0011
0000
0001
0100
0010
0000
0110
0000
0100
1000
0100
0010
0100
0001
0010
0100
,
0001
0000
0000
0001
0100
0000
0100
1000
0001
0000
0000
1010
0000
0100
0001
0000
,
0011
0000
0000
0010
0100
0000
0100
1000
0001
0000
0000
0101
0000
0001
1000
0000
,
1010
0000
0000
1000
0010
0000
0010
0100
0001
0000
0000
1010
0000
0100
0001
0000
,
0001
0010
0100
1000
0001
0100
0010
0001
1000
0001
0010
0100
0001
0010
0100
1000
,
0001
0000
0010
0000
0001
0000
0010
0000
0011
0000
0000
0001
1000
0000
0010
0000
0110
0000
0100
0000
0001
0000
1000
0001
0010
0000
0000
0010
0100
0000
1000
0000
,
1010
0000
0010
0100
0001
0000
0010
0000
0110
0000
0100
1000
0010
0000
0100
0000
1010
0000
1000
0100
0000
0100
0001
0000
0200
0000
2300
0000
3020
0000
0130
0001
,
1000
0000
0000
0000
0000
0000
0010
0000
0000
1000
0000
0000
0100
0000
0000
0000
0000
0000
0010
0000
0001
0000
0100
0000
0010
0000
0000
0000
0000
0000
0010
0000
0000
1000
0000
0000
0100
0000
0000
0010
0000
0000
0001
0000
0000
0000
0000
0000
,
1001
0000
0000
0000
0000
0000
0001
0000
0000
0100
0000
0000
1000
0000
0000
0000
0000
0000
0100
0000
0001
0000
0010
0000
0100
0000
0000
0000
0000
0000
0100
0000
0000
1000
0000
0000
0100
0000
0000
1000
0000
0000
0010
0000
0000
0000
0000
0000
,
0110
0000
0000
0000
0000
0000
0100
0000
0001
0000
0100
0000
0001
0000
0000
0010
0000
0000
0100
0000
0000
0000
0000
0000
1100
0000
0000
0000
0000
0000
1000
0000
0010
0000
1000
0000
0010
0000
0000
0000
0000
0000
0100
0000
0001
0000
0100
0000
,
0001
0000
0000
0000
0000
0000
1000
0000
0000
0000
0000
0000
0010
0000
0000
0000
0000
0000
0100
0000
0000
0000
0000
0000
0001
0000
0000
0000
0000
0000
0100
0000
0000
0000
0000
0000
0010
0000
0000
0000
0000
0000
1000
0000
0000
0000
0000
0000
0100
0000
0000
0000
0010
0000
0000
0000
0100
0000
0000
0000
1000
0000
0000
0000
0001
0000
0000
0000
0100
0000
0000
0000
0010
0000
0000
0000
0100
0000
0000
0000
0001
0000
0000
0000
1000
0000
0000
0100
0000
0000
0010
0000
0000
0001
0000
0000
,
1000
0000
0000
1000
0010
0000
0100
0000
1010
0000
0101
1000
0101
0000
0100
0000
,
1100
0000
0100
1000
0001
0000
0100
0010
1020
0000
0130
0000
0021
0000
0130
0000
,
0010
0001
0100
0010
1000
0000
0001
0000
0011
0000
1100
0001
1100
0000
1001
0000
,
1000
0000
0000
0000
0000
0000
0100
0000
0000
0000
0000
0000
0010
0000
0000
0000
0000
0000
0100
0000
0000
0000
0000
0000
0001
0000
0000
0000
0000
0000
0100
0000
0000
0000
0000
0000
0010
0000
0000
0000
0000
0000
0100
0000
0000
0000
0000
0000
1000
0000
0000
0000
0001
0000
0000
0000
0100
0000
0000
0000
0010
0000
0000
0000
0100
0000
0000
0000
1000
0000
0000
0000
0100
0000
0000
0000
0010
0000
0000
0000
0100
0000
0000
0000
0001
0000
0000
0010
0000
0000
0100
0000
0000
1000
0000
0000
,
0010
0000
0000
0000
0000
0000
0000
0000
0000
0100
0000
0000
0010
0000
0000
0000
0000
0000
0100
0000
0000
0000
0000
0000
0120
0000
0000
0000
0000
0000
0001
0000
0000
0000
0000
0000
1030
0000
0000
0000
0000
0000
1000
0000
0100
0000
0010
0000
,
0001
0000
0001
0100
0001
0000
0001
0010
0001
0100
0001
0010
1000
0000
0110
0000
,
1001
0000
0000
0000
1000
0000
0010
0000
1000
0000
0000
0000
1000
0000
0010
0100
1000
0000
0100
0000
0000
0000
0100
0000
0001
0000
0000
0000
0001
0000
0010
0000
,
0100
0000
0100
1000
0010
0000
0010
0100
1000
0000
1000
0100
0001
0010
0100
1000
,
1100
0000
0000
0000
0000
0000
0100
0000
0000
0000
0000
0000
0110
0000
0000
0000
0000
0000
0010
0000
0000
0000
0000
0000
1001
0000
0000
0001
0000
0000
0100
0000
0000
0000
0000
0000
0110
0000
0000
0000
0000
0000
0100
0000
0001
0000
0010
0000
,
0100
0000
0100
1000
0100
0000
0100
0001
0100
1000
0010
0100
0010
0000
1010
0000
,
0101
0000
0000
0000
0010
0000
1000
0000
0010
0000
0100
0000
0010
0000
1000
0001
0010
0000
0100
0000
0000
0000
0000
0000
0110
0000
0000
0000
0100
0000
1000
0000
,
0001
0000
0001
0100
1000
0100
0001
0010
0100
0001
0100
1000
1100
0000
0011
0000
,
0001
0100
0010
0100
1000
0100
0010
1000
0001
0000
0000
1010
0000
0000
0101
0000
,
1000
0100
0010
0100
0001
1000
0010
0100
1000
0001
0000
0001
0100
0000
0110
0000
,
1001
0000
0000
1000
0010
0000
0110
0000
0100
0001
0000
0011
0000
0000
0110
0000
,
0100
0000
0010
0000
0001
0000
0010
0000
0100
0000
0010
0000
0001
0000
0010
0000
0100
1000
0010
0000
0000
0000
0000
0000
0101
0000
0000
0000
1010
0000
0000
0000
,
1000
0100
0010
0100
0001
1000
0010
0001
0100
0000
0000
0101
0000
0000
1010
0000
,
0001
0100
0010
0100
1000
0001
0010
0100
0001
1000
0000
1000
0100
0000
0110
0000
,
1001
0000
0000
0001
0010
0000
0110
0000
0100
1000
0000
1010
0000
0000
0110
0000
,
0100
0000
0010
0000
1000
0000
0010
0000
0100
0000
0010
0000
1000
0000
0010
0000
0100
0001
0010
0000
0000
0000
0000
0000
0100
0000
1000
0000
0100
0000
0010
0000
,
0001
0000
0000
0000
0000
0000
0000
0000
0000
0001
0000
0000
0010
0000
0000
0000
0000
0000
0100
0000
0000
1000
0000
0000
0001
0000
0000
0000
0000
0000
0100
0000
0010
0000
0100
0000
0010
0000
0000
0000
0000
0000
1000
0000
0000
0000
0000
0000
1010
0000
0000
0000
0000
0000
0100
0000
0000
0001
0000
0000
0010
0000
0000
0000
0000
0000
0100
0000
0000
0000
0000
0000
0110
0000
0000
0000
0000
0000
0000
0000
0000
0100
0000
0000
1000
0000
0000
0000
0000
0000
0010
0000
0000
0000
0000
0000
,
0110
0000
0000
0000
0000
0000
0100
0000
0000
0001
0000
0000
1000
0000
0000
0000
0000
0000
0100
0000
0000
0000
0000
0000
0010
0000
0000
0000
0000
0000
0001
0000
0010
0000
0100
0000
1000
0000
0000
0000
0000
0000
0001
0000
0000
0000
0000
0000
0101
0000
0000
0000
0000
0000
0100
0000
0000
0000
0000
0000
0110
0000
0000
0000
0000
0000
0010
0000
0000
0000
0000
0000
1001
0000
0000
0000
0000
0000
0000
0000
0000
0000
0000
0000
1000
0000
0000
0000
0000
0000
0010
0000
0000
0000
0000
0000
,
0110
0000
0000
0000
0000
0000
0000
0000
0000
0100
0000
0000
0001
0000
0000
0000
0000
0000
0010
0000
0000
0000
0000
0000
0110
0000
0000
0000
0000
0000
0100
0000
1000
0000
0100
0000
1000
0000
0000
0000
0000
0000
0001
0000
0000
0000
0000
0000
0101
0000
0000
0000
0000
0000
0100
0000
0000
0001
0000
0000
0010
0000
0000
0000
0000
0000
0100
0000
0000
0000
0000
0000
1100
0000
0000
0000
0000
0000
0000
0000
0000
0000
0000
0000
1000
0000
0000
0000
0000
0000
0010
0000
0000
0000
0000
0000
,
0101
0000
0000
0100
0001
0000
0010
0000
1000
0000
0010
0001
0100
0000
0010
0000
1001
0000
0000
0010
0100
0000
0010
0000
1000
0001
1000
0001
0010
0100
0010
0100
,
1000
0000
1000
0001
1000
0000
1000
0010
1000
0100
1000
0010
0001
0000
0110
0000
,
1001
0000
0000
0000
0001
0000
0010
0000
0001
0000
0000
0000
0001
0000
0100
0010
0001
0000
0010
0000
0000
0000
0010
0000
1000
0000
0000
0000
1000
0000
0100
0000
,
0010
0000
0010
0001
0100
0000
0100
0010
0001
0000
0001
0010
1000
0100
0010
0001
,
0011
0000
0000
0000
0000
0000
0010
0000
0000
0000
0000
0000
0110
0000
0000
0000
0000
0000
0100
0000
0000
0000
0000
0000
1001
0000
0000
0001
0000
0000
0010
0000
0000
0000
0000
0000
0110
0000
0000
0000
0000
0000
0100
0000
1000
0000
0010
0000
,
0100
0000
0100
0001
0100
0000
0100
1000
0100
0001
0010
0100
0010
0000
0011
0000
,
1100
0000
0000
0000
1000
0000
0001
0000
0010
0000
0100
0000
0010
0000
0001
1000
0010
0000
0100
0000
0000
0000
0000
0000
0110
0000
0000
0000
0100
0000
0001
0000
,
1000
0000
1000
0100
0001
0100
1000
0010
0100
1000
0100
0001
0101
0000
1010
0000
,
1000
0100
0001
1000
0001
0100
1000
0001
0100
0000
0000
1010
0000
0000
0101
0000
,
0001
0100
1000
0001
1000
0100
0001
0010
0100
1000
0000
1000
0010
0000
0110
0000
,
1001
0000
0000
0001
0010
0000
0110
0000
0100
1000
0000
1010
0000
0000
0110
0000
,
0100
0000
0010
0000
1000
0000
0010
0000
0100
0000
0010
0000
1000
0000
0010
0000
0100
0001
0010
0000
0000
0000
0000
0000
1100
0000
0000
0000
0011
0000
0000
0000
,
0001
0100
1000
0001
1000
0100
0001
0010
0100
0000
0000
0011
0000
0000
1100
0000
,
1000
0100
0001
1000
0001
0100
1000
0010
0100
0001
0000
0001
0010
0000
0110
0000
,
1001
0000
0000
1000
0010
0000
0110
0000
0100
0001
0000
0011
0000
0000
0110
0000
,
0100
0000
0010
0000
0001
0000
0010
0000
0100
0000
0010
0000
0001
0000
0010
0000
0100
1000
0010
0000
0000
0000
0000
0000
0100
0000
0000
0000
0010
0000
0000
0000
,
2002
0000
0000
0000
,
0000
0000
0000
0000
,
3003
0000
0000
0000
;
