#TITLE:ようこそ佐賀へ;
#SUBTITLE:;
#ARTIST:フランシュシュ;
#TITLETRANSLIT:Youkoso Saga E;
#SUBTITLETRANSLIT:;
#ARTISTTRANSLIT:FranChouChou;
#GENRE:ANIME;
#CREDIT:;
#MUSIC:Youkoso Saga E.ogg;
#BANNER:Youkoso Saga E.png;
#BACKGROUND:Youkoso Saga E-bg.png;
#CDTITLE:;
#SAMPLESTART:0.602;
#SAMPLELENGTH:18.974;
#SELECTABLE:YES;
#OFFSET:0.665;
#BPMS:0.000=234.000;
#STOPS:;
#BGCHANGES:10.000=Youkoso Saga E.avi=1.000=0=0=0=StretchNoLoop====,
99999.000=-nosongbg-=1.000=0=0=0=StretchNoLoop====
;
#FGCHANGES:;

//--------------- dance-single - ----------------
#NOTES:
     dance-single:
     :
     Hard:
     17:
     0,0,0,0,0:
0000
0000
0000
0000
,
0000
0000
0000
0000
,
0001
1000
0001
0100
0010
0100
0001
0100
,
0001
1000
0001
1000
0100
1000
0010
0100
,
0001
0100
0010
1000
0100
1000
0001
0100
,
0010
0000
0010
1000
0000
1000
0001
0000
,
0001
0010
0100
1000
0001
0100
0010
1000
,
0010
1000
0010
0100
0001
0100
0010
1000
,
0001
1000
0001
1000
0100
0010
0100
1000
,
0100
0000
0010
0000
0001
0000
0010
0000
0100
0000
0010
0000
0001
0000
1000
0100
,
1000
0010
0100
0001
0010
0100
0010
0001
,
0010
0001
0100
0001
0010
0100
0010
0001
,
0100
0010
1000
0010
1000
0010
0100
0001
,
1000
0000
0001
0100
0001
0000
0000
0000
0010
0000
0100
1000
0100
0000
0000
0000
,
0001
0010
0100
1000
0010
0100
0001
0100
,
0001
0010
0100
0010
0100
1000
0010
0100
,
0001
1000
0000
1000
0010
0000
0010
0100
,
0000
0000
0100
0000
0001
0000
0000
0000
1000
0100
1000
0000
0001
0100
0001
0000
,
1000
1000
0000
0000
,
0000
0000
0000
1001
,
0001
0010
0100
1000
0000
0010
0100
0010
,
1000
0000
0001
0100
0001
0000
0000
0000
0001
0000
1000
0100
1000
0000
0000
0000
,
0001
0100
0001
1000
0000
0010
1000
0100
,
0010
0000
0100
1000
0100
0000
0000
0000
0010
0000
0001
0010
0001
0000
0000
0000
,
1000
0010
0100
0001
0000
0100
0010
1000
,
0001
0000
1000
0001
1000
0000
0000
0000
0010
0000
1000
0010
1000
0000
0000
0000
,
0001
0100
0010
1000
0000
0010
0100
0001
,
0100
0000
0010
0100
0010
0000
0000
0000
1000
0000
0100
1000
0100
0000
0000
0000
,
0010
0001
0010
0001
0000
1000
0100
1000
,
0010
0000
0100
0001
0100
0000
0000
0000
0010
0000
1000
0010
1000
0000
0000
0000
,
0100
1000
0100
0010
0000
0100
0010
0001
,
0010
0000
0100
1000
0100
0000
0000
0000
1000
0000
0001
0100
0001
0000
0000
0000
,
0100
0001
0100
0001
0000
1000
0010
0100
,
0010
0000
1000
0001
1000
0000
0000
0000
0010
0000
0100
0010
0100
0000
0000
0000
,
0001
0100
0010
1000
0000
1000
0010
0100
,
0010
0010
0010
0010
0020
0000
0230
0000
,
0310
0100
0010
1000
0001
0100
0001
0100
,
0001
1000
0100
0010
0001
1000
0100
1000
,
0001
1000
0010
0100
0001
1000
0100
1000
,
0100
0010
0100
0010
0001
1000
0001
0100
,
0001
0100
0001
0100
0001
0100
0001
0100
0001
0100
0001
0100
0001
0000
0000
0000
,
1000
0100
1000
0100
1000
0100
1000
0100
1000
0100
1000
0100
1000
0000
0000
0000
,
0001
0001
0001
1000
1000
1000
0001
0001
,
1001
0000
0000
0110
0000
0000
1001
0000
,
0000
0000
0000
1001
,
0001
0000
0100
0001
0100
0000
0010
0000
1000
0000
0100
1000
0100
0000
0010
0000
,
0001
0001
0100
0000
0010
0010
1000
0000
,
0100
0000
0010
0001
0010
0000
0100
0000
0010
0000
0001
0010
0001
0000
0100
0000
,
0010
0010
1000
0000
0100
0100
0010
0000
,
0001
0000
1000
0100
1000
0000
0010
0000
0100
0000
0001
0100
0001
0000
0010
0000
,
0100
0100
1000
0000
0001
0001
0100
0000
,
0010
0000
0100
0010
0100
0000
0001
0000
1000
0000
0100
1000
0100
0000
0010
0000
,
0001
0001
1000
0000
1000
1000
0010
0000
,
1000
0000
0100
0010
0100
0000
0010
0000
0001
0000
1000
0010
1000
0000
0010
0000
,
0100
0001
0100
0000
0010
0000
0000
0000
1000
0100
1000
0000
0001
0000
0000
0000
,
0010
0000
0100
1000
0100
0000
0010
0000
0001
0000
1000
0100
1000
0000
0010
0000
,
0100
0001
0100
0000
0010
0000
0000
0000
1000
0010
1000
0000
0100
0000
0000
0000
,
1000
0000
0100
0010
0100
0000
0010
0000
0001
0000
1000
0100
1000
0000
0010
0000
,
0100
0001
0100
0000
0010
0000
0000
0000
1000
0100
1000
0000
0100
0000
0000
0000
,
1000
0100
0010
0100
1000
0001
0100
0010
,
1000
0000
0001
0100
0001
0000
0100
0010
0100
0000
0010
1000
0010
0000
1000
0001
,
0100
0010
1000
0010
1000
0010
0100
0001
,
0100
0001
0010
0001
0100
0010
0100
0001
,
0010
0001
1000
0010
1000
0001
0010
0001
,
0010
0100
1000
0001
1000
0010
1000
0001
,
1000
0100
1000
0100
1000
0100
1000
0100
1000
0100
1000
0100
1000
0100
1000
0100
,
0010
0100
0010
0100
0010
0100
0010
0100
0010
0100
0010
0100
0010
0100
1000
0100
,
1000
0100
0010
0001
0000
0001
1000
0000
,
1000
0010
0000
0010
1000
0001
0100
0001
,
0010
0001
1000
0010
1000
0010
0100
0010
,
0100
0001
1000
0001
1000
0001
0010
0100
,
0010
0100
0010
0001
0100
0001
0010
0100
,
0010
0000
0001
0100
0001
0000
0001
0000
0001
0000
0001
0000
0001
0000
0010
0000
,
0200
0000
2300
3020
0000
2030
3002
0203
,
0320
2030
3020
0230
0000
0320
2030
3200
,
0320
0230
2300
3200
0320
0032
0023
0230
,
2300
0000
3002
0203
,
0310
1000
0001
0000
0010
0001
1000
0000
0001
0100
0001
0100
0001
0000
1000
0100
,
1000
0100
1000
0000
0010
0100
0010
0100
0010
0000
0100
0001
0010
0000
0100
1000
,
0010
0000
0000
0000
0000
0000
0000
0001
,
0101
0000
0001
0011
0000
1000
1100
0100
,
1001
0000
0001
0010
0100
1000
0100
0010
,
0001
0000
0001
0100
0010
1000
0010
0100
,
0101
0011
0101
0011
,
1001
0000
1000
0100
0010
0000
0100
0000
0010
0000
0001
0100
0010
0000
0100
0000
,
0010
0000
1000
0100
1000
0000
0100
0010
0100
0000
0010
0001
0010
0000
0001
1000
,
0001
0000
0100
0001
0100
0000
0010
0100
0010
0000
1000
0010
1000
0000
0001
1000
,
0001
0100
0001
0100
0001
0100
0010
0100
0010
0100
0010
0100
,
0010
1000
0010
1000
0010
1000
0010
1000
0001
1000
0001
1000
,
0001
0011
1010
0011
,
1010
0000
0000
0000
1001
0000
0000
0000
1001
0000
1000
0100
1000
0000
0100
0000
,
1000
0010
0100
0001
0010
0001
0010
0100
,
1000
0100
0010
0001
0010
0100
1000
0000
0000
0110
0000
0000
,
0101
0000
1100
0000
0101
0000
0001
0010
,
0100
0000
1000
0000
0001
0000
0010
0000
0100
0000
1000
0100
1000
0000
0001
0000
,
1000
0001
1000
0001
1000
0001
0100
0010
0100
0010
0100
0010
,
1000
0010
1000
0010
1000
0010
0100
0001
0100
0001
0100
0010
,
0110
0110
0000
0000
,
0101
0101
0000
0000
,
0001
0000
0100
0000
0001
0000
0100
0000
0010
0000
1000
0100
1000
0000
0010
0000
,
0100
0000
0001
0000
1000
0000
0001
0000
1000
0000
0100
0010
0100
0000
0010
0000
,
0001
0000
1000
0000
0010
0000
0100
0000
0001
0000
0100
0010
0100
0000
0010
0000
,
1000
0000
0010
0100
0001
0000
0010
0000
0100
0000
0010
0100
1000
0000
0010
0000
,
0100
0000
0001
0000
1000
0000
0001
0000
0100
0000
0001
0100
0001
0000
1000
0000
,
0100
0000
0010
0000
0001
0000
1000
0000
0100
0000
1000
0100
1000
0000
0100
0000
,
0010
0001
0010
0000
0100
0000
0010
0001
0010
0000
0100
0000
0100
0000
0100
0000
,
1000
1000
1000
0010
0010
0010
0100
0100
,
0100
0000
0001
0100
0001
0000
0100
0000
0010
0000
0100
0010
1000
0000
0100
0000
,
0010
0000
0100
1000
0001
0000
0100
0000
0010
0000
0100
0010
1000
0000
0010
0000
,
1001
1001
1001
1001
,
1000
0100
1000
0100
0010
0100
0010
0100
0010
0001
0010
0001
,
1000
0001
0001
0101
0001
0001
1001
0001
,
0001
1001
1000
1000
1100
1000
1001
1000
,
0010
0010
0010
0110
0010
0010
0110
0010
,
0010
0110
0100
0100
0110
0100
0001
1000
,
0001
1000
0001
1000
0001
1000
0001
1000
0001
1000
0001
1000
0001
1000
0001
1000
,
0001
1000
0001
1000
0001
1000
0001
1000
0001
1000
0001
1000
0001
1000
0001
1000
,
0001
0000
0000
1001
0000
0000
1001
0000
,
0001
0100
0001
0100
0001
0000
1000
0100
1000
0100
1000
0000
0001
0100
0001
0100
,
0001
0000
1000
0100
1000
0100
1000
0000
0001
0100
0001
0100
0001
0000
0000
0000
,
1100
1000
1000
1001
0001
0001
0101
0100
,
0100
0110
0010
0010
1010
0000
0110
0000
,
0202
0000
0000
0000
,
0000
0000
0000
0000
,
0303
0000
0000
0000
;

//--------------- dance-single - ----------------
#NOTES:
     dance-single:
     :
     Challenge:
     19:
     1.266538,1.535932,0.608067,0.030028,0.885826,1181,1100,81,4,0,0,1.266538,1.535932,0.608067,0.030028,0.885826,1181,1100,81,4,0,0:
0000
0000
0000
0000
,
0000
0000
0000
0000
,
0001
0010
0100
1000
0100
0010
0100
1000
,
0001
0010
0100
1000
0100
0010
0100
1000
,
0001
0100
0010
1000
0100
0010
0100
1000
,
1100
0100
0010
0011
0001
1000
1001
0001
,
1001
1000
0010
0100
0001
0100
0010
0100
,
0001
0010
0100
0010
0001
1000
0100
0010
,
0001
0100
0001
0100
0001
0100
0001
1000
0001
1000
0001
0000
1000
0100
1000
0100
,
1000
0000
0100
0010
0100
0010
0100
0000
0010
0001
0010
0001
0010
0001
1000
0001
,
1000
0010
0100
0001
0010
0001
0100
0001
,
0010
0100
0010
0001
0010
0100
1000
0010
,
0100
0010
0100
0010
1000
0100
0010
0001
,
0100
0001
0100
0001
0100
0000
0010
0000
1000
0100
1000
0100
1000
0000
0001
0000
,
0100
0001
1000
0100
1000
0010
0100
0010
,
0100
0010
1000
0001
0100
0001
1000
0100
,
1100
1000
0001
0101
0100
0010
1010
1000
,
0100
0000
0110
0000
0010
0000
0001
0000
0100
0001
0100
0000
0010
1000
0010
0000
,
1010
1010
0000
0000
,
0000
0000
0000
1001
,
0001
0010
0100
1000
0000
0010
0100
0010
,
1000
0100
1000
0100
1000
0000
0000
0000
0001
0100
0001
0100
0001
0000
0000
0000
,
1000
0100
1000
0001
0000
0010
0001
0100
,
0010
1000
0010
1000
0010
0000
0000
0000
0100
0001
0100
0001
0100
0000
0000
0000
,
0001
1000
0100
1000
0000
0001
0100
0001
,
1000
0100
1000
0100
1000
0000
0000
0000
0001
0100
0001
0100
0001
0000
0000
0000
,
1000
0001
1000
0001
0000
0100
0001
1000
,
0001
0010
0001
0010
0001
0000
0000
0000
1000
0010
1000
0010
1000
0000
0000
0000
,
0100
1000
0010
1000
0000
0001
1000
0001
,
0100
0010
0100
0010
0100
0000
0000
0000
0010
1000
0010
1000
0010
0000
0000
0000
,
0100
0001
0010
0100
0000
1000
0100
0010
,
0001
1000
0001
1000
0001
0000
0000
0000
1000
0001
1000
0001
1000
0000
0000
0000
,
0100
1000
0010
1000
0000
0010
0100
0001
,
0100
0001
0100
0001
0100
0000
0000
0000
0010
0100
0010
0100
0010
0000
0000
0000
,
1000
0100
0010
0001
0000
0001
0010
0100
,
1000
0000
0001
0100
0001
0100
0001
0100
0002
0000
0000
0000
0203
0000
0000
0000
,
0310
1000
0010
0100
0001
1000
0100
0010
,
0001
1000
0001
0010
0001
1000
0100
0010
,
0001
0010
0100
1000
0001
0010
0100
0010
,
0001
0010
0001
1000
0100
1000
0100
1000
,
0001
0100
0001
0100
0001
0100
0001
0100
0001
1000
0001
1000
0001
1000
0001
1000
,
0100
1000
0100
1000
0100
1000
0100
1000
0100
0010
0100
0010
0100
0010
0100
0000
,
0110
0110
0110
0110
1001
1001
1100
1100
,
1001
0000
0000
0110
0000
0000
1001
0000
,
0000
0000
0000
1001
,
0100
0000
0001
0100
0001
0000
1000
0000
0001
0000
1000
0100
1000
0000
0010
0000
,
0100
0010
0100
0000
0001
0000
1000
0000
0100
0010
0100
0000
1000
0000
0001
0000
,
0100
0000
0010
1000
0010
0000
0100
0000
0001
0000
1000
0010
1000
0000
0100
0000
,
0010
0001
0010
0000
0100
0000
0010
0000
0100
1000
0100
0000
0010
0000
0001
0000
,
1000
0000
0001
0100
0001
0000
1000
0000
0010
0000
0100
0001
0100
0000
0010
0000
,
1000
0100
1000
0000
0100
0000
0010
0000
0001
0010
0001
0000
0010
0000
0100
0000
,
1000
0000
0100
1000
0100
0000
0010
0000
0001
0000
1000
0001
1000
0000
0010
0000
,
0100
0001
0100
0000
0010
0000
1000
0000
0001
1000
0001
0000
0010
0000
0100
0000
,
1000
0000
0100
0010
0100
0000
0010
0000
0001
0000
1000
0010
1000
0000
0010
0000
,
0100
0001
0100
0000
0010
0000
1000
0000
0001
0100
0001
0000
0010
0000
0100
0000
,
0010
0000
0100
1000
0100
0000
0010
0000
0001
0000
1000
0100
1000
0000
0010
0000
,
0100
0001
0100
0000
0010
0000
1000
0000
0001
0010
0001
0000
0100
0000
0010
0000
,
1000
0000
0100
0010
0100
0000
0010
0000
0001
0000
1000
0100
1000
0000
0010
0000
,
0100
0001
0100
0000
0010
0000
1000
0000
0001
1000
0010
0000
0100
0000
0001
0000
,
1000
0100
0010
0100
1000
0001
0100
0010
,
1000
0100
1000
0100
0010
0100
0010
0100
0010
0001
0010
0001
1000
0001
1000
0001
,
0100
0010
1000
0100
0010
0100
1000
0010
,
1000
0100
1000
0001
0010
0100
0010
0100
,
0010
0001
0100
0010
1000
0100
1000
0001
,
1000
0001
0100
0010
0100
0001
0100
0001
,
1000
0001
1000
0001
0010
0001
1000
0001
0010
0001
0010
0100
1000
0100
1000
0001
,
0010
0100
0010
0001
0010
0100
1000
0100
1000
0001
0010
0001
0010
0100
1000
0100
,
1000
0100
0010
0110
0001
1000
1010
0010
,
0110
0100
0001
1001
1000
0001
0101
0100
,
0001
1000
0001
0010
0100
0010
0100
1000
,
0001
0010
0011
0001
0010
0100
1100
1000
,
0001
1000
0010
0100
0010
0100
0101
0010
,
0100
0000
0001
0100
0010
0000
1000
0000
1010
0000
1010
0000
1010
0000
0101
0000
,
0101
0100
0001
0010
0100
1000
0001
0100
,
0001
0100
0010
0100
0001
0010
0001
0010
,
0100
1000
0001
1000
0100
0010
0001
1000
,
0010
0100
0010
1000
0010
1000
0001
1000
,
0001
0100
0010
1000
0010
1000
0010
0100
0001
1000
0010
0100
0010
1000
0010
0100
,
0001
0100
0001
1000
0010
1000
0010
0100
0001
0100
0010
1000
0001
0100
0010
1000
,
0001
0000
0000
0000
0000
0000
0000
0000
0000
0000
0000
0000
0000
0000
0010
1000
,
0100
0010
0001
0011
0010
0100
1100
1000
,
1001
0000
0001
0000
1000
0000
0001
0000
0010
0000
0100
1000
0100
0000
0010
0000
,
0100
0000
1000
0000
0001
0000
1000
0000
0001
0000
0100
0010
0100
0000
0001
0000
,
0101
0001
0011
0001
0101
0001
0011
0001
,
1001
0000
1000
0100
0010
0100
1000
0000
0001
0000
0100
0001
1000
0001
0100
0000
,
0010
0000
1000
0100
1000
0000
0100
0010
0100
0000
0010
0001
0010
0000
0001
1000
,
0001
0000
0100
0001
0100
0000
0010
0100
0010
0000
1000
0010
1000
0000
0001
1000
,
0001
0100
0001
0100
0001
1000
0010
1000
0100
0010
0001
0010
,
0001
0010
0100
1000
0001
0100
0010
1000
0001
0010
0001
0100
,
0001
0000
0010
0000
0001
0000
0010
0000
0001
0000
1000
0100
1000
0000
0001
0000
,
0100
0000
0010
0000
0100
0000
0010
0000
1000
0000
0001
0100
0001
0000
1000
0000
,
0100
0010
0100
1000
0001
0100
0010
0100
,
0001
0000
0010
0000
0100
0000
1000
0000
0100
0000
0010
0000
0001
0000
0000
0100
0000
0000
0010
0000
0000
1000
0000
0000
,
0001
0000
0100
0000
0001
0000
1000
0000
0001
0000
0100
0001
0010
0000
0100
0000
,
1000
0000
0010
0000
1000
0000
0100
0000
1000
0000
0010
0100
0010
0000
1000
0000
,
0001
0010
0100
1000
0010
1000
0010
0100
0001
0100
0010
1000
,
0001
1000
0001
0010
0001
0100
0010
0100
0010
0100
0001
1000
,
1100
1100
0000
0000
,
0101
0101
0000
0000
,
0001
0000
0010
0000
0001
0000
0100
0000
0010
0000
0100
0001
1000
0000
0010
0000
,
0100
0000
0001
0000
0010
0000
0001
0000
1000
0000
0100
1000
0001
0000
0010
0000
,
0001
0000
1000
0000
0010
0000
1000
0000
0100
0000
1000
0001
0100
0000
0010
0000
,
0100
0000
0010
1000
0001
0000
0010
0000
0100
0000
0010
0100
1000
0000
0010
0000
,
0100
0000
0001
0000
1000
0000
0001
0000
0100
0000
0001
0010
0100
0000
1000
0000
,
0100
0000
0010
0000
0001
0000
1000
0000
0010
0000
0100
0001
1000
0000
0100
0000
,
0010
0001
0010
0000
0100
0000
0010
0100
0010
0000
0001
0000
0101
0000
0101
0000
,
1001
1001
1100
1100
1001
1001
0110
0110
,
0101
0000
0100
0001
1000
0000
0100
0000
0010
0000
0100
1000
0010
0000
0100
0000
,
0010
0000
0100
0001
0010
0000
0100
0000
1000
0000
0001
0100
0001
0000
0010
0000
,
1100
1000
1010
1000
1100
1000
1001
0001
,
1000
0100
1000
0010
0100
0010
1000
0001
0010
0001
1000
0100
,
0010
0001
0010
1100
0010
0001
0110
0001
,
1000
1100
0001
1000
0110
0001
0110
1000
,
0001
1000
0010
0110
1000
0010
0110
0001
,
1000
1100
0001
1000
1010
0100
0001
1000
,
0001
0010
0100
1000
0010
0100
0001
0010
0100
0010
0001
0010
0001
0100
0010
0100
,
0001
0100
0010
1000
0010
0100
0010
0100
0001
0010
0100
0010
0001
0100
0001
1000
,
0100
0000
0000
0110
0000
0000
0110
0000
,
0001
0100
0010
0100
0001
0000
1000
0100
0010
0100
1000
0000
0001
0100
0010
1000
,
0001
0000
1000
0100
0010
0001
1000
0000
0010
0100
0010
0100
0010
0000
0000
0000
,
1001
0100
0010
1001
0001
1000
0110
0001
,
1000
0110
0010
1000
0011
0000
0110
0000
,
2200
0000
0000
0000
,
0000
0000
0000
0000
,
3300
0000
0000
0000
;
