#TITLE:You Only Live Once;
#SUBTITLE:;
#ARTIST:YURI!!! on ICE feat. w.hatano;
#TITLETRANSLIT:You Only Live Once;
#SUBTITLETRANSLIT:;
#ARTISTTRANSLIT:YURI!!! on ICE feat. w.hatano;
#GENRE:ANIME;
#CREDIT:;
#MUSIC:You Only Live Once.ogg;
#BANNER:You Only Live Once.png;
#BACKGROUND:You Only Live Once-bg.png;
#CDTITLE:;
#SAMPLESTART:1.090;
#SAMPLELENGTH:15.238;
#SELECTABLE:YES;
#OFFSET:2.702;
#BPMS:0.000=126.000;
#STOPS:;
#LASTBEATHINT:3.621284;
#BGCHANGES:6.000=You Only Live Once.avi=1.000=0=0=0=StretchNoLoop====,
99999.000=-nosongbg-=1.000=0=0=0=StretchNoLoop====
;
#FGCHANGES:;

//--------------- dance-single - ----------------
#NOTES:
     dance-single:
     :
     Hard:
     11:
     0,0,0,0,0:
0000
0000
0000
0000
,
0000
0000
0000
0000
,
0001
0000
0000
0010
0000
0000
0001
0000
0000
0000
0010
0000
0010
0000
0100
0000
,
1000
0000
0000
0100
0000
0000
1000
0000
0000
0000
0001
0000
0001
0000
0100
0000
,
0001
0000
0000
1000
0000
0000
0001
0000
0000
0000
1000
0000
1000
0000
0010
0000
,
0100
0000
0000
0001
0000
0000
1001
0000
0000
0000
1001
0000
0001
0000
1000
0000
,
0001
0100
0001
0100
0010
1000
0010
1000
,
0001
0010
0001
0010
0100
1000
0100
1000
,
0002
0010
1000
0010
,
2003
0010
0001
0010
,
3001
0000
0000
1000
0000
0010
0100
0000
0001
0000
0000
1000
0000
0010
0100
0000
,
0100
0000
0000
0001
0000
0010
0100
0000
1000
0000
0000
0001
0000
0010
0100
0000
,
1000
0000
0000
0001
0000
1000
0100
0000
1000
0000
0000
0001
0000
1000
0100
0000
,
0100
0000
0000
1000
0000
0001
0100
0000
0001
0000
0000
1000
0000
0001
0100
0000
,
0100
0000
0000
0010
1000
0000
0000
1000
0100
0000
0000
0100
0010
0000
0000
0010
,
0001
0000
0000
0001
0100
0000
0000
0100
1000
0000
0000
1000
0100
0000
0000
0100
,
0001
0010
0001
0100
0001
1000
0010
1000
,
1001
0000
0000
0000
1001
0000
0000
0000
1001
0000
0000
0000
1001
0000
0001
0010
,
0000
0000
0100
0000
0100
0000
1000
0001
0000
0000
0100
0000
0010
0000
1000
0010
,
0000
0000
0100
0000
0100
0000
0001
1000
0000
0000
0000
0000
0100
0000
1000
0001
,
0000
0000
0010
0000
0010
0000
0100
1000
0000
0000
0010
0000
0100
0000
0001
1000
,
0000
0000
0001
0000
0010
0000
0001
1000
0000
0000
0001
0000
0001
0000
0010
0000
,
0100
1000
0001
0100
1000
0000
1000
0100
,
0001
0010
0100
1000
0001
0000
0001
0010
,
0100
1000
0100
0001
0100
0000
0100
1000
,
0010
0100
0001
0010
0100
1000
0001
1000
,
0002
0100
2003
0100
,
3002
0100
2003
0100
,
3002
0100
2003
3100
,
1001
0000
1001
0000
1000
0100
0000
1000
0100
0000
0110
0000
0110
0000
0000
0000
,
0001
1000
0001
1000
0010
0100
0010
0100
,
0001
0010
0100
1000
0001
0010
0110
0000
,
0001
0000
1000
0000
0001
0000
1000
0100
0000
0000
0100
0000
0010
0000
0001
1000
,
0000
0000
0010
0000
1000
0000
0001
0100
0000
0000
0010
0000
0100
0000
0010
1000
,
0000
0000
0001
0000
0010
0000
0100
1000
0000
0000
0010
0000
1000
0000
0100
0010
,
0000
0000
0001
0000
1000
0000
0001
0100
0000
0000
0010
0000
1000
0000
0000
1000
,
0100
0000
0000
0100
0010
0000
0000
0010
0001
0000
0000
0001
1000
0000
0000
1000
,
0010
0000
0000
0010
0100
0000
0000
0100
0001
0000
0000
0001
1000
0000
0000
1000
,
0010
0000
0000
0100
0010
0000
0000
0001
0010
0000
0000
0100
0010
0000
0000
1000
,
0100
0000
0000
0010
0100
0000
0000
0001
0100
0000
0000
1000
0100
0000
0001
0000
,
0100
1000
0100
0100
0001
0100
1000
1000
,
0001
0100
0010
0010
1000
0100
0010
0010
,
0001
0010
1000
1000
0010
0001
0100
0100
,
0010
1000
0100
0100
0010
0001
1000
1000
,
0001
0010
0001
0010
0100
1000
0100
1000
,
0001
0100
0001
0100
0010
1000
0010
1000
,
0010
0100
0010
0100
0010
0100
0010
0100
,
0001
1000
0001
1000
0001
1000
0001
1000
,
2002
0000
0000
3003
;

//--------------- dance-single - ----------------
#NOTES:
     dance-single:
     :
     Challenge:
     14:
     0.02634,0.029284,0,0.021692,0,17,17,0,2,0,0,0.02634,0.029284,0,0.021692,0,17,17,0,2,0,0:
0000
0000
0000
0000
,
0000
0000
0000
0000
,
0101
0000
0000
0001
0010
0000
0110
0000
1000
0100
0010
0000
0001
0000
0100
0000
,
0110
0000
0000
0010
1000
0000
1001
0000
0001
0010
0001
0000
1000
0100
1000
0000
,
1010
0000
0000
0100
0001
0000
0010
0000
0100
1000
0010
0000
0110
0000
0100
0001
,
1000
0000
0000
0010
0100
0000
0110
0000
0000
0100
0001
0000
0001
0010
0100
1000
,
1001
0001
1001
1000
1001
0001
0011
0000
,
1100
0100
1100
1000
1001
0001
0101
0000
,
2000
0100
0010
0100
3002
0010
0100
1000
,
1003
0100
0010
0001
1000
0100
0010
0001
0010
0100
1000
0001
0010
0100
1000
0001
,
0100
0010
0000
1000
0000
0010
0100
0000
0001
1000
0000
0010
0000
1000
0001
0000
,
0001
0010
0000
0100
0000
0010
0001
0000
1000
0010
0000
0100
0000
0010
1000
0000
,
1000
0100
0000
0001
0000
0100
1000
0000
0001
0100
0000
1000
0000
0100
0001
0000
,
0001
0010
0000
0100
0000
1000
0001
0000
0100
1000
0000
0100
0000
0001
0010
0000
,
0100
1000
0000
0100
0010
0000
0001
0000
0100
0001
0000
0100
0010
0000
1000
0000
,
0100
0010
0000
0100
1000
0000
0010
0000
0100
0001
0000
0100
0010
0000
1000
0000
,
0001
0010
0100
0000
1000
0010
0100
0000
0001
0010
0100
0000
1000
0010
0100
0000
,
0110
0000
0000
0000
0110
0000
0000
0000
0110
0000
0000
0000
0110
0000
0001
1000
,
0000
1000
0200
0000
0010
0000
1000
1300
0000
0000
0001
0000
0100
0000
0100
0001
,
0000
0001
0020
0000
0100
0000
0001
0031
0000
0000
0001
0000
0010
0000
0100
1000
,
0000
1000
0020
0000
0001
0000
1000
1000
0000
0130
0000
0100
0001
0000
0001
0010
,
0100
0000
0001
0000
0001
0100
1000
0001
0000
0000
0011
0000
2001
0000
0001
3020
,
0000
0100
1030
0000
0020
0000
0100
0031
0000
0000
1010
0000
0102
0000
1000
0023
,
0000
0130
0002
0000
0023
0000
0100
1030
0000
0000
1100
0000
0021
0000
0100
2030
,
0000
0001
3100
0000
0120
0000
1000
0031
0000
0000
0110
0000
1001
0000
1001
0000
,
0001
0100
0010
0100
1000
0100
0010
1000
0100
0010
0100
1000
2100
0000
0000
0000
,
0001
3002
1000
2003
,
0001
3002
1000
2003
,
0010
0000
3002
0000
0010
0000
2003
3000
,
1001
0000
1001
0000
0001
0010
0000
0100
1000
0000
1100
0000
0100
0010
0001
0000
,
1000
0100
0001
0100
1000
0010
0001
0010
,
1000
0010
0100
0001
1000
0010
0100
0001
0010
0100
1000
0001
0101
0000
0000
0000
,
1010
0000
1010
0000
1000
0010
0100
0001
1000
0000
0100
0000
0010
0000
0001
0010
,
0100
0000
0010
0000
0100
0010
0001
0010
1000
0000
0010
0000
0100
0000
1000
0010
,
0100
0000
0010
0000
0100
0010
1000
0010
0001
0000
0010
0000
0100
0000
0001
0010
,
0100
0000
0010
0000
1000
0010
0001
0100
1000
0000
0100
0000
0110
0000
0010
1000
,
0000
1000
0100
0010
0001
0010
0100
0010
0001
0000
0100
0000
0110
0000
0100
0001
,
0000
0001
0100
0010
1000
0010
0100
0010
1000
0000
0001
0000
1001
0000
1000
0100
,
0000
0100
0010
0001
1000
0001
0010
0100
1000
0000
0001
0000
0101
0000
0100
0010
,
0000
0010
0100
0010
1000
0010
0100
0010
0001
0010
0100
1000
0100
0010
0100
0001
,
0100
1000
0000
0100
0000
0100
0001
0000
0001
0010
0000
0110
0000
0100
1000
0000
,
1000
0001
0000
0101
0000
0100
0010
0000
0010
1000
0000
1010
0000
0010
0100
0000
,
0100
0002
0000
0023
0000
0100
2030
0000
0010
3200
0000
0302
0000
0010
2003
0000
,
0010
3002
0000
0203
0000
0010
2300
0000
0100
3020
0000
0032
0000
0100
0013
0000
,
1010
1000
1001
0001
0011
0001
1100
1000
,
1010
0010
0011
0010
1010
1000
1001
0001
,
0011
0011
1010
1010
1100
1100
0101
0101
,
0110
0000
1001
0000
0001
0010
0100
1000
0001
0010
0100
1000
0010
0100
0001
2000
,
0001
0000
0000
0001
0000
0000
0001
0000
0000
0002
0000
0000
0000
0000
0000
0000
,
3003
0000
0000
0000
;
