#TITLE:夜に駆ける -Full song-;
#SUBTITLE:;
#ARTIST:YOASOBI;
#TITLETRANSLIT:Yoru ni Kakeru -Full song-;
#SUBTITLETRANSLIT:;
#ARTISTTRANSLIT:YOASOBI;
#GENRE:POP;
#CREDIT:;
#MUSIC:Yoru ni Kakeru -Full song-.ogg;
#BANNER:Yoru ni Kakeru -Full song-.png;
#BACKGROUND:Yoru ni Kakeru -Full song--bg.png;
#CDTITLE:;
#SAMPLESTART:75.109;
#SAMPLELENGTH:14.308;
#SELECTABLE:YES;
#OFFSET:1.504;
#BPMS:0.000=130.000;
#STOPS:;
#LASTBEATHINT:1.110246;
#BGCHANGES:3.250=Yoru ni Kakeru -Full song-.avi=1.000=0=0=0=StretchNoLoop====,
99999.000=-nosongbg-=1.000=0=0=0=StretchNoLoop====
;
#FGCHANGES:;

//--------------- dance-single - ----------------
#NOTES:
     dance-single:
     :
     Hard:
     14:
     0.688369,0.697048,0.41487,0.178889,0.549988,1266,1157,109,47,0,0,0.688369,0.697048,0.41487,0.178889,0.549988,1266,1157,109,47,0,0:
0000
0000
0000
0000
,
0000
0000
0000
0000
0000
0000
0001
1000
,
0100
0000
0000
1000
0000
0000
0001
0000
0100
0000
0001
0000
1000
0000
0001
0000
,
0010
0000
0100
1000
0000
1000
0000
0000
1001
0000
0000
0000
1000
0000
0100
0000
,
0001
0000
0000
0100
0000
0000
1000
0000
0001
0000
0100
0000
0010
0000
1000
0000
,
0001
0000
0000
0100
0000
0000
0001
0000
1000
0000
0001
0000
0010
0000
0100
0000
,
1001
0000
0000
1000
0000
0000
0001
0000
0010
0000
0100
0000
0010
0000
0100
0000
,
1000
1000
0001
0001
0000
1000
0010
0100
,
1000
0000
0000
0100
0000
0000
0001
0000
0010
0000
0100
0000
1000
0000
0001
0000
,
1000
0000
1001
0000
1001
0000
0000
0000
0011
0000
0000
1000
0100
1000
0100
0000
,
1000
0001
0000
1000
0000
0000
0001
0000
0100
0000
0001
0000
0010
0100
0010
0000
,
0100
1000
0000
0001
0000
0000
1000
0000
0010
0000
0001
0000
0010
0000
0100
0000
,
1000
0100
0000
0001
0000
0000
1000
0000
0001
0000
0010
0000
0100
0000
1000
0000
,
0001
0000
0010
0200
0000
0000
1000
0000
1300
0000
0010
0000
0100
0001
0100
0000
,
0001
1000
0000
0001
0000
0000
0010
0000
1000
0000
0010
0000
0100
1000
0100
0000
,
1000
0001
0000
0100
0000
0000
0010
0000
0100
0000
0001
0000
0010
0100
0010
0000
,
0100
1000
0000
0100
0000
0000
0010
0000
0001
0000
0100
0000
1000
0000
0001
0000
,
0000
0000
0010
0000
1000
0100
1000
0000
0001
0100
0001
0000
1000
0000
0000
0000
,
0011
0001
0010
0100
0000
1000
0001
0010
,
0000
1001
0000
1000
0100
1000
0100
0001
,
0100
1000
0001
0100
1000
0100
0001
1001
,
0000
1001
0000
1000
1000
0001
0001
0100
,
0010
0000
1000
0000
0001
0000
1000
0000
0010
0000
0000
0100
0000
0000
0001
0000
,
1000
0000
0001
0010
0000
1000
0000
0000
0110
0000
0000
0000
0010
0000
0001
0000
,
0010
0100
1000
0002
0000
0100
0100
1003
,
0000
0000
0011
0000
1001
0000
0000
0000
1010
0000
0000
0110
0000
0000
0101
0000
,
0100
0001
0010
0100
0000
1000
0001
1001
,
0000
1001
0000
1000
1000
0001
0001
0100
,
1000
0001
1000
0100
0001
0010
0100
0110
,
0000
1001
0000
1000
0010
0100
0001
0100
,
0010
0000
1000
0000
0001
0000
0100
0000
1000
0000
0000
0100
0000
0000
0001
0000
,
0010
0000
0100
0001
0000
0101
0000
0000
1100
0000
0000
0000
1000
0000
0100
0000
,
0010
0001
0010
0100
0000
1000
0001
1000
,
0100
0000
0010
0000
0100
0000
0000
0000
1001
0000
1000
0100
0010
0000
0001
0000
,
0010
0000
0001
1000
0000
0001
0100
0000
0000
0010
1000
0100
1000
0000
1000
0100
,
0010
0000
0010
0001
0000
0010
1000
0000
0000
0001
0100
1000
0100
0000
1000
0100
,
0010
0000
0001
0000
0100
1000
0100
0010
0000
0000
0010
0000
1000
0100
0010
0001
,
0000
0000
0010
0000
0000
0000
0010
0000
0001
0000
1000
0010
0000
1000
0001
0000
,
2000
3020
0230
0302
0023
0230
2300
3002
,
0203
0320
0230
0302
0000
1003
0010
1000
,
0001
0000
0100
0000
0001
0000
0100
0000
0010
0000
1000
0000
0001
1000
0001
1000
,
0001
0000
0001
1000
0000
1001
0000
0000
1001
0000
0001
0000
0010
0000
1000
0000
,
0010
0000
0001
0010
0000
0100
1000
0000
0100
0000
1000
0000
0001
0000
0100
0000
,
1000
0000
0100
0001
0000
0100
0010
0000
1000
0000
0000
0000
2000
0000
3200
0000
,
0320
2030
3020
0230
2300
3002
0203
0320
,
0032
0000
1003
0100
0000
0100
0001
0000
1001
0000
0000
0000
1001
0000
0001
0000
,
0010
0000
0000
0100
0000
0000
1000
0000
0001
0000
0020
0000
0230
0000
2300
0000
,
3100
0000
0010
0001
0000
1000
0100
0000
0010
0000
0000
0000
0001
0000
0100
0000
,
0001
0010
0100
0001
0100
1000
0010
0100
,
0002
0000
0203
0000
0320
0000
2030
0000
3010
1000
0100
0000
0010
0001
0100
0000
,
1000
0000
0100
0001
0000
0100
0001
0000
1000
0000
0001
0000
0010
0000
0100
0000
,
1000
0000
0100
1000
0000
0100
1000
0000
1001
0000
0000
0000
1000
0000
0100
0000
,
0010
0001
0011
0001
0100
0010
1010
1000
,
0001
0000
0010
0100
0000
0110
0000
0000
1001
0000
0000
0000
0001
0000
0100
0000
,
1000
0000
0000
0100
0000
0000
0001
0000
1000
0000
0110
0000
0110
0000
0110
0000
,
0002
0000
2003
0000
3002
0003
1001
0000
0000
0000
1100
0000
0100
0000
0010
0000
,
0001
0000
1000
0100
1000
0000
0100
0010
0000
0000
0011
0000
0001
0010
0100
0000
,
0100
1000
0000
1100
0000
0000
0110
0000
0100
0000
1000
0000
1000
0100
0010
0000
,
0010
0001
0000
0011
0000
0000
0110
0000
1000
0000
0010
0000
0100
0000
0001
0000
,
0001
0010
0000
1100
0000
0000
0110
0000
1000
0000
0010
0000
1000
0000
0100
0000
,
0010
0000
0001
1000
0000
0000
0001
0000
0100
0000
1000
0000
0100
0001
0010
0000
,
0010
0100
0000
1100
0000
0000
0011
0000
0001
0000
0010
0000
0001
1000
0010
0000
,
0100
0001
0000
1010
0000
0000
0101
0000
0001
0000
0010
0000
0100
1000
0001
0000
,
0001
0100
0000
1010
0000
0000
1001
0000
1000
0000
0010
0000
0100
0000
0001
0000
,
0000
0000
0001
0000
0001
0100
0010
0000
0010
1000
0100
0010
0001
0000
0000
0000
,
0100
0010
0100
0010
0000
1000
1000
0001
,
0000
0001
0000
1000
0100
0001
1000
0010
,
1000
0010
0001
0100
1000
0100
0010
1010
,
0000
0000
0101
0000
0000
0000
0010
0000
1000
0000
0010
0000
0100
0001
0100
0000
,
0001
0000
0010
0100
0000
0010
0001
0000
1000
0000
0100
0010
0000
0100
1000
0000
,
0010
0000
0100
0001
0000
0010
0100
0000
1000
0000
0000
0000
0001
0000
0001
0000
,
1000
0000
1000
0001
0010
0000
0100
1000
0001
0000
0000
0001
0010
0100
1000
0000
,
0000
0000
0011
0000
0000
1010
0000
0000
1100
0000
0000
0101
0000
0000
1001
0000
,
0010
0000
1000
0100
0010
0000
0010
0100
1000
0000
0001
0100
0010
0000
0010
0100
,
0001
0000
1000
0100
0010
0000
0001
0100
0010
0000
1000
0000
0001
0000
0010
0000
,
0100
0000
1000
0100
0001
0000
0001
0100
1000
0000
0001
0100
1000
0000
1000
0100
,
0001
0000
1000
0010
0001
0000
0001
0010
1000
0000
0000
1000
0100
0010
0001
0010
,
0000
0000
0001
0100
0010
1000
0010
0100
0000
0000
1000
0100
0001
0010
1000
0010
,
0000
0001
1001
1000
0110
0010
1001
0100
,
0110
0000
0001
0010
0100
1000
0001
0001
,
0010
0000
0100
1000
0000
0001
0010
0100
0000
0001
0100
1000
0001
0000
0100
0001
,
0000
0100
0000
1000
0100
0000
0010
0001
0000
1000
0100
0000
0100
0001
0010
0100
,
1000
0001
0000
0100
0001
0000
1000
0001
0000
0010
0001
0010
0100
0000
1000
0001
,
0100
0010
0000
0100
0001
0000
1000
0010
0000
0100
0001
0010
1000
0001
0100
1000
,
0010
0001
0000
0010
0100
0000
0010
1000
0000
0001
1000
0001
0000
1000
0100
0000
,
0010
0001
0000
0010
1000
0000
0001
0100
0000
0100
1000
0100
0001
0100
0000
1000
,
0010
0000
0100
0010
0000
0100
0001
0010
0000
0100
1000
0010
0100
0000
0001
0100
,
0000
1000
0000
0100
0001
0000
1000
0100
0001
0000
0100
1000
2200
0000
3300
0000
,
1100
0000
1000
0000
0001
0000
1000
0000
0110
0000
1000
0010
0000
0101
0000
0101
,
0000
0000
0110
0000
0010
0000
0100
0000
0001
0000
1000
0100
0000
0011
0000
0011
,
0000
0000
1000
0100
0000
0011
0000
1001
0000
0000
0001
0000
0010
0000
1000
0000
,
0010
0000
0001
1000
0000
1001
0000
1001
0000
0000
0001
0000
0100
0000
0010
0000
,
1000
0000
0010
1000
0100
0000
0010
0001
0100
0000
0001
0100
0000
1010
0000
1010
,
0000
0001
0010
0001
0010
0100
1000
0100
,
1000
0001
0100
0010
0100
1000
0100
1001
,
0000
0000
1000
0010
0000
0010
0100
0000
0100
0001
0000
0001
1000
0000
1000
0100
,
0010
0000
0001
0010
0000
1000
0010
0000
0000
0001
0100
0010
1000
0000
0001
0100
,
0010
0000
1000
0010
0000
0001
0010
0000
0000
1000
0010
0100
0001
0000
0001
0010
,
0000
0000
0010
0100
1000
0000
0001
0100
0000
0000
1000
0100
0001
0000
1000
0010
,
0000
1001
0000
0001
0101
1000
1100
0001
,
1001
0000
0001
0010
0000
0001
0100
0000
0000
0001
0010
0001
0100
0000
0010
1000
,
0001
0000
1000
0100
0000
1000
0010
0000
0000
0000
0000
0000
0100
0000
0001
0000
,
1000
0000
0000
1001
0000
1000
0100
0000
0000
1001
0000
0001
0100
0000
0010
0000
,
2000
0000
0000
0002
3000
1003
0001
1000
,
0000
0000
0000
0000
0000
1000
0100
1000
,
0100
0000
0000
1000
0000
1000
0000
0000
0001
0000
0001
0000
0100
0000
0001
0000
,
0100
0000
0001
1000
0000
0001
1000
0000
0010
0000
0000
0000
0100
0000
0001
0000
,
0010
0001
0100
0001
1000
0100
1000
0010
,
1000
0000
0000
0100
0010
0100
0000
0000
1001
0000
0000
0000
0100
0000
0001
0000
,
1001
0000
0000
1000
0000
0000
0001
0000
0100
0000
1000
0000
0100
0000
0001
0000
,
1000
0000
0001
0010
0000
1100
0000
0000
1001
0000
0000
0000
1000
0000
0100
0000
,
0001
1000
0010
0001
0100
1000
0001
0010
,
2000
0000
0000
0002
0000
3003
2002
3003
,
1001
0000
0001
0100
0000
0100
0001
0000
1000
0010
0000
0010
1000
0000
0001
0010
,
0100
0000
0100
1000
0000
0001
0100
0000
1000
0000
0100
0000
0001
0000
0010
0000
,
0100
0000
1000
0010
0000
0100
0001
0000
0101
0000
0000
0000
0001
0000
0100
0000
,
0010
0001
1000
0100
0010
1000
0001
0010
,
0100
0000
0010
0001
0000
0011
0000
0000
1100
0000
0000
0000
1100
0000
0100
0000
,
0110
0000
0000
0010
0000
0000
0001
0000
1000
0000
0001
0000
0100
0000
0010
0000
,
1000
0000
0001
0010
0000
0010
0100
0000
1100
0000
0000
0000
1000
0000
0100
0000
,
1000
0001
0100
0001
0010
1000
0001
0100
,
2000
0000
0000
0000
3010
0000
0100
0001
0100
0000
0010
1000
0010
0000
0100
0010
,
0100
0000
0010
1000
0000
0010
0100
0000
0101
0000
1010
0000
1000
0000
1001
0000
,
0001
0000
1000
0100
0000
1000
0010
0000
0110
0000
0000
0000
1000
0000
0010
0000
,
0100
1000
0100
0001
1000
0010
1000
0001
,
0100
0000
1000
0100
0000
0001
0000
0000
1001
0000
0000
0000
1000
0000
0001
0000
,
1001
0000
0000
1000
0000
0000
0001
0000
1000
0000
0010
0000
0100
0000
0010
0000
,
0110
0010
0110
0200
0000
0010
0310
1001
,
0000
1000
0100
0010
0001
0010
0100
1000
,
0001
0011
1000
1010
0001
0101
1000
1100
,
0001
0100
0100
0100
0001
1000
0010
0100
,
0101
0000
0001
0100
0000
0100
0010
0000
0010
1000
0000
1000
0001
0000
0001
0010
,
0001
0010
0100
1000
0100
1000
0010
0200
0000
0000
0010
0000
0010
0000
0310
0000
,
0001
1000
0000
0001
0000
0000
1000
0000
0100
0000
1000
0000
0010
0100
0010
0000
,
0100
0001
0000
1000
0000
0000
0001
0000
0010
0000
1000
0000
0010
0000
0100
0000
,
0001
0100
0000
1000
0000
0000
0001
0000
1000
0000
0010
0000
0100
0000
0001
0000
,
1000
0000
0010
0200
0000
0000
0001
0000
0301
0000
0010
0000
0100
1000
0100
0000
,
1000
0001
0000
1000
0000
0000
0010
0000
0001
0000
0010
0000
0100
0001
0100
0000
,
0001
1000
0000
0100
0000
0000
0010
0000
0100
0000
1000
0000
0010
0100
0010
0000
,
0100
0001
0000
0100
0000
0000
0010
0000
1000
0000
0100
0000
0001
0000
1000
0000
,
0000
0000
1000
0010
0001
1000
0100
0010
0001
0000
0000
0011
0000
0000
1001
0000
;

//--------------- dance-single - ----------------
#NOTES:
     dance-single:
     :
     Challenge:
     16:
     0.809078,0.938334,0.647045,0.117991,0.808806,1488,1318,170,31,0,0,0.809078,0.938334,0.647045,0.117991,0.808806,1488,1318,170,31,0,0:
0000
0000
0000
0000
,
0000
0000
0000
0000
0000
0000
0001
0100
,
0001
0000
0000
0001
0000
0000
0010
0000
0100
0000
1000
0000
0100
0000
1000
0000
,
0010
0000
0100
0001
0000
1000
0000
0000
1001
0000
0000
0000
1000
0000
0010
0000
,
1000
0000
0000
0100
0000
0000
0010
0000
0001
0000
0100
0000
0010
0000
1000
0000
,
0001
0000
0000
0010
0000
0000
0100
0000
1000
0000
0001
0000
0010
0000
0100
0000
,
1001
0000
0000
0100
1000
0000
0001
0000
0010
0000
0100
0000
0010
0000
0001
0000
,
1000
1001
0001
1001
0000
1000
0010
0100
,
0001
0000
0000
0010
0000
0000
0001
0000
0100
0000
0010
0000
1000
0000
0001
0000
,
0100
0010
0200
0000
1000
0000
0000
0301
0010
0000
0100
1000
0100
0010
0001
1000
,
0100
0010
0000
0011
0000
0000
1100
0000
1000
0000
0010
0000
1000
0010
0100
0001
,
1000
0010
0000
0110
0000
0000
1010
0000
0100
0000
0001
0000
0010
0000
0100
0000
,
1000
0010
0000
0101
0000
0000
0101
0000
0001
0000
0010
0000
0100
0000
0010
0000
,
0001
0000
0001
2000
0000
0000
0010
0000
3100
0000
0010
0000
0001
0010
0100
1000
,
0001
0010
0000
1100
0000
0000
1100
0000
1000
0000
0010
0000
0100
0001
0100
0010
,
1000
0001
0000
0101
0000
0000
1010
0000
0010
0000
1000
0000
0010
1000
0010
0100
,
0001
0100
0000
0101
0000
0000
1001
0000
0001
0000
0010
0000
0100
0000
1000
0000
,
0000
0000
1000
0100
0010
0100
1000
0100
0010
0001
0010
0100
1000
0000
0000
0000
,
1001
0000
0001
0000
0010
0000
1000
0000
0000
0010
0001
0000
1000
0000
0010
0000
,
0000
1001
0000
0001
0100
1000
0100
0001
,
0001
0010
1000
0001
0100
1000
0001
1001
,
0000
1001
0000
1000
1000
0010
0010
0100
,
0001
0000
0010
0000
0100
0000
1000
0000
0001
0000
0000
0011
0000
0000
0010
0000
,
0100
0000
1000
0010
0000
0110
0000
0000
0110
0000
0000
0000
0001
0000
1000
0000
,
0001
1000
0010
0200
0000
0010
0010
0310
,
0000
0000
1010
0000
1001
0000
0000
0000
0011
0000
0000
0110
0000
0000
1100
0000
,
1000
0100
0001
0100
1000
1000
0001
1001
,
0000
1001
0000
0001
0001
0010
0010
0100
,
1000
0001
0100
0100
0100
0001
1000
1001
,
0000
1001
0000
0001
0010
0100
1000
0001
,
0010
0000
1000
0000
0010
0000
0001
0000
1000
0000
0000
0001
0000
0000
1000
0000
,
0010
0000
0100
0001
0000
0101
0000
0000
0101
0000
0000
0000
1000
0000
0010
0000
,
0100
0001
0001
0010
0000
0010
0100
1000
,
0001
0000
0010
0000
0100
0000
0000
0000
1001
0000
1000
0100
0010
0000
0011
0000
,
0001
0000
0010
0100
0000
0100
1000
0000
0000
0001
0010
0100
0010
0001
0010
0100
,
1000
0000
1000
0010
0000
0010
0100
0000
0000
0001
0100
0010
0100
0001
0100
0010
,
1000
0000
1000
0010
0100
0001
0100
0010
0000
0000
0010
1000
0100
0010
0001
0010
,
0000
0000
0010
0001
0010
0100
0010
0001
1000
0000
1000
0010
0000
0010
0100
0000
,
0002
0023
0230
2300
3002
0203
0320
2030
,
3002
2003
3002
2003
0000
3001
0010
0010
,
0100
0000
0100
0000
1000
0000
0100
0000
0010
0000
0001
0000
0100
0010
0100
0010
,
0100
0000
0100
0010
0000
0110
0000
0000
0110
0000
0101
0000
0110
0000
1100
0000
,
0110
0000
0100
0001
0000
0001
0010
0000
0100
0000
1100
0000
0010
0000
0011
0000
,
0001
0000
0010
0100
0000
0100
1000
0000
0001
0000
0101
0000
0020
0000
2030
0000
,
3200
0000
0320
0000
0031
0100
1000
0000
0001
0000
0010
0000
1000
0100
0001
0000
,
0100
0000
1000
0001
0000
0001
0010
0000
0110
0000
0000
0000
1001
0000
0001
0000
,
0010
0000
0100
1000
0000
1000
0001
0000
0100
0000
1010
0000
0110
0000
0101
0000
,
0100
0000
0001
1000
0000
1000
0100
0000
0001
0000
0100
0000
1000
0000
0001
0000
,
0100
0000
1000
0000
0100
0001
0100
0000
0010
0000
0100
0000
0010
1000
0010
0000
,
2000
0000
3200
0000
0320
0000
0032
0000
1003
0100
1000
0100
0010
0001
0010
0001
,
1000
0000
0100
0010
0000
0010
0001
0000
1000
0000
1001
0000
0001
0000
1001
0000
,
1000
0000
1000
0100
0000
0100
0010
0000
0001
0000
0010
0000
0100
0000
1000
0000
,
0100
0110
0001
1001
1000
1010
0100
0101
,
0001
0000
0010
0100
0000
0100
1000
0000
0011
0000
0000
0000
0001
0000
0010
0000
,
0100
0000
0000
1001
0000
0000
0101
0000
1001
0000
0010
0000
0010
0000
0010
0000
,
0101
1001
1100
1001
0000
1001
1000
0100
,
1000
0100
0010
0001
1000
0010
0100
0002
0000
0000
1003
0000
1000
0100
0010
0001
,
0010
0100
0000
1100
0000
0000
1100
0000
0010
0000
0001
0000
0001
0100
0010
0100
,
0001
1000
0000
1010
0000
0000
1010
0000
1000
0000
0010
0000
0100
0000
0010
0000
,
1000
0001
0000
0011
0000
0000
1100
0000
0001
0000
0010
0000
0001
0000
0100
0000
,
0010
0000
0010
1000
0000
0000
0001
0000
0100
0000
1000
0000
0100
0001
0010
0100
,
1000
0100
0000
1100
0000
0000
1100
0000
1000
0000
0100
0000
0010
0001
0010
0100
,
0010
0001
0000
0011
0000
0000
0011
0000
0001
0000
0010
0000
0100
0010
0001
0010
,
0100
1000
0000
1100
0000
0000
1100
0000
1000
0000
0010
0000
0100
0000
0001
0000
,
0000
0000
0001
0100
0010
0100
1000
0100
0001
1000
0100
0010
0100
0000
1000
0000
,
0100
0000
0000
0011
0000
0000
0001
0000
0010
0000
0000
1100
0000
0000
1001
0000
,
0000
0001
0100
1000
0100
0001
1000
0100
,
0010
0000
0000
0110
0000
0000
0001
0000
1000
0000
0000
1001
0000
0000
0011
0000
,
0000
0000
1100
0000
0000
0001
0010
0001
1000
0001
0010
0100
0010
0001
1000
0010
,
0100
0000
0010
0000
1000
0000
0010
0000
0100
0000
0001
0000
0010
0000
0100
0000
1000
0100
1000
0000
0100
0000
0010
0000
0001
0010
0001
0000
0010
0000
0100
0000
,
0010
0001
0100
0001
1000
0010
0100
0010
1000
0100
0010
0001
0100
0010
0100
0001
,
0010
0100
0010
0001
1000
0100
0010
0100
1000
0100
0010
0001
0000
0001
0010
0100
,
0000
0000
0011
0000
0000
1100
0000
0000
0011
0000
0000
1100
0000
0000
1001
0000
,
0100
0000
0100
0000
0100
0000
1000
0000
0100
0000
0010
0000
0100
0000
1000
0000
0100
0000
0010
0000
0001
0000
1000
0100
1000
0000
0100
0000
0010
0000
0001
0000
,
1000
0000
0001
0100
0010
0100
1000
0100
0001
0001
0010
0100
0001
0000
0100
0000
,
1000
0001
1000
0010
0100
0000
0010
1000
0100
0000
0100
1000
0010
0100
0001
1000
,
0001
0010
0001
1000
0100
0000
0100
0010
0001
0010
0001
1000
0100
0010
0001
0010
,
0000
0001
0100
0010
1000
0010
0100
0001
0000
1000
0100
0010
0001
0010
0100
1000
,
0000
0001
0100
0010
1010
0000
1001
0000
0101
0000
1001
0000
0011
0000
1100
0000
,
1001
0000
0001
0100
0001
0100
0001
0100
0001
0000
0000
0000
1001
0001
0010
0100
,
0010
0001
1000
0100
0000
0001
0100
1000
0000
0001
0100
0010
1000
0010
0100
0001
,
1000
0100
0000
0100
0010
0000
0010
0001
0000
0001
0010
0100
0001
0100
1000
0001
,
0100
0010
1000
0010
0000
1000
0100
0010
0000
0100
0010
0001
0100
0010
1000
0001
,
0100
0010
0000
0010
1000
0000
1000
0001
0000
0001
1000
0010
0100
0001
0100
0010
,
1000
0010
0000
0010
0100
0000
0100
0001
0000
0001
1000
0001
0100
1000
0100
0001
,
0100
0010
0000
0010
1000
0000
1000
0100
0000
0100
0010
0100
0001
0100
0010
0100
,
1000
0100
1000
0010
0000
0100
0001
0010
0000
0010
0001
0100
0010
0100
0010
1000
,
0100
0000
0010
0000
0100
0000
0010
0000
0001
0000
1000
0000
0001
0000
1000
0000
0001
0000
0010
0000
0100
0000
1000
0000
0100
1000
0100
1000
0100
1000
0100
1000
,
0100
0000
1000
0100
0001
0000
0001
0100
1000
0000
0001
0100
0000
1010
0000
0101
,
0000
0001
0010
0000
0011
0000
0110
0000
1100
0000
1000
0010
0000
0101
0000
1001
,
0000
0000
1000
0100
0000
0011
0000
1001
0000
0000
0001
0000
0010
0000
1000
0000
,
0010
0000
0001
1000
0000
1001
0000
1001
0000
0000
0001
0000
0100
0000
1000
0000
,
0100
0000
0010
1000
0100
0000
0010
0001
0100
0000
0010
1000
0000
1001
0000
1100
,
0000
0010
0001
0000
1000
0000
0100
0000
0010
0000
0001
0000
0010
0000
0100
0000
,
1000
0001
0100
0100
1000
0001
0010
1001
,
0001
0000
1000
0100
1000
0001
0100
0001
1000
0010
1000
0001
0010
0001
0010
0100
,
1000
0000
1000
0100
0000
0100
0010
0000
0000
0001
0010
0100
0010
0001
0010
0100
,
1000
0000
1000
0010
0000
0010
0100
0000
0000
0001
0100
0010
1000
0001
0100
0010
,
0000
0000
0010
1000
0100
0010
0001
1000
0000
0000
1000
0010
0100
0001
1000
0010
,
0000
0000
1000
0001
0000
0000
0101
0000
1001
0000
1100
0000
1001
0000
0101
0000
,
0110
0000
0010
1000
0000
1000
0001
0000
0000
0001
0010
0100
0010
0001
0100
0001
,
0010
0000
0010
0100
0000
0100
1000
0000
0000
0000
0000
0000
1000
0000
0100
0000
,
0010
0000
0000
1001
0000
0001
0010
0000
0000
1001
0000
1000
0010
0000
0110
0000
,
0001
0100
0010
0100
1000
0001
0010
0100
0010
1000
0001
0010
0100
0010
1000
0000
,
0000
0000
0000
0000
,
0001
0001
0001
0001
,
1000
1000
1000
1000
,
0010
0010
0010
0010
,
0100
0100
0100
1001
,
0011
0001
0101
0001
1010
1000
1100
1000
,
0101
0100
1100
0100
0011
0010
1010
0010
,
0011
0001
0101
0100
1100
1000
1010
0001
,
2001
0000
0000
0002
0000
3003
2002
3003
,
0001
0010
0100
0001
0100
1000
0001
0100
0001
1000
0010
0100
1000
0100
0001
1000
,
0001
0000
0001
0010
0000
0010
0100
0000
1000
0000
0011
0000
1000
0000
0011
0000
,
1100
0000
1000
0010
0000
0010
0100
0000
0101
0000
0000
0000
0001
0000
0100
0000
,
1000
0100
0001
1000
0001
0010
1000
0010
,
0001
0000
1000
0100
0000
0011
0000
0000
1001
0000
0000
0000
1001
0000
0010
0000
,
1001
0000
0000
0010
0000
0000
0100
0000
1000
0000
1010
0000
0001
0000
0011
0000
,
0100
0000
1000
0010
0000
0010
0001
0000
1001
0000
0000
0000
0001
0000
0100
0000
,
0001
0010
0100
1000
0010
1000
0001
0010
,
1000
0000
0000
0000
0010
0000
0001
0100
0001
0100
0010
1000
0010
1000
0001
0010
,
0100
0000
0100
1000
0000
1000
0001
0000
0100
0000
1010
0000
0001
0000
1010
0000
,
0101
0000
0001
0100
0010
0001
0010
1000
0001
0000
0010
0000
1000
0000
0001
0000
,
1000
0000
0010
0001
0100
0000
1000
0000
0100
0000
0001
0010
1000
0000
0001
0000
,
0100
0000
1000
0001
0100
0010
1000
0100
0001
0000
0100
0000
1000
0000
0001
0000
,
0110
0000
0000
1001
0000
0000
0001
0000
1000
0000
0001
0000
0010
0000
0100
0000
,
1001
0000
0001
1000
0001
0000
0020
0000
0000
0000
0100
0000
0130
0000
1001
0000
,
1100
0000
1000
0100
1000
0010
0100
0010
1000
0000
1000
0000
0010
0000
0100
0000
,
0010
1000
0001
1000
0100
1000
0001
1000
0001
0010
0001
1000
0001
0100
0001
1000
,
0001
0000
0010
0001
0010
0100
0010
1000
0010
0000
0001
0000
0100
0000
0010
0000
,
1001
0000
1000
0100
1000
0001
0010
0001
0010
0100
1000
0100
1000
0001
0100
0001
,
1000
0010
1000
0100
0010
0100
0010
0002
0000
0000
1000
0000
0100
0000
0103
0000
,
0100
0010
0000
1010
0000
0000
0101
0000
0001
0000
0010
0000
0001
0010
0100
1000
,
0001
0010
0000
0110
0000
0000
0011
0000
0100
0000
1000
0000
0010
0000
0100
0000
,
0001
0010
0000
1100
0000
0000
1100
0000
1000
0000
0010
0000
0100
0000
0010
0000
,
1000
0000
1000
0002
0000
0000
0010
0000
0103
0000
0010
0000
1000
0010
0100
0001
,
1000
0010
0000
0101
0000
0000
0101
0000
0001
0000
0010
0000
0100
1000
0100
0010
,
0001
1000
0000
1100
0000
0000
0011
0000
0010
0000
0001
0000
0010
0001
0010
0100
,
1000
0100
0000
1100
0000
0000
1001
0000
1000
0000
0010
0000
0100
0000
0001
0000
,
0000
0000
1000
0100
0010
0001
1000
0100
0110
0000
0000
0011
0000
0000
1001
0000
;
