#TITLE:ヨミガエレ;
#SUBTITLE:;
#ARTIST:フランシュシュ;
#TITLETRANSLIT:Yomigaere;
#SUBTITLETRANSLIT:;
#ARTISTTRANSLIT:FranChouChou;
#GENRE:ANIME;
#CREDIT:;
#MUSIC:Yomigaere.ogg;
#BANNER:Yomigaere.png;
#BACKGROUND:Yomigaere-bg.png;
#CDTITLE:;
#SAMPLESTART:83.961;
#SAMPLELENGTH:9.746;
#SELECTABLE:YES;
#OFFSET:0.252;
#BPMS:0.000=197.000;
#STOPS:;
#BGCHANGES:;
#FGCHANGES:;

//--------------- dance-single - ----------------
#NOTES:
     dance-single:
     :
     Medium:
     13:
     0,0,0,0,0:
0000
0000
0000
0000
,
0001
0010
0100
1000
0001
0010
0100
1000
,
0001
0010
0100
0000
1000
0010
0100
0001
,
1000
0010
0100
0001
1000
0010
0100
0000
,
0001
0010
0100
1000
0001
0100
0010
1000
,
0100
0010
0011
0000
0002
0000
0000
0000
,
0023
0000
0230
2300
,
3002
0000
0003
0000
0001
1000
0100
0010
,
0001
0100
0001
0010
0100
1000
0001
0000
,
0010
0001
0100
0010
1000
0100
1000
0010
,
0100
0001
1000
0000
0001
0100
1000
0100
,
0001
0010
0100
0010
0001
0100
0010
0000
,
1000
0010
1000
0010
0100
0001
0100
0001
,
0010
0100
1000
0001
0010
0100
1000
0100
,
0011
0000
1100
0000
0001
1000
0000
0002
,
0000
0103
0020
0000
2030
0000
3200
0000
,
1300
0001
0000
1001
0000
1000
0010
0000
,
1010
0000
0101
0000
1000
0001
0001
2000
,
0000
3100
0020
0000
0032
0000
0203
0000
,
0301
1000
0000
1002
0000
0103
0020
0000
,
0130
0001
0010
0100
0001
0100
1000
0010
,
0100
0010
1000
0001
0100
0010
0001
0010
,
1000
0001
0100
0010
1000
0100
0020
0000
,
0130
0000
1000
0001
1000
0000
0100
0000
0010
0000
0001
1000
0001
0000
0100
0000
,
0010
0000
1000
0001
1000
0000
0100
0000
0010
0000
0001
0000
0010
0000
0100
0000
,
1000
0001
0010
0100
1000
0001
0010
0000
,
0001
1000
0010
0100
0001
1000
0010
0100
,
0001
1000
0010
0000
0100
0001
0010
0100
,
1000
0010
0100
0001
0010
0100
1000
0000
,
0001
1000
0100
0001
1000
0010
0100
0001
,
1000
0010
0001
0100
0110
0000
1001
0000
,
0000
1000
0010
0100
0000
0110
0000
0000
,
1000
0010
1000
0000
0101
0000
0001
0020
,
0000
0230
0000
0000
1300
0010
0100
0010
,
2000
0000
3001
0020
0000
0130
2000
0000
,
3020
0000
0000
0130
0002
0000
0013
0200
,
0000
1300
0001
0000
1001
0000
1001
0000
,
1000
0100
0010
0100
0001
0100
0010
0000
,
0100
1000
0010
0000
0100
0001
0010
0100
,
0000
1100
0000
0110
0000
0011
0001
0010
,
0100
1000
0001
0100
0000
1001
0000
1000
,
0020
0000
0130
0020
0000
0031
0010
1000
,
0200
0000
0310
0200
0000
0301
0100
1000
,
0010
0100
0010
0100
0001
1000
0001
1000
,
0200
0320
0032
2003
,
3001
0101
1000
1100
,
0001
0011
1000
1010
,
0002
0023
0230
2300
,
3001
0100
0001
0000
1000
0010
1000
0000
,
0002
0010
1000
0013
,
2000
0010
0001
3010
,
0002
0000
0203
0000
0320
0000
1030
0100
,
0020
0130
1001
0000
,
1001
0001
0011
0001
,
1001
1000
1100
1000
,
1001
0000
0001
0000
0100
0000
1000
0100
,
0002
0000
0023
0000
0230
0000
0010
0010
,
0320
0000
1000
0000
0230
0000
1000
1000
,
2300
0000
0010
0000
3200
0000
0010
0010
,
0320
0000
0100
0000
0032
0000
1000
1000
,
1003
0100
0010
0100
1000
0100
0010
0000
,
0001
0100
0001
1000
0010
1000
0001
0010
,
0001
1000
0100
1000
0001
0100
0001
1000
,
0100
1000
0001
0010
0001
1000
0100
1000
,
0010
0100
0010
1000
0001
1000
0100
0010
,
0100
1000
0001
1000
0010
0100
0010
1000
,
0001
1000
0100
0010
0100
2002
0000
0000
,
0000
0000
0000
0000
,
0000
0000
0000
0000
,
3003
0110
0000
0010
0001
0100
0010
0100
,
0000
0110
0000
0010
1000
0100
0010
0100
,
0000
1001
0000
0001
0100
0001
1000
0010
,
1000
0001
0101
0000
1010
0000
0101
0000
,
1010
0000
1000
0100
0001
0100
0010
1000
,
0010
0001
0100
1000
0100
0010
0001
0010
,
1000
0010
1000
0100
1000
0100
0010
0001
,
0010
0011
0000
0001
1000
0000
1000
0010
,
0000
0110
0000
0100
0001
0010
0100
0010
,
0000
0110
0000
0100
1000
0010
0100
0010
,
0000
0100
0001
0000
0001
1000
0000
1100
,
0000
0000
0011
0000
0000
0000
0001
0000
0010
0000
0100
1000
0100
0000
1000
0100
,
1000
0100
0010
0001
0010
0100
1000
0100
,
0010
0001
0011
0000
1100
0000
0011
0000
,
1100
0000
0001
0100
0010
1000
0010
0100
,
0001
0100
1010
0000
0101
0000
1010
0000
,
0101
0001
0010
0000
0010
0100
0000
0100
,
1000
0000
1000
0010
0000
0010
0100
0001
,
0100
1000
0001
0010
0100
1000
0100
0001
,
0010
0000
0100
2000
0002
0000
0000
0000
0000
0000
0000
0000
3003
0000
0000
0000
,
1001
0000
0101
0000
1010
0000
0001
1000
,
0000
0002
0000
0013
0200
0000
2300
0000
,
3020
0000
1030
0001
0000
1001
0000
1000
,
0100
0000
1100
0000
0011
0000
1000
0001
,
0001
2000
0000
3010
0200
0000
0302
0000
,
0023
0000
0031
1000
0000
1002
0000
1003
,
0100
0010
0100
0010
0100
0000
1000
0000
0100
0000
0010
0000
1000
0000
0010
0000
,
0001
0100
0010
0100
0001
1000
0010
0100
,
1000
0100
0001
1000
0010
0100
0001
0010
,
0200
0000
0000
0000
0310
0000
0001
1000
0001
0000
0010
0000
0100
0000
1000
0000
,
0001
0100
0010
0100
0010
0100
0010
0100
0010
0100
0010
0000
0100
0000
0001
0000
,
0100
0010
1000
0001
0100
0010
1000
0001
,
0100
0000
0001
1000
0100
0010
0001
1000
,
0100
0010
0001
1000
0100
0000
0010
0001
,
0100
0010
1000
0100
0010
0001
0100
0010
,
1000
0000
0001
1000
0100
0010
0001
0010
,
0100
1000
0000
0001
1000
0000
0000
0000
;

//--------------- dance-single - ----------------
#NOTES:
     dance-single:
     :
     Hard:
     16:
     0,0,0,0,0:
0000
0000
0000
0000
,
0001
0010
0100
1000
0001
0010
0100
1000
,
0001
0010
0110
0000
1000
0010
0100
0001
,
1000
0010
0100
0001
1000
0010
0110
0000
,
0001
0010
0100
1000
0001
0100
0010
1000
,
0100
0010
0110
0000
0002
0000
0000
0000
,
0023
0000
0230
2300
,
3020
0000
0000
0000
0130
0001
1000
0010
,
0100
0001
0010
0100
1000
0001
0101
0000
,
0001
0100
0001
0010
0100
1000
0010
0100
,
0001
1000
1100
0000
1000
0100
0010
0100
,
1000
0001
0100
0010
0100
0001
1001
0000
,
1000
0100
1000
0100
0001
0100
0001
0100
,
1000
0010
1000
0010
0001
0010
0001
0010
,
1010
1000
0010
0000
0110
0100
0001
2000
,
0000
3100
0001
0100
0010
1000
0010
0001
,
1000
0000
1100
0000
0000
0000
0011
0000
0000
0000
0001
0100
0010
0000
0000
0000
,
1001
0001
0010
0000
0110
0100
1000
0002
,
0000
0103
1000
0100
0010
0001
0010
1000
,
0001
0000
0101
0000
0000
0000
1010
0000
0000
0000
1000
0010
1000
0010
1000
0010
,
0100
0000
0001
0100
0001
0000
1000
0000
0010
0000
0100
0001
0100
0000
0020
0000
,
0000
0000
1030
0100
1000
0000
0100
0000
0010
0001
0010
0000
0100
1000
0100
0000
,
0010
0000
0011
0000
0000
0000
1001
0000
0000
0000
0001
0100
0001
0100
0010
0000
,
1000
0010
0001
0010
1000
0001
0010
1000
,
0010
0001
0010
0001
1000
0100
1000
0100
0010
0000
0001
0000
0010
0000
0100
0000
,
1000
0001
0010
0100
1000
0001
1001
0000
,
1000
0010
0100
0001
1000
0010
0100
0001
,
1000
0001
1001
0000
0001
0010
0100
1000
,
0001
0100
0010
1000
0100
0010
0110
0000
,
1000
0010
0100
0001
0010
0100
1000
0001
,
0100
0010
0110
0000
1001
0000
1001
0000
,
0000
1000
0010
0100
0000
0110
0000
0000
,
0001
1000
0001
0000
0011
0000
0100
2000
,
0000
3002
0000
0000
1003
0010
0001
0010
,
2000
0000
3001
0020
0000
0130
2000
0000
,
3002
0000
0000
0000
0000
0000
0103
0010
0200
0000
0000
0000
0301
0000
2000
0000
,
0000
0000
3001
0000
0010
0000
0000
0000
1001
0000
0001
0010
0001
0000
0100
0000
,
0010
0000
1000
0010
1000
0000
0100
0000
0010
0000
0001
1000
0001
0000
0000
0000
,
1000
0000
0010
0100
0010
0000
1000
0000
0001
0000
1000
0100
1000
0000
0010
0100
,
0010
0000
1000
0000
0001
0000
0000
0000
1000
0100
1000
0100
0010
0000
0001
0000
,
1000
0010
1000
0010
0100
0000
0001
0000
1000
0000
0200
0000
0000
0000
0310
0000
,
0002
0103
0000
0010
2000
3100
0000
0010
,
0002
0103
0020
2030
3100
0020
0031
0000
,
1001
0000
1000
0000
0100
0000
0010
0000
0001
0000
1000
0000
0100
0000
0010
0001
,
2000
3200
0320
0032
,
1003
0000
1010
0000
0101
0000
1000
0100
,
1100
0000
0011
0000
1001
0000
0001
0100
,
1010
1100
0101
0011
,
0110
0010
0001
0000
0110
0100
1000
0010
,
0101
0000
1010
0000
1100
0000
0011
0001
,
0010
0000
1100
1000
0010
0000
0110
0001
,
2000
0000
0001
0000
3100
0000
1001
0010
,
0200
0000
0000
0000
1000
0000
0000
0000
0310
0000
0001
0000
1000
0001
1000
0001
,
1000
0110
1001
0101
,
0011
0000
1100
0000
1001
0000
0001
1000
,
1010
0000
0101
0000
1010
0000
1100
1000
,
0002
0000
0000
0000
0023
0000
0000
0000
0130
1000
0001
0000
0100
0001
0100
0001
,
1000
0000
0000
0000
1010
0000
0000
0000
1001
0000
0000
0000
0001
0010
0001
0010
,
0100
0000
0000
0000
1100
0000
0000
0000
1001
0000
0000
0000
1000
0010
1000
0010
,
0100
0000
0000
0000
0101
0000
0000
0000
1001
0000
0000
0000
1000
0100
1000
0100
,
0010
0100
0010
0100
1000
0001
1000
0001
,
1000
0100
0100
0001
0100
0100
1000
0010
,
0010
0001
0010
0010
1000
0100
0100
0001
,
0100
0100
1000
0010
0010
0001
0000
0000
,
0100
1000
1000
0100
0001
0001
0100
1000
,
1000
0100
0001
0001
0010
1000
1000
0010
,
0001
0001
0010
0100
1000
2002
0000
0000
,
0000
0000
0000
0000
,
0000
0000
0000
0000
,
3003
0000
1001
0000
0000
0000
1000
0100
1000
0000
0010
1000
0010
0000
0100
0000
,
0000
0000
1001
0000
0000
0000
0001
0100
0001
0000
0010
0001
0010
0000
0100
0000
,
0000
0000
1001
0000
0000
0000
1000
0100
1000
0000
0100
0001
0100
0000
1000
0000
,
0010
0000
0100
0000
0001
0000
1000
0010
1000
0000
0001
0100
0001
0000
1000
0010
,
1000
0000
0001
0000
0011
0000
0000
0100
1000
0000
0010
0000
1010
0000
0000
0100
,
0001
0000
0010
0000
0011
0000
0000
0001
0010
0000
0100
0000
1100
0000
0000
1000
,
0010
0100
0001
0010
0001
0010
0100
1000
,
0001
0000
1000
0000
0000
0000
1001
0000
1001
0000
0001
0000
0010
0001
1000
0001
,
1000
0000
1010
0000
0000
0000
0010
1000
0010
0000
1000
0100
1000
0000
0001
0000
,
0000
0000
0011
0000
0000
0000
0010
0001
0010
0000
0001
0100
0001
0000
1000
0000
,
0000
1000
0010
0000
0100
0001
0000
1100
,
0000
0000
0011
0000
0000
0000
1000
0000
0001
0010
0100
1000
0001
0100
0010
0100
,
0010
0100
0010
0100
0010
0000
1000
0000
1010
0000
0010
0000
0100
0000
0001
0000
,
0101
0100
0001
0010
0110
0100
1000
0001
,
1001
1000
0100
0010
0011
0001
1000
0010
,
0110
0100
0001
1000
1010
0010
0100
0001
,
1001
1000
1100
0000
0001
0101
0000
1000
,
1010
0000
0001
0011
0000
0001
0010
0100
,
1000
0001
0010
0100
0010
0100
0010
0100
,
1000
0002
2000
0000
0000
0000
3003
0000
,
1000
0100
1000
0100
0010
0000
0001
0000
0010
0000
0000
0000
0110
0000
0100
0000
,
1000
0002
0000
0103
1000
0100
0010
0001
,
0010
0000
1000
0000
0001
0000
0101
0000
0000
0000
1010
0000
0000
0000
1000
0100
,
0010
0000
1001
1000
0010
0000
0110
0100
,
0001
2000
0000
3100
0001
0100
0010
1000
,
0010
0000
0001
0000
1000
0000
1100
0000
0000
0000
0011
0000
0000
0000
0001
0010
,
0001
0010
0001
0010
0100
0000
1000
0100
1000
0000
0001
0000
0010
0000
0100
1000
,
0100
0000
0020
0000
0000
0000
0031
0100
0001
0000
0100
0000
0010
1000
0010
0000
,
0100
0001
0100
0000
0010
0000
1010
0000
0000
0000
1001
0000
0000
0000
1000
0100
,
1000
0100
0010
0000
0001
0000
0010
0000
1000
0000
0010
0000
0001
0000
1000
0000
,
0010
0000
0001
0000
0010
1000
0010
1000
0001
0100
0001
0100
0010
0000
1000
0000
,
0010
0100
0001
1000
0010
0100
0001
1000
,
1001
0000
0001
0010
0100
1000
0001
0010
,
0100
1000
0001
1000
1001
0000
1000
0010
,
0100
0001
1000
0100
0010
0001
0100
0010
,
0110
0000
0001
0010
0100
1000
0010
0100
,
0001
1000
0000
1001
1001
0000
0000
0000
;

//--------------- dance-single - ----------------
#NOTES:
     dance-single:
     :
     Challenge:
     18:
     0,0,0,0,0:
0000
0000
0000
0000
,
0011
0000
2100
0000
0000
0010
0000
3200
,
0000
0010
1300
0000
1010
0000
0102
0000
,
0000
0010
0000
0203
0000
0010
0301
0000
,
0110
0000
1002
0000
0000
1000
0000
0203
,
0000
0010
0301
0000
0102
0000
0100
0000
,
2003
0100
3020
0230
,
0302
0000
2000
3003
1100
0010
0100
1000
,
1010
0100
0001
0010
1100
1100
1001
0000
,
0101
0010
0100
0001
0011
0100
1000
0010
,
0101
0101
1001
0000
0011
1000
0100
0010
,
0011
1000
0010
0100
0011
0011
1001
0000
,
0110
0100
0001
0010
0001
0100
0001
0010
,
0100
0000
1000
0000
0100
0000
0010
0000
0001
1000
0100
0010
0001
1000
0100
0010
,
0001
0000
1000
0010
1000
0000
0001
0000
0010
0000
0100
1000
0100
0000
0020
0000
,
0000
0000
0130
1000
0001
0000
0100
0000
0010
1000
0100
0000
0010
0001
0100
0000
,
0001
0000
0011
0000
0000
0000
1100
0000
0000
0000
1000
0100
0010
0100
0010
0100
,
1000
0000
0001
0100
0001
0000
1000
0000
0010
0000
0100
0001
0100
0000
0020
0000
,
0000
0000
0130
0001
1000
0000
0010
0000
0100
0001
0010
0000
0100
1000
0010
0000
,
0100
0000
0101
0000
0000
0000
1010
0000
0000
0000
0001
0100
0010
0100
0010
0100
,
0001
0000
0010
0100
0010
0000
0100
1000
0001
0000
0100
0010
0100
0000
0010
1000
,
0001
0000
0010
0100
0010
0000
0100
1000
0001
0000
0100
0010
0100
0000
0010
1000
,
0001
0000
0010
0100
0010
0000
0100
1000
0001
0000
0100
0010
0100
0000
0001
0000
,
1000
0100
0010
0001
0010
0100
1000
0001
1000
0010
0100
0001
0100
0010
1000
0001
,
1000
0100
0010
0001
0010
0100
1000
0001
1000
0000
0001
0000
0010
0000
0100
0000
,
1000
0001
0010
0100
1000
0001
0010
0100
,
1100
1000
0010
0100
0001
1000
0010
0100
,
0001
1000
0010
0100
0101
0001
0011
0010
,
1010
1000
1100
0100
0101
0001
1001
0000
,
1100
1000
1010
0010
0011
0001
0101
0100
,
1100
1000
1010
0010
0110
0100
0010
0210
,
0000
1000
0000
0010
0000
1000
0000
0301
,
0010
0100
0010
0002
0000
0010
0000
0100
,
0000
0010
0000
1003
0010
0100
0001
0020
,
0000
0001
0000
0100
0000
1000
0000
0130
,
0020
0000
0000
0000
0000
0000
0031
0100
2000
0000
0000
0000
3100
0000
0002
0000
,
0000
0013
0200
0000
1300
0001
0010
0001
,
0100
0000
0010
0100
0001
0000
1000
0000
0100
0000
0010
0000
0011
0000
0000
0000
,
0001
0000
0100
0010
1000
0000
0010
0000
0100
0000
0001
0010
0100
0000
0110
0000
,
0000
0000
1000
0000
0001
0100
0001
0000
1000
0100
1000
0000
0001
0000
0010
0000
,
0100
1000
0001
0010
0100
1100
0000
1000
,
0001
0100
0010
0100
0001
0000
1000
0000
0001
0010
0100
0010
0001
0000
1000
0000
,
0010
0100
0010
0000
0100
0001
0100
0000
0001
0010
0100
0010
0001
1000
0100
0010
,
0100
0000
1000
0000
0001
0000
0100
0000
0010
0000
1000
0000
0010
0000
0100
0001
,
0200
0320
2030
3002
,
1003
0000
1001
0000
0001
0000
1000
0100
,
0110
0000
0000
0000
0001
0000
1001
0000
0000
0000
0001
0000
0100
0000
0010
1000
,
0001
0000
0011
0000
0001
0000
1000
0010
,
0110
0000
0001
0000
1000
0010
1000
0000
,
0020
0000
0100
0000
1000
0000
0130
0001
,
0020
0000
0130
1000
0020
0000
0130
0001
,
2000
0000
0001
0000
0100
0000
3001
0010
,
0200
0000
0000
0000
0000
0000
0010
0000
0000
0000
0000
0000
1300
0000
0000
0001
0000
0000
0100
0010
0100
0010
0100
0010
,
0100
0000
0110
0000
1000
0000
0001
1000
,
1001
0000
0011
0000
1000
0100
0010
0001
,
0020
0000
0001
0000
0100
0000
1030
0010
,
0002
0000
0000
0000
0203
0000
0000
0000
0310
1000
0010
0100
0010
0001
0010
0100
,
0002
0010
0013
0100
0020
0100
0130
1000
,
0200
0010
0310
0001
0020
0001
0031
0100
,
0002
1000
1003
0010
2000
0001
3001
0100
,
1000
0000
0100
0000
0001
0000
0010
0000
0100
1000
0100
0010
0001
0000
0000
0000
,
1010
0001
0001
1010
0001
0001
1100
0010
,
0010
1100
0010
0010
0101
1000
1000
0101
,
1000
1000
0011
0100
0100
0011
0100
0100
,
1010
0001
0001
1100
0010
0010
0101
1000
,
1000
0011
0100
0100
1010
0001
0001
1100
,
0010
0010
0101
1000
0010
2002
0000
0000
,
0000
0000
0000
0000
,
0000
0000
0000
0000
,
3003
0000
0110
0000
0000
0000
1000
0010
0100
0000
0100
0010
1000
0000
0001
0000
,
0010
0000
0110
0000
0000
0000
0001
0010
0100
0000
0100
0010
0001
0000
1000
0000
,
0010
0000
0110
0000
0000
0000
0001
0100
1000
0000
1000
0100
0010
0000
0010
1000
,
0100
0000
0010
0000
0001
0100
0010
0100
1000
0001
0010
0100
0010
1000
0100
0010
,
0100
0000
1000
0000
1001
0000
0001
0010
0100
0000
0010
0000
0100
0000
1000
0010
,
0100
0000
0010
0000
0100
0000
0001
0010
0100
0000
0010
0000
0100
0000
1000
0010
,
0100
0000
0010
0000
1000
0000
0001
0100
0001
0000
1000
0010
1000
0000
0001
0100
,
0001
0000
0011
0000
0000
0000
1001
0000
1001
0000
1000
0000
0100
0010
0100
0010
,
0100
0000
0110
0000
0000
0000
0010
0001
0100
0000
0100
0001
0010
0000
0001
0000
,
1000
0000
1010
0000
0000
0000
0010
1000
0100
0000
0100
1000
0010
0000
0100
0000
,
0001
1000
1010
0000
0001
0101
0000
1100
,
0100
0000
0011
0000
0000
0000
0001
0000
1000
0001
0010
0100
1000
0010
0100
0001
,
0010
0100
1000
0010
0100
0000
0001
0000
0011
0000
0100
0000
1000
0000
0010
0100
,
0010
0000
1000
0000
1010
0000
1000
0000
1001
0000
1000
0000
1100
0000
1000
0010
,
1000
0000
1000
0000
1010
0000
0010
1000
0100
0000
0010
0000
0100
0000
0010
0001
,
0100
0000
0001
0000
0011
0000
0001
0000
1001
0000
0001
0000
0101
0000
0001
1000
,
0001
0101
1010
0000
1010
1100
0000
1100
,
0101
0000
0101
0011
0000
0001
0101
1000
,
1100
0000
0001
0000
0011
0000
0010
0000
0100
0000
1000
0000
0100
0010
0100
0010
,
0001
1000
0010
0100
0020
0000
0000
0000
0000
0000
0000
0000
0000
0000
0000
0000
,
0130
0001
0100
0001
0010
0000
0000
0000
1001
0000
0000
0000
1100
0000
0100
0000
,
1001
0000
0001
0000
0010
0000
0100
1000
0100
0000
0010
0000
0001
0000
1000
0100
,
1000
0000
0100
0000
0010
0001
0010
0100
0010
0001
0010
0100
1000
0100
0010
0100
,
1000
0100
0010
0000
1001
0000
0001
0100
0001
0000
1000
0000
0010
0000
0100
0001
,
0100
0000
0010
0000
1000
0000
0010
1000
0010
0000
0100
0001
0100
0000
0010
0100
,
0010
0000
1000
0000
0010
0100
0001
0100
0010
0100
0001
0100
0010
1000
0010
0100
,
0010
1000
0010
0100
0001
0000
0100
0010
0100
0000
1000
0100
1000
0000
0100
0010
,
0100
0000
0001
0100
0001
0000
1000
0001
1000
0000
0001
0010
0001
0000
0010
0100
,
0010
0000
1000
0010
1000
0000
0010
0100
0010
0000
0100
0000
1000
0001
0100
0010
,
1000
0000
0001
0000
0100
0010
1000
0100
0001
0100
1000
0001
1000
0001
0100
1000
,
0100
0010
1000
0010
0100
0010
1000
0001
0100
0010
0100
0001
0100
0000
0001
0000
,
1000
0000
0100
0000
0010
0000
0001
0000
1000
0000
0100
0000
0010
0000
0001
0100
,
0010
0000
1001
1000
0010
0100
0001
1000
,
0010
0100
0001
0000
1001
0000
0001
0010
0100
0000
0010
0100
1000
0000
0010
0000
,
0001
0000
1000
0000
0100
0000
0001
0000
1000
0010
0100
0000
0110
0000
0010
1000
,
0100
0110
0010
0001
1000
0100
0001
1000
,
0010
0001
0100
0000
0000
0000
0101
0000
1100
0000
0000
0000
0000
0000
0000
0000
;
