#TITLE:宵々古今;
#SUBTITLE:;
#ARTIST:REOL;
#TITLETRANSLIT:YoiYoi Kokon;
#SUBTITLETRANSLIT:;
#ARTISTTRANSLIT:REOL;
#GENRE:POP;
#CREDIT:;
#MUSIC:YoiYoi Kokon.ogg;
#BANNER:YoiYoi Kokon.png;
#BACKGROUND:YoiYoi Kokon-bg.png;
#CDTITLE:;
#SAMPLESTART:53.824;
#SAMPLELENGTH:13.600;
#SELECTABLE:YES;
#OFFSET:1.576;
#BPMS:0.000=150.000
,71.500=75.000
,73.250=37.500
,73.500=150.000
,105.500=75.000
,119.500=37.500
,120.500=150.000
,184.500=75.000
,188.000=150.000
;
#STOPS:188.000=0.200;
#LASTBEATHINT:1.440000;
#BGCHANGES:7.500=YoiYoi Kokon.avi=1.000=0=0=0=StretchNoLoop====,
99999.000=-nosongbg-=1.000=0=0=0=StretchNoLoop====
;
#FGCHANGES:;

//--------------- dance-single - ----------------
#NOTES:
     dance-single:
     :
     Hard:
     13:
     0,0,0,0,0:
0000
0000
0000
0000
,
0000
0000
0000
0000
,
0000
0000
0000
0000
,
0000
0000
0000
0000
,
0000
0000
0000
0000
,
0000
0000
0000
0000
,
0000
0000
0000
0000
,
0101
0001
1100
1000
,
0110
1000
0001
0000
1001
0000
1000
0010
,
0102
0013
2100
3010
,
1000
0001
1000
0001
1000
0001
0110
0000
,
1001
0000
0011
0000
1100
1000
0001
0100
,
0010
0000
0100
0000
0000
0000
0001
0100
0001
0000
1000
0000
0100
0000
0010
0000
,
0001
0000
1000
0000
0000
0000
0010
0100
0010
0000
1000
0000
0001
0000
1000
0000
,
0001
0010
0200
0000
2300
0001
3001
0000
,
0011
0000
1100
0000
1001
1000
0010
0100
,
0010
0000
1000
0000
0000
0000
0001
0010
0001
0000
1000
0000
0001
0000
0010
0000
,
0001
0200
0000
0310
1000
0200
0000
0320
,
0000
0000
0000
0000
0000
0130
1001
0000
0000
1000
0010
0000
0000
0010
0100
0000
,
0001
0000
0100
0000
1000
0000
0100
0000
0001
0100
0001
0000
1000
0100
1000
0000
,
0001
0100
0001
0000
1000
0000
1001
0000
0000
0001
0100
0000
0000
0100
0010
0000
,
1000
0000
0100
0000
0001
0000
0100
0000
1000
0100
1000
0000
0001
0000
0101
0000
,
0100
0010
0100
0000
0010
0000
0110
0000
0000
0100
0001
0000
0000
0001
1000
0000
,
0100
0001
1000
0010
0001
0100
0020
0000
,
1030
0100
1000
0001
0100
0010
2000
0000
,
3020
0000
0230
0000
0301
1000
0001
1000
,
0000
0000
0000
0000
0000
0000
0000
0000
0000
0000
0000
0000
0000
0000
0000
0000
0000
0000
0000
0000
0000
0000
0000
0000
0100
0000
0000
0000
0000
0000
0000
0000
0000
0000
0000
0000
0000
0000
0000
0000
0000
0000
0000
0000
0000
0000
0000
0000
0000
0000
0000
0000
0000
0000
0000
0000
0000
0000
0000
0000
0000
0000
0000
0000
0000
0000
0000
0000
0000
0000
0000
0000
2002
3003
0000
0000
0000
0000
0000
0000
0000
0000
0000
0000
0000
0000
0000
0000
0000
0000
0000
0000
0000
0000
0000
0000
0100
0000
0000
0000
0000
0000
0000
0000
0000
0000
0000
0000
0000
0000
0000
0000
0000
0000
0000
0000
0000
0000
0000
0000
1000
0000
0000
0000
0000
0000
0000
0000
0000
0000
0000
0000
0000
0000
0000
0000
0000
0000
0000
0000
0000
0000
0000
0000
0100
0000
0000
0000
0000
0000
0000
0000
0000
0000
0000
0000
0000
0000
0000
0000
0000
0000
0000
0000
0000
0000
0000
0000
1000
0000
0000
0000
0000
0000
0000
0000
0000
0000
0000
0000
0001
0000
0000
0000
0000
0000
0000
0000
0000
0000
0000
0000
,
0010
0000
0100
0000
0010
0000
0100
0000
1000
0000
0001
0000
0100
0000
0010
1000
,
0001
1000
1100
0101
0001
1010
1000
0011
,
0001
1100
1000
0110
0001
0110
1000
0210
,
0000
0000
0301
0000
0000
1000
0100
0000
0001
0000
0100
0000
1000
0000
0100
0000
,
0010
0001
0010
1000
0020
0000
0031
0000
,
1000
0000
0010
0000
0100
0001
0100
0000
0010
0000
0100
0000
0010
1000
0010
0000
,
0100
0000
0001
0000
1000
0000
0001
0000
1000
0000
0000
0000
0100
0010
0100
0000
,
0010
0000
0001
0000
1000
0000
0010
0000
0200
0000
0000
0000
0310
1000
0010
0000
,
0100
0000
0001
0000
0011
0000
1000
0000
1100
0000
0000
0000
0010
0100
0010
0000
,
1000
0000
0001
0010
0000
0100
0010
0100
0000
1000
0001
0000
0100
0000
0010
0000
,
1000
0001
0010
2000
3010
0002
0013
2000
,
3010
0000
0000
0000
0001
0100
0010
0000
0001
0000
0010
0000
1000
0000
0001
0000
,
0010
0000
0110
0000
0000
0000
0110
0000
0000
0000
0110
0000
0100
1000
0001
0000
,
0100
0010
1000
0010
0001
1000
0100
0001
,
0010
0000
0100
0000
1100
0000
0000
0000
1000
0100
1000
0000
0001
0000
1000
0000
,
0001
0102
0000
0000
1003
0100
1000
0001
,
1000
2100
0000
3000
0001
1000
0001
0100
,
0010
0000
0100
0000
0001
1000
0001
0000
1000
0001
1000
0000
0100
0000
0010
0000
,
0001
0011
0000
1100
0000
1010
0000
0101
,
0000
0000
0000
0000
0000
0000
0000
0000
0000
0000
0000
0000
0000
0000
0000
0000
0000
0000
0000
0000
0000
0000
0000
0000
2020
3030
0000
0000
0000
0000
0000
0000
0000
0000
0000
0000
0000
0000
0000
0000
0000
0000
0000
0000
0000
0000
0000
0000
1000
0000
0000
0000
0000
0000
0000
0000
0000
0000
0000
0000
0000
0000
0000
0000
0000
0000
0000
0000
0000
0000
0000
0000
0100
0000
0000
0000
0000
0000
0000
0000
0000
0000
0000
0000
0000
0000
0000
0000
0000
0000
0000
0000
0000
0000
0000
0000
0020
0000
0000
0000
0000
0000
0000
0000
0000
0000
0000
0000
0000
0000
0000
0000
0000
0000
0000
0000
0000
0000
0000
0000
0001
0000
0000
0000
0000
0000
0000
0000
0000
0000
0000
0000
0000
0000
0000
0000
0000
0000
0000
0000
0000
0000
0000
0000
0001
0000
0000
0000
0000
0000
0000
0000
0000
0000
0000
0000
0000
0000
0000
0000
0000
0000
0000
0000
0000
0000
0000
0000
0031
0000
0000
0000
0000
0000
0000
0000
0000
0000
0000
0000
0000
0000
0000
0000
0000
0000
0000
0000
0000
0000
0000
0000
,
1002
0103
0000
0101
0000
0001
1000
1100
,
0000
1100
0000
0100
0010
0001
0010
0100
,
0000
0000
1000
0000
0001
0010
0001
0000
0100
0010
0200
0000
0010
0000
0310
0000
,
0000
0000
1020
0000
0000
0000
0130
0000
0001
0000
0101
0000
0000
0001
0010
0000
,
0100
0000
0010
0000
0000
0000
1001
0000
0000
1000
0010
0000
0100
0000
0020
0000
,
0000
0000
1000
0000
1030
0000
0002
0000
0000
0013
0200
0000
1000
0000
1300
0000
,
0001
0000
0100
0000
0010
0000
0100
0000
0001
1000
0100
0000
0020
0000
0100
0000
,
0130
0000
1000
0000
0001
0100
0010
0000
0100
0000
0001
0000
1000
0000
1002
0000
,
0000
0000
1003
0000
1000
0010
0100
0000
0010
0000
1000
0000
0100
0000
1000
0000
,
0200
0010
0000
0010
0000
0310
0001
1000
,
0001
0000
0000
0000
0001
0010
0100
0000
1000
0000
0001
0000
0100
0000
0001
0000
,
0200
0010
0000
0010
0000
0310
1000
0001
,
1000
0000
0000
0000
0001
0010
0001
0000
0010
0000
0100
0000
2000
0000
0002
0000
,
3000
0000
0000
0000
1003
0010
1000
0000
0010
0000
0100
0000
0002
0000
2000
0000
,
0003
0000
0000
0000
3001
0010
0001
0000
1000
0000
0010
0000
0100
0000
0001
0000
,
1000
1100
0000
0000
1000
0200
0000
2300
,
0000
0002
0000
0000
0000
0000
0000
0000
,
3003
0000
0000
0000
;

//--------------- dance-single - ----------------
#NOTES:
     dance-single:
     :
     Challenge:
     15:
     0.759595,0.852221,0.641876,0.425026,0.472733,613,539,74,49,19,0,0.759595,0.852221,0.641876,0.425026,0.472733,613,539,74,49,19,0:
0000
0000
0000
0000
,
0000
0000
0000
0000
,
0000
0000
0000
0000
,
0001
0000
0000
1000
0010
1000
0010
0000
0000
0100
0000
0000
0010
0000
0000
1000
0000
0000
0001
0000
0000
0010
0000
0000
,
0100
0000
0100
0000
1000
0000
1000
0100
0010
0000
0100
0000
1000
0000
0001
0000
,
1000
0000
0000
0001
0010
0001
0010
0000
0000
0100
0000
0000
1000
0000
0000
0001
0000
0000
0100
0000
0000
0010
0000
0000
,
1000
0000
1000
0000
0001
0000
0001
0010
0100
0000
0010
0000
0001
0000
0100
0000
,
0110
0000
0010
1000
0010
0000
0010
0000
1010
0000
1000
0000
0010
0000
1000
0000
,
1001
0000
1001
0000
0001
0000
0010
0100
0010
0000
0010
0001
1000
0000
1000
0000
,
2100
0001
0100
3001
0102
1000
0100
1003
,
1020
0000
0130
0000
0021
0000
0130
0000
1002
0000
0103
0010
0100
0000
0010
0000
,
1001
0000
0000
1000
0100
0000
0000
0010
0001
0000
1000
0001
0100
0000
0010
0100
,
0010
0000
1000
0000
0001
0000
0010
0100
1000
0000
0100
0000
0010
0000
0100
0000
,
1100
0000
1000
0000
0001
0000
0100
0010
0100
0000
0010
0000
1010
0000
1000
0000
,
0001
0000
0001
0010
0100
0000
0100
0010
0002
0000
1000
0000
1003
0000
0000
0000
,
1001
0000
0000
0001
0010
0000
0000
0100
1000
0000
1000
0010
0100
0000
0010
0000
,
1010
0000
0001
0000
0010
0000
0100
0010
0100
0000
1000
0001
1000
0000
0010
0000
,
0100
0102
0000
1003
0001
2100
0000
3020
,
0130
0010
0000
0120
0000
0130
0110
0000
0010
1000
0100
0000
0100
0000
0010
0000
,
0010
0001
0100
0000
0010
0000
1000
0000
1000
0100
1000
0000
1000
0010
1000
0000
,
1000
0100
1000
0000
0010
0000
0110
0000
0100
0001
0010
0000
0010
0000
0100
0000
,
0100
0000
0000
1000
0000
0000
0010
0000
0000
0000
0000
0000
0100
0000
0000
0000
0000
0000
0001
0000
0000
0000
0000
0000
0001
0000
0010
0000
0001
0000
0010
0000
0000
0000
0000
0000
0001
0000
0000
0000
0000
0000
1001
0000
0000
0000
0000
0000
,
0001
0100
0001
0000
0010
0000
1001
0000
0001
0000
0100
0000
1000
0000
0100
0000
,
0010
0000
0100
0000
0001
0000
0010
0000
0010
0001
1000
0000
0020
0000
0000
0000
,
0130
0000
0001
0000
0100
0000
0001
0000
1000
0100
0010
0000
0200
0000
0000
0000
,
0320
0100
0230
0000
1300
0001
1000
0001
,
0100
0000
0000
0000
0000
0000
0000
0000
0000
0000
0000
0000
0010
0000
0000
0000
0000
0000
0000
0000
0000
0000
0000
0000
0100
0000
0000
0000
0000
0000
0000
0000
0000
0000
0000
0000
0000
0000
0000
0000
0000
0000
0000
0000
0000
0000
0000
0000
0010
0000
0000
0000
0000
0000
0000
0000
0000
0000
0000
0000
0000
0000
0000
0000
0000
0000
0000
0000
0000
0000
0000
0000
0220
0330
0000
0000
0000
0000
0000
0000
0000
0000
0000
0000
0000
0000
0000
0000
0000
0000
0000
0000
0000
0000
0000
0000
0100
0000
0000
0000
0000
0000
0000
0000
0000
0000
0000
0000
0000
0000
0000
0000
0000
0000
0000
0000
0000
0000
0000
0000
1010
0000
0000
0000
0000
0000
0000
0000
0000
0000
0000
0000
0000
0000
0000
0000
0000
0000
0000
0000
0000
0000
0000
0000
0100
0000
0000
0000
0000
0000
0000
0000
0000
0000
0000
0000
0000
0000
0000
0000
0000
0000
0000
0000
0000
0000
0000
0000
1001
0000
0000
0000
0000
0000
0000
0000
0000
0000
0000
0000
0001
0000
0000
0000
0000
0000
0000
0000
0000
0000
0000
0000
,
0010
0000
0110
0000
0100
1000
1010
0000
0100
0000
0110
0000
0001
0000
1100
1000
,
0010
0000
0100
0010
0110
0000
2001
0000
3100
0000
1002
0000
0103
0000
0210
0010
,
0301
2100
3010
0210
0301
0012
0013
0120
,
0130
1000
0000
1000
0001
0000
0000
0000
0001
0000
0100
0000
0010
0000
0000
0000
0100
0000
0000
0000
0001
0000
0000
0000
0001
0000
0010
0000
0100
0000
0000
0000
,
0010
0000
0001
0000
0001
0100
1000
0000
0100
0000
0010
0000
0010
1000
0000
1000
,
0100
0000
0010
0000
0010
0100
1000
0000
0010
0000
0100
0000
0100
0001
1000
0000
,
0100
0000
1100
0000
0101
0000
1100
0000
0101
0000
0000
0000
0001
1000
0010
0000
,
1010
0000
1000
0000
1000
0010
0100
0000
0010
0000
1000
0000
1000
0100
0010
0000
,
0010
0000
2100
0000
3010
0000
1020
0000
0130
0000
0010
0000
0010
1000
0001
0000
,
0010
0000
0010
0100
0000
0100
1000
0010
0000
0010
0100
0000
0100
0001
0010
0000
,
0100
2100
3010
0102
0013
2100
3010
0102
,
0013
0000
0110
0000
0010
0001
1000
0000
0010
0000
0100
0000
0010
0000
1000
0000
,
0001
0000
0011
0000
0000
0000
1100
0000
0000
1000
0010
0000
0100
0001
0010
0000
,
0100
0000
0000
0000
0000
0000
1100
0000
0000
0000
0000
0000
1000
0000
0010
0000
1000
0000
0010
0000
0000
0000
0000
0000
0100
0000
0000
0000
0000
0000
0010
0000
0000
0000
0000
0000
0010
0000
0000
1000
0000
0000
0001
0000
0000
0000
0000
0000
,
0010
0000
0100
0000
0110
0000
0000
0000
0010
0100
0010
0000
0001
0000
1000
0000
,
0001
0000
0102
0000
0000
0000
1003
0000
0010
0100
0010
0000
1000
0000
0001
0000
,
1000
0000
2100
0000
0000
0000
3001
0000
0010
0100
0010
0000
0001
0000
0100
0000
,
1000
0000
0001
0000
0010
1000
0100
0000
0010
0001
0100
0000
0010
0000
1000
0000
,
0001
0101
0000
1010
0000
1100
0000
0011
,
0000
0000
0000
0000
1002
0000
0000
0000
0100
0000
0000
0000
0010
0000
0000
0000
0103
0000
0000
0000
0110
0000
0000
0000
0010
0100
0010
0100
0010
0000
1000
0000
,
0002
1003
0000
1100
0000
0100
0010
0110
,
0000
0000
1100
0000
0000
0000
0001
0000
1000
0000
0010
0100
0001
0000
0010
0000
,
0000
0000
0010
0000
0100
0000
1000
0100
1000
0100
1000
0000
0001
0000
0100
0000
,
0000
0000
0120
0000
0000
0000
0130
0001
0010
0000
0120
0000
0000
0001
0031
0000
,
1000
0000
0000
0000
0000
0000
0010
0000
0100
0000
0010
0000
0100
0000
0000
0000
0000
0000
0001
0000
0000
0000
0000
0000
0000
0000
0000
0001
0000
0000
0010
0000
0000
0000
0000
0000
0100
0000
0000
0000
0000
0000
0020
0000
0000
0000
0000
0000
,
0000
0000
0031
0000
0001
1000
0020
0000
0000
0130
0002
0000
0010
0000
0013
0000
,
0100
0000
1100
0000
1000
0000
0010
0100
1000
0100
0010
0000
0010
0000
1000
0000
,
0001
0000
0010
0000
0010
0001
0100
0000
0010
0000
0100
0000
0100
0000
1002
0000
,
0000
0000
1003
0000
0001
0100
0010
0100
0001
0010
0100
0000
0100
0000
0110
0000
,
0010
0001
1000
0000
0000
0000
1010
0000
0000
0010
0100
0000
0100
0001
1000
0000
,
0100
0000
0000
0000
0100
1000
0010
0000
0100
0000
0010
0000
1000
0000
0001
0000
,
0020
0000
0100
0000
0000
0000
0100
0000
0000
0000
0100
0000
0130
1000
0010
0000
,
0100
0000
0101
0000
0001
0100
1000
0000
0100
0000
0010
0000
0102
0000
0020
0003
,
0000
0000
0130
0000
1000
0100
0001
0000
0100
0000
0010
0000
2100
0000
0020
3000
,
0000
0000
0130
0000
0100
0001
0010
0000
0100
0000
0010
0000
0100
0000
1000
0000
,
0001
0000
0101
0000
0100
0010
0100
0000
0010
0000
0210
0000
0000
0000
0302
0000
,
0000
2000
0000
0000
0003
0000
0000
3020
,
000M
0M00
0000
0000
0M00
M000
000M
0000
000M
M000
0M00
000M
0M00
000M
M000
0000
,
0M00
M000
000M
0000
M000
0000
0M00
000M
M030
0000
0000
0000
0000
0000
0000
0000
;
