#TITLE:ヤンキーダンス;
#SUBTITLE:;
#ARTIST:ナナヲアカリ;
#TITLETRANSLIT:Yankee Dance;
#SUBTITLETRANSLIT:;
#ARTISTTRANSLIT:Nanawo Akari;
#GENRE:POP;
#CREDIT:;
#BANNER:Yankee Dance.png;
#BACKGROUND:Yankee Dance-bg.png;
#LYRICSPATH:;
#CDTITLE:;
#MUSIC:Yankee Dance.ogg;
#OFFSET:1.957000;
#SAMPLESTART:64.737000;
#SAMPLELENGTH:8.678000;
#LASTBEATHINT:1.929950;
#SELECTABLE:YES;
#BPMS:0.000000=121.000000
,132.000000=60.500000
,134.000000=121.000000
,226.000000=60.500000
,228.500000=121.000000
,229.500000=60.500000
,230.000000=121.000000
,231.000000=60.500000
,233.000000=121.000000
;
#STOPS:
;
#BGCHANGES:6.250=Yankee Dance.avi=1.000=0=0=0=====,
99999=-nosongbg-=1.000=0=0=0 // don't automatically add -songbackground-
;
#KEYSOUNDS:;
#ATTACKS:;

//---------------dance-single - ----------------
#NOTES:
     dance-single:
     :
     Hard:
     13:
     0.583053,0.712350,0.849385,0.215945,0.043189,567.000000,449.000000,118.000000,30.000000,0.000000,0.000000,0.583053,0.712350,0.849385,0.215945,0.043189,567.000000,449.000000,118.000000,30.000000,0.000000,0.000000:
0000
0000
0000
0000
,
0000
0000
0000
0000
,
0000
0000
0000
0000
,
0000
0000
0000
0000
,
0000
0000
0000
0000
,
0000
0000
0000
0000
,
1000
0000
0000
1100
0000
0000
0001
0000
0000
0101
0000
0000
2000
0000
0000
0000
0000
3010
0000
0000
0000
0100
0000
0000
,
0001
0000
0000
0011
0000
0000
1000
0000
0000
1010
0000
0000
0002
0000
0000
0000
0000
0013
0000
0000
0000
0100
0000
0000
,
1000
0000
0000
1001
0000
0000
0001
0000
0000
1001
0000
0000
2000
0000
0000
0000
0000
3010
0000
0000
0000
0100
0000
0000
,
0001
0010
0100
1000
1100
0101
1001
0000
,
0001
0100
0001
0100
0001
1000
0001
1000
,
0010
1000
0010
1000
0010
0100
0010
0100
,
0001
0010
0100
1000
0001
0100
1000
0000
,
1000
0100
0001
0010
0100
1000
0001
0000
,
1000
0100
1000
0100
1000
0001
1000
0001
,
0100
0001
0100
0001
0100
0010
0100
0010
,
1000
0100
0010
0001
1000
0100
0001
0000
,
0001
0100
1000
0010
0100
0002
0023
0230
,
1300
1010
0100
1001
0010
0110
0100
1001
,
0000
0011
0100
1100
0001
0110
0100
1001
,
0000
0101
0010
1100
0010
1001
0100
1001
,
0000
0011
1000
0110
0001
1100
2000
0000
,
0000
3001
0100
1000
0001
0010
1000
0110
,
0000
1000
0100
0001
1000
0010
0001
0110
,
0000
0001
0100
0010
0001
1000
0100
0101
,
0000
1000
0100
0010
0001
1000
0020
0000
,
2030
0000
0000
3001
0100
1000
0100
0001
,
1000
0000
0000
1000
0100
0001
0100
1000
,
0001
0000
0000
0001
0010
0100
1000
0010
,
0200
0000
0000
0010
0310
1000
0100
0010
,
0011
0001
1000
0100
1100
1000
1010
0010
,
0120
0000
0130
0001
0011
0010
0110
0100
,
1200
0000
1300
0001
0101
1000
1100
0001
,
1002
0000
0000
0000
0000
0000
0000
0000
0000
0000
0000
0000
0000
0000
0000
0000
0000
0000
0000
0000
0000
0000
0000
0000
0000
0000
0000
0000
0000
0000
0000
0000
0000
0000
0000
0000
0000
0000
0000
0000
0000
0000
0000
0000
0000
0000
0000
0000
0000
0000
0000
0000
0000
0000
0000
0000
0000
0000
0000
0000
1003
0000
0000
0000
0000
0000
0000
0000
0000
0000
0000
0000
0100
0000
0000
0000
0000
0000
0000
0000
0000
0000
0000
0000
0010
0000
0000
0000
0000
0000
0000
0000
0000
0000
0000
0000
0002
0003
0000
0000
0000
0000
0000
0000
0000
0000
0000
0000
0000
0000
0000
0000
0000
0000
0000
0000
0000
0000
0000
0000
1000
0000
0000
0000
0000
0000
0000
0000
0000
0000
0000
0000
0000
0000
0000
0000
0000
0000
0000
0000
0000
0000
0000
0000
0101
0000
0000
0000
0000
0000
0000
0000
0000
0000
0000
0000
0000
0000
0000
0000
0000
0000
0000
0000
0000
0000
0000
0000
0000
0000
0000
0000
0000
0000
0000
0000
0000
0000
0000
0000
0000
0000
0000
0000
0000
0000
0000
0000
0000
0000
0000
0000
,
1000
0001
1100
0000
1000
0101
1000
0101
,
0010
0100
1010
0000
0101
1000
0001
0000
,
1100
0001
1000
0000
1000
0010
0100
0001
,
0010
0101
1010
0101
1000
0001
1100
0000
,
0001
1000
0101
0000
0001
1100
0001
1100
,
0001
0010
0101
0000
1010
0001
1000
0000
,
0011
1000
0001
0000
1100
0001
0100
0001
,
1000
0011
1100
0011
1000
1100
1000
1010
,
1001
1100
1001
1000
0001
0101
0001
0011
,
1001
0101
1001
0001
1000
0110
0001
0110
,
1000
0110
0110
1001
0100
0011
0100
1010
,
0100
0110
0110
0110
1001
0001
0010
0100
,
1000
0001
0010
0000
0100
1000
0010
0100
,
0001
1000
0010
0000
1000
0010
0001
0010
,
1000
0010
0001
0000
1000
0100
0001
0010
,
1001
0110
1001
0000
1000
0100
1000
0100
,
1000
0010
0100
0100
0001
0000
0001
0100
,
0001
1000
0010
0100
0001
0000
0001
0010
,
1000
0010
1000
0010
0002
0000
2003
0000
,
3020
0230
0302
0023
0230
1300
0100
0001
,
1000
0001
0100
1000
0020
0000
0031
0010
,
1000
0001
1000
0100
0002
0000
0203
0000
,
1300
0000
0000
0000
0000
0000
0000
0000
0000
0000
0000
0000
0000
0000
0000
0000
0000
0000
0000
0000
0000
0000
0000
0000
0010
0000
0000
0000
0000
0000
0000
0000
0000
0000
0000
0000
0000
0000
0000
0000
0000
0000
0000
0000
0000
0000
0000
0000
0001
0000
0000
0000
0000
0000
0000
0000
0000
0000
0000
0000
0000
0000
0000
0000
0000
0000
0000
0000
0000
0000
0000
0000
1000
0000
0000
0000
0000
0000
0000
0000
0000
0000
0000
0000
0000
0000
0000
0000
0000
0000
0000
0000
0000
0000
0000
0000
0200
0300
0000
0000
0000
0000
0000
0000
0000
0000
0000
0000
0001
0000
0000
0000
0000
0000
0000
0000
0000
0000
0000
0000
1000
0000
0000
0000
0000
0000
0000
0000
0000
0000
0000
0000
0100
0000
0000
0000
0000
0000
0000
0000
0000
0000
0000
0000
0010
0000
0000
0000
0000
0000
0000
0000
0000
0000
0000
0000
0000
0000
0000
0000
0000
0000
0000
0000
0000
0000
0000
0000
0000
0000
0000
0000
0000
0000
0000
0000
0000
0000
0000
0000
0000
0000
0000
0000
0000
0000
0000
0000
0000
0000
0000
0000
,
0001
0000
0000
0000
0000
0000
0000
0000
0000
0000
0000
0000
1000
0000
0000
0000
0000
0000
0000
0000
0000
0000
0000
0000
0002
0000
0000
0000
0000
0000
0000
0000
0000
0000
0000
0000
0000
0000
0000
0000
0000
0000
0000
0000
0000
0000
0000
0000
0000
0000
0000
0000
0000
0000
0000
0000
0000
0000
0000
0000
0000
0000
0000
0000
0000
0000
0000
0000
0000
0000
0000
0000
2003
3000
0000
0000
0000
0000
0000
0000
0000
0000
0000
0000
0001
0000
0000
0000
0000
0000
0000
0000
0000
0000
0000
0000
2000
0000
0000
0000
0000
0000
0000
0000
0000
0000
0000
0000
0000
0000
0000
0000
0000
0000
0000
0000
0000
0000
0000
0000
0000
0000
0000
0000
0000
0000
0000
0000
0000
0000
0000
0000
0000
0000
0000
0000
0000
0000
0000
0000
0000
0000
0000
0000
3020
0030
0000
0000
0000
0000
0000
0000
0000
0000
0000
0000
0100
0000
0000
0000
0000
0000
0000
0000
0000
0000
0000
0000
0010
0000
0000
0000
0000
0000
0000
0000
0000
0000
0000
0000
0100
0000
0000
0000
0000
0000
0000
0000
0000
0000
0000
0000
,
0001
0000
0000
0000
0000
0000
0000
0000
0000
0000
0000
0000
1000
0000
0000
0000
0000
0000
0000
0000
0000
0000
0000
0000
0001
0000
0000
0000
0000
0000
0000
0000
0000
0000
0000
0000
0000
0000
0000
0000
0000
0000
0000
0000
0000
0000
0000
0000
2000
3000
0000
0000
0000
0000
0000
0000
0000
0000
0000
0000
0000
0000
0000
0000
0000
0000
0000
0000
0000
0000
0000
0000
0001
0000
0000
0000
0000
0000
0000
0000
0000
0000
0000
0000
0000
0000
0000
0000
0000
0000
0000
0000
0000
0000
0000
0000
1100
0000
0000
0000
0000
0000
0000
0000
0000
0000
0000
0000
0000
0000
0000
0000
0000
0000
0000
0000
0000
0000
0000
0000
0000
0000
0000
0000
0000
0000
0000
0000
0000
0000
0000
0000
0000
0000
0000
0000
0000
0000
0000
0000
0000
0000
0000
0000
0001
0000
0000
0000
0000
0000
0000
0000
0000
0000
0000
0000
0000
0000
0000
0000
0000
0000
0000
0000
0000
0000
0000
0000
1000
0000
0000
0000
0000
0000
0000
0000
0000
0000
0000
0000
0000
0000
0000
0000
0000
0000
0000
0000
0000
0000
0000
0000
,
0101
0000
1000
0100
0010
0001
1000
0011
,
1100
0011
1000
0001
1010
0000
0001
1000
,
0011
0000
1000
0011
1000
0101
1000
0010
,
1100
0000
0011
1000
0001
0000
1010
0001
,
1000
0000
0010
0100
0001
0010
0100
1010
,
0101
1010
0001
1001
0001
0101
1001
0011
,
1001
0001
1000
1001
1000
1100
1001
1100
,
1001
1000
0001
0110
1000
0110
0001
1100
,
0101
0110
0010
1001
0100
1001
0010
0110
,
0110
0110
1001
0000
0000
0000
0000
0000
;

//---------------dance-single - ----------------
#NOTES:
     dance-single:
     :
     Challenge:
     16:
     0.850414,0.933424,0.899773,0.352711,0.748611,827.000000,702.000000,125.000000,49.000000,0.000000,0.000000,0.850414,0.933424,0.899773,0.352711,0.748611,827.000000,702.000000,125.000000,49.000000,0.000000,0.000000:
// measure 0
0000
0000
0000
0000
,  // measure 1
0000
0000
0000
0000
,  // measure 2
0000
0000
0000
0000
,  // measure 3
0000
0000
0000
0000
,  // measure 4
0000
0000
0000
0000
,  // measure 5
0000
0000
0000
0000
0000
0000
0000
0000
0000
0000
0000
0000
0110
0000
0000
0001
1000
0100
0010
0000
0000
0100
0000
0000
,  // measure 6
1000
0000
0010
0100
0000
0000
0001
0000
0010
0100
0000
0000
1000
0000
0100
0000
0000
0011
0000
0000
0001
1000
0000
0000
,  // measure 7
0001
0000
0100
0010
0000
0000
1000
0000
0100
0010
0000
0000
0001
0000
0100
0000
0000
1010
0000
0000
1000
0001
0000
0000
,  // measure 8
0100
0000
0001
0010
0000
0000
0100
0000
1000
0010
0000
0000
0100
0000
0010
0000
0000
1001
0000
0000
1000
0100
1000
0010
,  // measure 9
0100
0000
0010
1000
0000
0001
0010
0000
0100
0010
0000
0001
0100
0000
0000
0010
0000
0000
1001
0000
0001
1000
0000
0000
,  // measure 10
0010
0100
0010
0100
0001
0010
0001
0010
,  // measure 11
0100
1000
0100
1000
0001
0100
0001
0100
,  // measure 12
0010
1000
0100
0001
0100
1000
0001
1000
,  // measure 13
0001
0100
1000
0001
0010
1000
0100
0010
,  // measure 14
0100
1000
0100
1000
0001
0100
0001
0100
,  // measure 15
0010
1000
0010
1000
0001
0010
0001
0010
,  // measure 16
0100
1000
0010
0001
0010
1000
0001
1000
,  // measure 17
0001
0010
1000
0001
0100
2000
3020
0230
,  // measure 18
0301
0000
1000
0010
0000
0100
0010
0000
1000
0010
0000
0000
0100
0000
0001
0100
0000
0010
0100
0000
0000
1001
0000
0000
,  // measure 19
1000
0000
0001
0010
0000
0100
0010
0000
0001
0010
0000
0000
0100
0000
1000
0100
0000
0010
0100
0000
0000
1001
0000
0000
,  // measure 20
1000
0000
0010
0100
0000
0010
1000
0000
0010
0100
0000
0000
0001
0000
0010
0100
0000
0010
0001
0000
0000
1001
0000
0000
,  // measure 21
1000
0000
0000
0001
0000
0100
0010
0000
0000
1000
0000
0001
0010
0000
0100
0010
0000
0001
0100
0000
0000
0010
0000
0000
,  // measure 22
1001
0000
0000
0001
0000
1000
0100
0000
0100
1000
0000
0001
0100
0000
0100
0001
0000
0001
1000
0000
0000
0110
0000
0000
,  // measure 23
1000
0000
0000
1000
0000
0001
0100
0000
0100
0001
0000
1000
0100
0000
0100
1000
0000
1000
0001
0000
0000
0110
0000
0000
,  // measure 24
0001
0000
0100
0010
0000
0010
0100
0000
0100
0010
0000
1000
0001
0000
0001
1000
0000
1000
0001
0000
0000
0110
0000
0000
,  // measure 25
0001
0000
0000
1100
0000
0000
0010
0000
0000
0101
0000
0000
0001
0000
0000
1000
0100
0010
0002
0000
0000
0013
0000
0000
,  // measure 26
1100
0000
0000
1000
0000
0001
0100
0000
0001
0100
0000
0001
0010
0000
0000
0100
0000
0000
1000
0000
0010
0100
0000
0010
,  // measure 27
0100
0000
0000
0001
0000
0000
0010
0000
0000
0100
0000
1000
0001
0000
0000
0100
0000
0001
1000
0000
0000
0100
0000
0000
,  // measure 28
1000
0000
0100
1000
0000
0000
0001
0000
0100
0001
0000
0000
1000
0000
0000
0001
0000
0010
0100
0000
0010
0100
0000
0000
,  // measure 29
1002
0000
0000
0103
0000
0000
2001
0000
0000
3100
0000
0010
0100
0000
0000
0101
0000
0000
1100
0000
0000
0110
0000
0000
,  // measure 30
1001
0000
0001
0100
0000
0001
0010
0000
0001
1000
0000
0000
0110
0000
1000
0100
0000
1000
0010
0000
1000
0001
0000
0000
,  // measure 31
0021
0100
0032
1000
0203
1000
0320
0100
,  // measure 32
2030
0000
0000
0001
0000
0000
3200
0000
1300
0002
0000
0000
0203
0000
0000
1000
0000
0000
0302
0000
0000
1000
0000
0000
,  // measure 33
0023
0030
0000
0000
0000
0000
0000
0000
0000
0000
0000
0000
0100
0000
0000
0000
0000
0000
0000
0000
0000
0000
0000
0000
1000
0000
0000
0000
0000
0000
0000
0000
0000
0000
0000
0000
0001
0000
0000
0000
0000
0000
0000
0000
0000
0000
0000
0000
1000
0000
0000
0000
0000
0000
0000
0000
0000
0000
0000
0000
0010
0000
0000
0000
0000
0000
0000
0000
0000
0000
0000
0000
0010
0000
0000
0000
0000
0000
0000
0000
0000
0000
0000
0000
1000
0000
0000
0000
0100
0000
0000
0000
0010
0000
0000
0000
0002
0003
0000
0000
0000
0000
0000
0000
0000
0000
0000
0000
0000
0000
0000
0000
1000
0000
0000
0000
0000
0000
0000
0000
0010
0000
0000
0000
0000
0000
0000
0000
0000
0000
0000
0000
0000
0000
0000
0000
0000
0000
0000
0000
0000
0000
0000
0000
0101
0000
0000
0000
0000
0000
0000
0000
0000
0000
0000
0000
0000
0000
0000
0000
0000
0000
0000
0000
0000
0000
0000
0000
1000
0000
0000
0000
0000
0000
0000
0000
0000
0000
0000
0000
0000
0000
0000
0000
0000
0000
0000
0000
0000
0000
0000
0000
,  // measure 34
0101
0000
0001
0010
0000
0000
1100
0000
0000
0001
0000
0000
1100
0000
0010
0100
0000
0000
0101
0000
0010
0100
0000
0000
,  // measure 35
1001
0000
0100
0010
0000
0010
0200
0000
0000
0310
0000
0000
1100
0000
1000
0001
0000
0001
0200
0000
0000
0310
0000
0000
,  // measure 36
0101
0000
0001
1000
0000
1000
0200
0000
0000
0310
0000
0000
0100
0000
0000
1001
0000
0000
0010
0000
0000
1001
0000
0000
,  // measure 37
0100
0000
0000
0101
0000
0000
1010
0000
0000
0011
0000
0000
1010
0000
1000
0010
0000
0000
0101
0000
0000
1000
0000
0000
,  // measure 38
0101
0000
0001
0010
0000
0000
1100
0000
0000
0001
0000
0000
1200
0000
0000
0310
0000
0000
0201
0000
0000
0310
0000
0000
,  // measure 39
0021
0000
0000
0130
0000
0000
1020
0000
0000
0130
0000
0000
0101
0000
0001
0010
0000
0010
0100
0000
0000
0110
0000
0000
,  // measure 40
1100
0000
1000
0010
0000
0010
0100
0000
0000
0110
0000
0000
1001
0000
0000
0010
0000
0000
0100
0000
0000
0001
0000
0000
,  // measure 41
1000
0000
0000
1100
0000
0000
0110
0000
0000
1001
0000
0000
1100
0000
0010
1000
0000
0100
1000
0000
0010
1000
0000
0000
,  // measure 42
1100
0000
0000
1001
0000
0000
1100
0000
0000
1001
0000
0000
0101
0000
0010
0001
0000
0100
0001
0000
0010
0001
0000
0000
,  // measure 43
0101
0000
0000
1001
0000
0000
0101
0000
0000
1001
0000
0000
0110
0000
1000
0010
0000
0000
0110
0000
0001
0010
0000
0000
,  // measure 44
0110
0000
1000
0020
0000
0000
0100
0000
0000
1030
0000
0000
0110
0000
0000
1001
0000
0000
0100
0000
0000
1001
0000
0000
,  // measure 45
0110
0000
0000
0000
0000
0000
0000
0000
0000
0000
0000
0000
0000
0000
0000
0000
0000
0000
0010
0000
0000
0000
0000
0000
0100
0000
0000
0000
0000
0000
0000
0000
0000
0000
0000
0000
0000
0000
0000
0000
0000
0000
0000
0000
0000
0000
0000
0000
0100
0000
0000
0000
0000
0000
0000
0000
0000
0000
0000
0000
0000
0000
0000
0000
0000
0000
0000
0000
0000
0000
0000
0000
0100
0000
0000
0000
0000
0000
0000
0000
0000
0000
0000
0000
0000
0000
0000
0000
0000
0000
0000
0000
0000
0000
0000
0000
0001
0000
0000
0000
0000
0000
0000
0000
0010
0000
0000
0000
0000
0000
0000
0000
0100
0000
0000
0000
0000
0000
0000
0000
1000
0000
0000
0000
0000
0000
0000
0000
0001
0000
0000
0000
0000
0000
0000
0000
1000
0000
0000
0000
0000
0000
0000
0000
0100
0000
0000
0000
0000
0000
0000
0000
0010
0000
0000
0000
0000
0000
0000
0000
0001
0000
0000
0000
0000
0000
0000
0000
1000
0000
0000
0000
0000
0000
0000
0000
0001
0000
0000
0000
0000
0000
0000
0000
0010
0000
0000
0000
0000
0000
0000
0000
,  // measure 46
0100
1000
0001
1000
0100
0010
0001
0000
0000
0001
0010
0100
1000
0000
0000
0001
0000
1000
0010
0000
0010
0100
0000
0100
,  // measure 47
0001
0000
0001
1000
0000
1000
0010
0000
0000
0110
0000
0100
0001
0000
0000
0001
0010
0100
1000
0000
0000
0001
0010
0100
,  // measure 48
1000
0000
0000
0000
0000
0000
0000
0000
0000
0000
0000
0000
0000
0000
0000
0000
0000
0000
0000
0000
0000
0000
0000
0000
1000
0000
0000
0000
0000
0000
0100
0000
0000
0000
0000
0000
0010
0000
0000
0000
0000
0000
0001
0000
0000
0000
0000
0000
1000
0000
0000
0000
0000
0000
0000
0000
0000
0000
0000
0000
0000
0000
0000
0000
0000
0000
0000
0000
0000
0000
0000
0000
0001
0000
0000
0000
0000
0000
0010
0000
0000
0000
0000
0000
0100
0000
0000
0000
0000
0000
1000
0000
0000
0000
0000
0000
0001
0000
0000
0000
0000
0000
0000
0000
0000
0000
0000
0000
0000
0000
0000
0000
0001
0000
0000
0000
0000
0000
0000
0000
0100
0000
0000
0000
0000
0000
0000
0000
0000
0000
0000
0000
0000
0000
0000
0000
0100
0000
0000
0000
0000
0000
0000
0000
0010
0000
0000
0000
0000
0000
0000
0000
0000
0000
0000
0000
0000
0000
0000
0000
0010
0000
0000
0000
0000
0000
0000
0000
1000
0000
0000
0000
0000
0000
0000
0000
0000
0000
0000
0000
0000
0000
0000
0000
1000
0000
0000
0000
0000
0000
0000
0000
,  // measure 49
0001
0000
0000
0110
0000
0000
1001
0000
0000
0000
0000
0000
1000
0000
0010
0100
0000
0010
1000
0000
0010
0100
0000
0010
,  // measure 50
1000
0000
0000
0110
0000
0010
0100
0000
0010
0100
0000
0000
0001
0000
0010
0100
0000
0010
0001
0000
0010
0100
0000
0010
,  // measure 51
0001
0000
0000
1001
0000
0010
0100
0000
0010
0100
0000
0000
1010
0000
0100
0001
0000
0000
0011
0000
0100
1000
0000
0000
,  // measure 52
1010
0000
0100
0001
0000
0000
0011
0000
0100
1000
0000
0000
0010
0000
0000
1001
0000
0000
0100
0000
0000
1001
0000
0000
,  // measure 53
0010
0000
0000
2001
0000
0000
3200
0000
0000
0320
0000
0000
0032
0000
0000
1003
0000
0010
0100
0000
0100
0001
0000
0001
,  // measure 54
1000
0000
0000
1001
0000
0010
0100
0000
0000
0110
0000
0000
0020
0000
0000
1000
0000
0000
2030
0000
0000
0001
0000
0000
,  // measure 55
3002
0000
0000
0010
0000
0000
0023
0000
0000
0100
0000
0000
0130
0000
1000
0010
0000
0010
0100
0000
0100
0001
0000
0001
,  // measure 56
2000
0000
0000
0000
0000
0000
3001
0000
0010
0000
0100
0000
0010
0000
0001
0000
0010
0000
0100
0000
1000
0000
0001
0000
0200
0000
0000
0310
0000
0000
1000
0000
0000
0010
0000
0000
0100
0000
0000
0001
0000
0000
1000
0000
0000
0001
0000
0000
,  // measure 57
0100
0000
0000
0000
0000
0000
0000
0000
0000
0000
0000
0000
0010
0000
0000
0000
0000
0000
0000
0000
0000
0000
0000
0000
2002
0000
0000
0000
0000
0000
0000
0000
0000
0000
0000
0000
0000
0000
0000
0000
0000
0000
0000
0000
0000
0000
0000
0000
3003
0000
0000
0000
0000
0000
0000
0000
0000
0000
0000
0000
0000
0000
0000
0000
0000
0000
0000
0000
0000
0000
0000
0000
0200
0300
0000
0000
0000
0000
0000
0000
0000
0000
0000
0000
0010
0000
0000
0000
0000
0000
0000
0000
0000
0000
0000
0000
2002
0000
0000
0000
0000
0000
0000
0000
0000
0000
0000
0000
0000
0000
0000
0000
0000
0000
0000
0000
0000
0000
0000
0000
3003
0000
0000
0000
0000
0000
0000
0000
0000
0000
0000
0000
0000
0000
0000
0000
0000
0000
0000
0000
0000
0000
0000
0000
0002
0003
0000
0000
0000
0000
0000
0000
0000
0000
0000
0000
1000
0000
0000
0000
0000
0000
0000
0000
0000
0000
0000
0000
0001
0000
0000
0000
0000
0000
0000
0000
0000
0000
0000
0000
1000
0000
0000
0000
0000
0000
0000
0000
0000
0000
0000
0000
,  // measure 58
0010
0000
0000
0000
0000
0000
0000
0000
0000
0000
0000
0000
0100
0000
0000
0000
0000
0000
0000
0000
0000
0000
0000
0000
0001
0000
0000
0000
0000
0000
0000
0000
0000
0000
0000
0000
1000
0000
0000
0000
0100
0000
0000
0000
0010
0000
0000
0000
0002
0003
0000
0000
0000
0000
0000
0000
0000
0000
0000
0000
0000
0000
0000
0000
0001
0000
0000
0000
0000
0000
0000
0000
1000
0000
0000
0000
0000
0000
0000
0000
0000
0000
0000
0000
0000
0000
0000
0000
1000
0000
0000
0000
0000
0000
0000
0000
0200
0000
0000
0000
0000
0000
0000
0000
0000
0000
0000
0000
0000
0000
0000
0000
0000
0000
0000
0000
0000
0000
0000
0000
0310
0000
0000
0000
0000
0000
0000
0000
0000
0000
0000
0000
0000
0000
0000
0000
0000
0000
0000
0000
0000
0000
0000
0000
1100
0000
0000
0000
0000
0000
0000
0000
0000
0000
0000
0000
0000
0000
0000
0000
1000
0000
0000
0000
0000
0000
0000
0000
0001
0000
0000
0000
0000
0000
0000
0000
0000
0000
0000
0000
0000
0000
0000
0000
0001
0000
0000
0000
0000
0000
0000
0000
,  // measure 59
0200
0310
0100
1001
0010
1001
0100
1100
,  // measure 60
0101
0000
0000
1001
0000
0000
0011
0000
1000
0010
0000
0000
0101
0000
0000
1000
0000
0000
1010
0000
0001
0010
0000
0000
,  // measure 61
1100
0001
0021
0130
1020
0130
0102
0013
,  // measure 62
2100
0000
0000
3010
0000
0000
0101
0000
0001
0010
0000
0010
1000
0000
0000
1010
0000
0000
0011
0000
0001
0100
0000
0100
,  // measure 63
1000
1100
0110
0010
1000
0001
0010
1100
,  // measure 64
0110
0000
0000
1001
0000
0000
1100
0000
1000
0100
0000
0001
0100
0000
1000
0100
0000
0000
1100
0000
0000
0110
0000
0000
,  // measure 65
1100
0000
0000
1001
0000
0000
0101
0000
0001
0100
0000
1000
0100
0000
0001
0100
0000
0000
0101
0000
0000
0110
0000
0000
,  // measure 66
0101
0000
0000
1001
0000
0000
0110
0000
0001
0010
0000
0000
0110
0000
1000
0010
0000
0000
0110
0000
0001
0020
0000
0000
,  // measure 67
1000
0000
0000
0000
0031
0000
0000
0000
1001
0000
0000
0000
0110
0000
0000
0000
0010
0000
0000
0000
1001
0000
0000
0000
0110
0000
0000
0010
0100
0000
0000
0000
,  // measure 68
0100
0100
1001
0000
0000
0000
0000
0000
;
