#TITLE:勇者;
#SUBTITLE:;
#ARTIST:YOASOBI;
#TITLETRANSLIT:;
#SUBTITLETRANSLIT:;
#ARTISTTRANSLIT:;
#GENRE:;
#CREDIT:;
#BANNER:YUSHA(The Brave).png;
#BACKGROUND:YUSHA(The Brave)-bg.png;
#LYRICSPATH:;
#CDTITLE:;
#MUSIC:YUSHA(The Brave).ogg;
#OFFSET:3.781000;
#SAMPLESTART:58.527000;
#SAMPLELENGTH:9.808000;
#LASTBEATHINT:4.807263;
#SELECTABLE:YES;
#BPMS:0.000000=104.000000
,24.000000=208.000000
;
#STOPS:
;
#BGCHANGES:6.500=YUSHA(The Brave).avi=1.000=0=0=1=====,
99999=-nosongbg-=1.000=0=0=0 // don't automatically add -songbackground-
;
#KEYSOUNDS:;
#ATTACKS:;

//---------------dance-single - ----------------
#NOTES:
     dance-single:
     :
     Medium:
     12:
     0.694003,0.877829,0.171965,0.064487,0.155844,452.000000,436.000000,16.000000,6.000000,0.000000,0.000000,0.694003,0.877829,0.171965,0.064487,0.155844,452.000000,436.000000,16.000000,6.000000,0.000000,0.000000:
0000
0000
0000
0000
,
0000
0000
0000
0000
,
0000
0001
0100
0001
0000
1000
0100
1000
0000
0010
0000
0100
0000
0001
0000
1000
,
0000
0001
0010
0001
0000
1000
0010
1000
0000
0100
0000
0010
0000
0001
0000
1000
,
0000
0001
0100
0001
0100
0001
0000
0010
0000
0100
0000
1000
0000
0002
0000
0000
,
1003
0000
0000
0010
0000
0100
0001
0100
0001
0010
0000
0100
0000
1000
0001
0000
,
1000
0001
0100
0001
0000
1000
0100
1000
,
0000
0010
0000
0100
0000
0010
0000
1000
,
0001
1000
0100
1000
0000
0001
0100
0001
,
0000
1000
0000
0001
0000
0010
0100
0000
,
0000
1000
0001
0010
0100
1000
0000
0010
,
0000
0010
0000
0100
0000
0002
0000
0000
,
1003
0000
0000
1000
0100
0010
0100
1000
,
0001
0100
0000
0002
0000
0100
0103
0000
,
0010
1000
0100
0010
0001
0000
0001
1000
,
1001
0000
0001
0000
1000
0010
0100
0001
,
1000
0000
1000
0001
0010
0000
0100
0000
,
1000
0000
0001
0100
0010
1000
0100
1000
,
0001
0000
0001
1000
0100
0000
1000
0000
,
0001
0100
0001
0100
1000
0100
0001
0010
,
1000
0000
0010
0001
1000
0000
0010
0000
,
1000
0100
1000
0100
0001
0100
1000
0010
,
0001
0000
0010
1000
0001
0000
0010
0000
,
0100
1000
0001
0100
0000
0010
0000
1000
,
0000
0001
0000
0100
0000
0010
0000
1000
,
0001
0010
0100
1000
0000
0010
0100
0010
,
0000
1000
0001
1000
0000
0100
0000
0010
,
0000
0001
0010
0100
1000
0001
0000
0100
,
0000
1000
0000
0100
0000
0002
0000
0000
,
0013
0000
0100
1000
0001
1000
0100
1000
,
0001
0100
0000
0020
0000
0100
0130
0000
,
0001
0100
0001
1000
0100
1000
0100
0010
,
0001
0100
0010
1000
0001
0100
0010
0000
,
0010
0100
0001
1000
0001
1000
0100
0010
,
0100
1000
0001
0100
0000
0010
1000
0000
,
0100
0010
0100
1000
0001
0010
0001
1000
,
0000
0010
0000
0100
0000
0001
1000
0100
,
0010
0000
0100
1000
0010
1000
0100
0010
,
0001
0100
0001
1000
0000
0010
0100
0000
,
0001
0100
0000
0100
0001
0000
1000
0100
,
1000
0100
0000
0010
0000
0001
1000
0010
,
0100
0010
0000
0010
1000
0100
0010
0100
,
0000
1000
0001
0000
1000
0100
0010
0001
,
1000
0010
0000
0010
1000
0000
0001
0000
,
0001
0010
0100
1000
,
0001
0000
0101
0000
,
1100
0000
0000
0010
0100
0000
0000
0000
,
0110
0000
0001
1000
0001
0000
0010
0000
,
0100
1000
0001
0100
0010
0100
0001
1000
,
0000
1000
0000
0100
0010
0001
0010
1000
,
0000
0010
0100
1000
0001
0100
0010
0001
,
0000
0001
0010
0100
0001
1000
0100
0010
,
0000
0001
1000
0000
0100
0000
0100
0000
,
1001
1000
1100
0001
,
0101
1000
1010
0001
,
0011
0000
0001
0010
0100
0000
0100
1000
,
0000
1000
0001
0000
0100
0010
0100
0001
,
0000
1000
0010
0100
0010
1000
0100
0001
,
0000
0100
0000
1000
0001
1000
0010
0001
,
0000
0001
0010
1000
0001
0010
0100
1000
,
0000
1000
0010
0000
0010
0100
0001
0010
,
0100
0000
0100
1000
0010
0000
0010
1000
,
0001
0000
0001
1000
0100
0010
0100
1000
,
0001
0000
0011
0000
0010
0000
0100
1000
,
0100
0010
0000
0002
0000
1000
1003
0000
,
0010
1000
0001
0100
0001
0000
0011
0000
,
1100
0000
1000
0010
0000
0100
0001
0010
,
0000
0100
1000
0010
0100
0000
0101
0000
,
0001
0010
0000
1100
0000
1010
0000
0100
,
0001
1000
0001
0010
0100
0000
0100
1000
,
0001
0000
0001
0100
0000
0010
1000
0001
,
0010
0000
0010
0100
1000
0000
1000
0001
,
0100
0000
0100
0001
1000
0001
1000
0001
,
0010
0100
0000
0100
1000
0001
0000
0100
,
0000
0010
0110
0000
0000
0000
0000
0000
;

//---------------dance-single - ----------------
#NOTES:
     dance-single:
     :
     Hard:
     15:
     0.844473,0.957632,0.462157,0.300939,0.354679,550.000000,507.000000,43.000000,28.000000,0.000000,0.000000,0.844473,0.957632,0.462157,0.300939,0.354679,550.000000,507.000000,43.000000,28.000000,0.000000,0.000000:
0000
0000
0000
0000
,
0000
0000
0000
0000
,
1000
0001
0010
0100
0000
1000
0100
0010
0000
0001
0000
1000
0000
0010
0000
0100
,
0001
1000
0010
0100
0000
0001
0100
0010
0000
1000
0000
0100
0000
0010
0000
0100
,
1000
0001
0010
0100
1000
0010
0000
0100
0000
0001
0000
1000
0000
0001
0100
0010
,
0100
0001
0000
0001
0000
1000
0100
1000
0001
0100
0000
0010
0000
1000
0001
0000
,
1000
0001
0010
0100
0000
1000
0100
0010
,
0000
0000
0001
1000
0001
0000
0100
0000
0010
0000
0100
0000
0001
0000
0010
0000
,
0100
1000
0010
0100
0000
0010
1000
0001
,
0000
0000
1000
0001
1000
0000
0100
0000
0010
0000
0100
0000
1000
0000
0010
0000
,
0100
0000
0010
0000
1000
0000
0001
0100
0001
0000
1000
0000
0000
0000
1100
0000
,
0000
0000
0101
0000
0000
0000
0011
0000
0000
0000
1100
0000
0000
0000
1000
0001
,
0100
0010
0000
0010
1000
0100
1000
0001
,
0010
1000
0000
0010
0000
0001
1000
0000
,
0001
0000
1000
0100
1000
0000
0010
0000
0200
0000
0000
0000
0010
0000
0310
0000
,
1001
0000
0001
0100
0010
0100
0001
0010
,
1000
0000
0001
0100
1000
0000
1100
0000
,
0011
0000
1000
0100
0010
0100
1000
0010
,
0001
0000
1000
0100
0001
0000
1001
0000
,
1000
0010
0100
0001
0010
0100
1000
0001
,
0100
0000
1000
0100
0001
0000
0101
0000
,
0001
1000
0010
0100
0010
1000
0100
0010
,
1000
0000
0001
0100
0010
0000
1001
0000
,
0001
0100
0001
0010
0000
0010
0001
1000
,
0000
0010
0100
0010
1000
0200
0000
0310
,
0001
1000
0100
0010
0000
0010
0100
1000
,
0000
0001
0100
0010
1000
0020
0000
0130
,
0001
1000
0001
1000
0100
0010
0000
1100
,
0000
0011
0000
0100
0001
2000
0001
0000
,
3010
0100
0000
0100
0000
0001
0010
0100
,
1000
0020
0000
0130
0102
0000
0013
0000
,
0100
1000
0010
1000
0100
0010
1000
0010
,
0021
0030
1200
0300
0012
0003
2100
3010
,
0100
0000
0100
0001
0010
0001
0100
0010
,
1020
0030
0201
0300
2010
3000
0102
0013
,
0100
1000
0100
0001
0200
1000
0000
1300
,
0020
1000
0000
0100
0000
1030
0002
0000
,
0013
0000
0100
1000
0001
0000
0100
0000
1000
0000
0100
0000
0020
0000
0000
0000
,
1030
0100
0010
0002
0000
1000
1003
0000
,
0001
0100
0000
0001
0010
0000
0001
0100
,
0001
0010
0000
0010
0100
0000
1000
0001
,
1000
0100
0000
1000
0010
0000
1000
0100
,
0000
0000
1000
0000
0010
0000
0100
0000
0001
0000
0010
0100
1000
0000
0001
0000
,
1000
0100
0000
1000
0010
0100
0002
0000
,
0023
0000
0230
0000
2300
0000
3001
0100
,
0010
1000
0001
1000
0100
0010
0100
1000
0001
0100
0010
1000
,
0002
0000
0000
0010
0023
0000
0130
0000
,
1100
0000
2000
0001
3002
0000
0023
0000
,
0031
1000
0001
1000
0001
0100
1000
0100
,
0000
0000
0100
0000
0010
0000
0100
0001
1000
0000
0100
0000
0010
0000
0001
0000
,
1000
0000
0010
0100
0010
0000
1000
0010
1000
0000
0001
1000
0001
0000
0010
0000
,
0000
0000
0010
0000
0100
1000
0001
0000
0010
0000
0100
0000
1000
0000
0010
0000
,
0000
0000
0010
0000
0100
0000
0000
0000
0001
0000
0010
0100
0010
0000
0001
0000
,
1000
0100
1100
0000
0101
0000
0001
1000
,
1010
0000
0110
0000
1000
0001
0011
0000
,
1001
0000
1000
0100
0001
0000
0001
0100
,
0000
0000
0100
0000
1000
0000
0000
0000
0001
0100
0001
0100
0001
0000
1000
0000
,
0000
0000
1000
0000
0100
0000
0010
0000
0100
0000
1000
0001
0100
0000
0010
0000
,
0000
0010
1000
0010
0100
0001
0010
1000
,
0001
0000
0100
0000
1000
0001
1000
0000
0010
0000
0100
0000
0001
0000
1000
0000
,
0000
0000
1000
0000
0010
0000
0000
0000
0100
0000
0001
1000
0100
0000
0010
0000
,
0001
0101
0001
1001
,
1000
1100
1000
1001
,
1010
0000
0010
0100
0010
0000
0010
0100
,
0001
0000
1000
0000
0000
0000
0001
0000
0010
0000
0100
0000
1000
0100
0010
0001
,
1000
0100
0100
0100
1000
0001
0100
0000
,
1010
0000
0000
0000
0101
0000
0001
0000
1000
0000
0001
0100
0001
0000
1000
0100
,
1000
0010
0010
0010
0100
0001
1000
0000
,
0001
0000
0101
0000
0000
0000
1001
0000
0001
0000
1000
0100
1000
0000
0001
0100
,
0001
0010
0100
1000
1100
0000
0100
1000
,
1010
0000
0000
0000
0100
0000
0001
0000
0011
0000
0010
0100
0010
0000
0001
1000
,
0001
0000
0100
0010
1001
0000
0010
0100
,
1001
0000
0100
0010
0100
0001
0010
0100
,
1000
0000
0001
0000
0000
0000
0001
0100
0010
0000
0100
0000
0000
0000
0010
0000
,
0000
0100
1001
0000
0000
0000
0000
0000
;

//---------------dance-single - ----------------
#NOTES:
     dance-single:
     :
     Challenge:
     17:
     1.024115,1.197040,0.343931,0.161218,0.789966,667.000000,635.000000,32.000000,15.000000,0.000000,0.000000,1.024115,1.197040,0.343931,0.161218,0.789966,667.000000,635.000000,32.000000,15.000000,0.000000,0.000000:
// measure 0
0000
0000
0000
0000
,  // measure 1
0000
0000
0000
0000
,  // measure 2
0001
0000
0010
0000
0100
0000
1000
0001
1000
0000
0100
0000
0010
0000
0001
0000
0000
0000
1000
0000
0000
0000
0001
0000
0100
0000
0000
0000
0010
0000
0000
0000
,  // measure 3
1000
0001
0010
0001
1000
0001
0100
0001
0000
0010
0000
0100
0000
0100
1000
0001
,  // measure 4
1000
0000
0010
0000
0100
0000
0001
1000
0001
0000
0100
0000
0010
0000
1000
0000
0000
0000
1000
0000
0000
0000
0001
0000
0100
0000
0001
0000
1000
0000
0010
0000
,  // measure 5
0100
0001
0000
0010
0000
0100
1000
0001
0010
0100
0000
1000
1001
0001
0100
0000
,  // measure 6
0001
0000
0010
0000
0100
0000
1000
0001
1000
0000
0100
0000
0010
0000
0001
0000
,  // measure 7
0000
0000
1000
0010
0100
0000
0001
0000
1000
0000
0000
0000
1000
0000
0100
0000
,  // measure 8
0010
0000
0001
1000
0001
0000
0010
0000
0100
0000
1000
0000
0001
0000
0100
0000
,  // measure 9
0000
0000
0010
1000
0001
0000
0010
0000
0100
0000
1000
0000
0001
0000
0100
0010
,  // measure 10
0100
0000
0001
0000
1000
0000
0100
0010
0100
0000
1000
0000
0001
0000
0100
0000
,  // measure 11
0000
0000
0010
1000
0001
0000
0010
0000
0100
0000
0000
0000
0100
0000
1000
0001
,  // measure 12
1000
0010
0000
0010
1000
0100
0001
0100
,  // measure 13
1000
0000
0010
0100
0001
0000
0010
0000
0100
0000
1000
0000
0010
0000
0000
0000
,  // measure 14
0010
0000
1000
0001
0010
0100
1000
0001
0200
0000
0000
0000
0010
0000
0310
0000
,  // measure 15
1001
0000
0001
0100
0010
0100
0001
0010
,  // measure 16
0100
0000
1000
0110
0001
0000
0011
0000
,  // measure 17
0010
0100
1000
0010
0100
1000
0100
0010
,  // measure 18
1000
0000
0000
0000
0001
0000
0110
0000
1000
0000
0000
0000
0001
0000
1000
0100
,  // measure 19
1000
0010
0100
0001
0010
0100
1000
0001
,  // measure 20
0100
0000
0010
1001
0100
0000
1000
0000
,  // measure 21
0001
0100
1000
0100
0010
1000
0100
0010
,  // measure 22
0100
0001
0100
1000
1100
0000
0011
0000
,  // measure 23
0001
0100
0001
0010
0000
0010
0100
0000
,  // measure 24
1000
0000
0000
0000
0001
0000
0000
0000
0100
0000
0000
0000
0010
0000
0000
0000
0000
0000
1000
0000
0000
0000
0000
0000
0001
0000
0000
0010
0000
0000
0001
0000
0000
0010
0000
0000
0100
0000
0000
0000
1000
0000
0000
0000
0001
0000
0000
0000
,  // measure 25
0010
0000
0100
1000
0001
0000
0100
0000
0201
0000
0000
0000
1300
0000
0100
0000
,  // measure 26
0001
0000
0000
0000
1000
0000
0000
0000
0100
0000
0000
0000
1000
0000
0000
0000
0000
0000
0010
0000
0000
0000
0000
0000
1000
0000
0000
0100
0000
0000
1000
0000
0000
0001
0000
0000
0100
0000
0000
0001
0000
0000
0010
0000
0000
0100
0000
0000
,  // measure 27
1000
0100
0010
0001
1000
0010
0000
0010
,  // measure 28
0100
0000
0000
0000
0001
0000
0000
0000
1000
0000
0000
0000
0001
0000
0000
0000
0000
0000
0010
0000
0000
0100
0000
0000
0010
0000
0000
0000
0000
0000
0001
0000
0000
0000
0000
0000
1000
0000
0000
0000
0000
0000
0000
0000
0000
0000
0000
0000
,  // measure 29
1000
0010
0000
0010
0100
0000
0010
2000
,  // measure 30
0001
0000
0000
3002
0000
0000
0000
0000
0000
1003
0000
0000
0001
0000
0000
1000
0100
1000
0100
0000
0000
0010
0000
0000
,  // measure 31
0001
0010
0100
1000
0001
1000
0100
0010
,  // measure 32
0002
0100
2003
0100
3002
0010
0103
1000
,  // measure 33
0001
0000
1000
0100
0010
0001
0100
0001
,  // measure 34
2000
0000
0100
0000
3002
0000
0100
0000
2003
0000
0010
0000
3100
0000
0001
0010
,  // measure 35
0001
1000
0100
0001
0100
1000
0001
0100
,  // measure 36
2000
0100
3002
0010
2003
0010
3001
0100
,  // measure 37
0010
0000
1000
0001
1000
0000
0100
0000
0110
0000
0000
0000
0020
0000
0000
0000
,  // measure 38
0031
0000
1000
0000
0100
0000
1000
0000
0010
0100
0010
0100
0010
0100
0010
0100
,  // measure 39
0001
0010
0000
1000
0010
0000
0001
0100
,  // measure 40
0001
0000
1000
0000
0010
0000
0100
0000
0000
0001
0000
0000
0010
0000
0000
0000
0000
0000
0100
0000
0000
1000
0000
0000
,  // measure 41
0001
0100
0000
1000
0100
0000
0001
1000
,  // measure 42
0001
0000
0000
0000
0100
0000
0000
0000
0010
0000
0000
0000
0100
0000
0000
0000
0000
0000
0001
0000
0000
0000
0000
0000
1000
0000
0000
0100
0000
0000
0010
0000
0000
0001
0000
0000
1000
0000
0000
0100
0000
0000
0010
0000
0000
0001
0000
0000
,  // measure 43
1000
0000
0010
0000
0000
0000
0010
0000
0100
0000
0001
0000
0100
0000
0001
1000
,  // measure 44
0001
0000
0000
0010
0000
0000
0100
1000
0100
1000
0000
0000
0001
0000
0000
0100
0000
0000
1000
0000
0000
0100
0000
0000
,  // measure 45
0001
0010
0100
0001
1000
0010
0100
1000
0010
0100
0001
1000
,  // measure 46
0001
0010
0100
1000
0100
0010
0100
1000
0002
0000
0000
0000
0103
0000
0000
0000
,  // measure 47
0110
0000
0100
0001
0001
0000
1000
0000
,  // measure 48
0000
0000
0000
0000
1001
0000
0000
1000
,  // measure 49
0001
0000
0100
0000
0010
0000
0100
0001
1000
0000
0100
0000
0010
0000
0001
1000
,  // measure 50
0100
1000
0100
1000
0001
0100
0001
0100
0001
1000
0100
0010
0001
1000
0010
0000
,  // measure 51
0000
0000
0010
0000
0100
0001
0010
0000
0100
1000
0100
1000
0001
0000
0101
0000
,  // measure 52
0000
0000
1000
0000
1100
0000
0000
0000
0001
0000
1000
0100
1000
0000
0001
0000
,  // measure 53
0100
0000
0000
0010
0000
0000
1000
0000
0000
0000
0000
0000
0001
0000
0000
0000
0000
0000
0010
0000
0000
0000
0000
0000
1100
0000
0000
0000
0000
0000
0000
0000
0000
0000
0000
0000
1000
0000
0000
0000
0010
0000
0000
0000
0100
0000
0000
0000
,  // measure 54
0001
0000
0000
0000
0001
0010
0100
1000
0001
0000
0000
0000
0110
0000
0000
0000
,  // measure 55
1001
0000
0001
0010
0100
0000
0100
1000
,  // measure 56
0000
0000
1000
0000
0001
0000
0000
0000
1000
0100
1000
0100
1000
0000
0001
0000
,  // measure 57
0000
0000
0001
0000
0100
0000
0010
0000
0100
0001
0100
0001
1000
0000
1100
0000
,  // measure 58
0000
0100
1100
1000
0001
0100
0101
0001
,  // measure 59
0010
0000
0100
0000
1000
0010
0100
0000
0001
0010
0100
1000
0001
0000
0101
0000
,  // measure 60
0000
0000
1000
0000
1100
0000
0100
0000
0010
0001
0010
0001
1000
0000
0010
0100
,  // measure 61
1000
0000
0100
0000
0001
0000
0010
0100
0001
0000
0100
1000
0001
0000
0100
0000
,  // measure 62
0001
1000
0100
1000
0100
0010
0100
1000
0001
0100
0001
0100
0010
0100
0001
0010
,  // measure 63
0100
1000
0001
1000
0010
0000
0010
0100
,  // measure 64
0001
0000
0000
0000
0000
0000
1000
0000
0000
0000
0000
0000
0000
0000
0000
0000
0000
0000
1000
0000
0000
0000
0000
0000
0001
0000
0000
0010
0000
0000
0100
0000
0000
1000
0000
0000
0001
0000
0000
1000
0000
0000
0100
0000
0010
0000
0001
0000
,  // measure 65
1000
0100
0100
0100
1000
0001
0100
0010
,  // measure 66
1001
0000
0000
0000
0110
0000
1000
0000
0001
1000
0100
1000
0001
1000
0100
1000
,  // measure 67
0010
0100
0100
0100
0001
0010
0100
1000
,  // measure 68
1100
0000
0101
0000
0000
0000
0001
0000
1000
0001
0100
0001
1000
0001
0100
0001
,  // measure 69
0010
0100
1000
0001
0110
0000
0001
1000
,  // measure 70
0110
0000
0000
0000
1001
0000
0001
0000
1000
0001
0100
0010
0100
0010
0100
0001
,  // measure 71
1000
0100
0010
0100
1001
0010
0100
0010
,  // measure 72
1001
1000
0001
0100
1000
0100
0010
1000
,  // measure 73
0100
0000
0010
0000
0000
0000
0010
0001
1000
0000
0010
0000
0000
0000
0100
0000
,  // measure 74
0000
0010
1001
0000
0000
0000
0000
0000
;
