#TITLE:Winding Road;
#SUBTITLE:;
#ARTIST:MAN WITH A MISSION;
#TITLETRANSLIT:Winding Road;
#SUBTITLETRANSLIT:;
#ARTISTTRANSLIT:MAN WITH A MISSION;
#GENRE:ANIME;
#CREDIT:;
#MUSIC:Winding Road.ogg;
#BANNER:Winding Road.png;
#BACKGROUND:Winding Road-bg.png;
#CDTITLE:;
#SAMPLESTART:59.789;
#SAMPLELENGTH:14.545;
#SELECTABLE:YES;
#OFFSET:1.092;
#BPMS:0.000=132.000;
#STOPS:;
#LASTBEATHINT:0.273726;
#BGCHANGES:2.500=Winding Road.avi=1.000=0=0=0=StretchNoLoop====,
99999.000=-nosongbg-=1.000=0=0=0=StretchNoLoop====
;
#FGCHANGES:;

//--------------- dance-single - ----------------
#NOTES:
     dance-single:
     :
     Hard:
     13:
     0,0,0,0,0:
0000
0000
0000
0000
,
0000
0000
0000
0000
,
1100
0100
0010
1001
0100
0010
1010
0100
,
1001
1000
0010
0101
0001
0100
1010
0100
,
0110
0010
0100
1100
0001
0100
1010
0100
,
0101
0001
1000
1010
0100
0001
0101
0001
,
1001
0100
0010
1010
1000
0010
0011
0010
,
0101
0000
0010
0000
0100
0000
1010
0000
0010
0000
0100
0000
1001
0000
0010
0100
,
1000
0100
0010
1001
0010
0100
1001
0100
,
1010
0000
0010
0000
0100
0000
0101
0000
0001
0000
0010
0100
1000
0001
0010
0100
,
2000
0000
0100
0100
0001
0000
0001
0001
,
0000
0010
0000
0000
0000
0000
0001
0000
,
3002
0000
0100
0000
0100
0000
1000
1000
,
0000
0100
0000
0000
0000
0100
0010
0000
,
2003
0000
0001
0000
0001
0000
0100
0100
,
0000
0001
0000
0001
0000
0000
0000
0001
,
3002
0000
0010
0000
0010
0000
0100
1000
,
0000
1000
0000
2003
0100
0100
0100
3100
,
1001
0001
0010
1100
1000
0010
1010
0100
,
0101
0100
0010
1010
0010
1000
0110
0100
,
0101
0001
0010
0011
0100
1000
0011
0001
,
1100
0000
0001
0000
0010
0000
1100
0000
1000
0000
0010
0000
0110
0000
0100
0001
,
0010
0100
1000
1001
0001
0010
1100
1000
,
0101
0100
0001
1010
0010
0100
1001
0001
,
1100
1000
0100
0011
1000
0100
0011
0001
,
1100
0000
0001
0000
0010
0000
1100
0000
1000
0000
0010
0100
0001
1000
0010
0100
,
0002
0000
2000
0000
,
3020
0000
0000
0000
0230
0000
0000
0300
,
2003
0000
0002
0000
,
0203
0000
0000
0000
0320
0000
0000
0030
,
3002
0000
0200
0300
,
2003
0000
0000
0000
0200
0000
0320
3030
,
1001
0001
0011
0010
0110
0100
1100
1000
,
1001
0001
0101
0100
1001
0000
0000
0000
,
1001
0100
0011
0100
1001
0100
1010
0100
,
1001
0010
1100
0010
1001
0010
0101
0010
,
0110
1000
0101
1000
0110
1000
0011
1000
,
0110
0001
1100
0001
0110
0001
1010
0001
,
1001
0100
1001
0010
1001
0100
1001
0010
,
0110
1000
0110
0001
0110
1000
0110
0001
,
0110
0100
1001
1000
0110
0010
1001
0001
,
1000
0000
0110
0000
0110
0000
0001
0000
0110
0000
0001
0010
0001
0010
0100
1000
,
0100
0010
0011
0001
1100
1000
0110
0100
,
0011
0000
0001
0000
1100
0000
1000
0000
0110
0000
0010
0000
0101
0000
0001
0100
,
0010
1000
0101
0001
0110
0010
1100
0100
,
1001
0000
0001
0000
0110
0000
0100
0000
1010
0000
1000
0000
0101
0000
0001
0010
,
0110
1000
0011
0100
1010
0001
0110
1000
,
0011
0100
1010
0001
1100
0010
1001
0001
,
1000
0000
1000
0001
0000
0001
1000
0000
;

//--------------- dance-single - ----------------
#NOTES:
     dance-single:
     :
     Challenge:
     16:
     0.289609,0.236559,0,0,0,188,188,0,0,0,0,0.289609,0.236559,0,0,0,188,188,0,0,0,0:
0000
0000
0000
0000
,
0000
0000
0000
0000
0000
0000
0000
0000
0000
0000
0000
0000
1000
0010
1000
0100
,
1001
0000
1000
0010
1000
0000
1001
0000
1000
0010
1000
0000
1100
0000
1000
0000
,
1001
0000
1000
0100
1000
0000
1010
0000
1000
0001
1000
0000
1100
0000
1000
0000
,
1001
0000
0001
1000
0001
0000
0101
0000
0001
0010
0001
0000
1001
0000
0001
0000
,
0011
0000
0001
1000
0001
0000
0101
0000
0001
0010
0001
0000
1001
0000
0001
0000
,
1001
0000
1000
0100
1000
0000
1001
0000
1000
0010
1000
0000
1100
0000
1000
0000
,
1001
0000
0001
0100
0001
0000
1001
0000
0001
0010
0001
0000
0101
0000
0001
0010
,
1001
0000
1000
0010
1000
0000
1100
0000
1000
0001
1000
0000
1010
0000
1000
0000
,
1001
0000
0001
1000
0001
0000
0101
0000
0001
0010
0001
1000
0001
0100
0001
1000
,
0001
1000
1000
1100
1000
1000
1010
1000
,
1000
1000
1000
1001
1000
1000
1001
1000
,
0001
0001
0001
0101
0001
0001
0011
0001
,
0001
0001
0001
1001
0001
0001
1001
0001
,
1000
1000
1000
1010
1000
1000
1100
1000
,
1000
1000
1000
1001
1000
1000
1001
1000
,
0001
0001
0001
0011
0001
0001
0101
0001
,
0001
0001
0001
1001
0100
0100
0100
0100
,
1001
0000
0001
0010
0001
0000
0101
0000
0001
1000
0001
0000
1001
0000
0001
0000
,
0011
0000
0001
0100
0001
0000
1001
0000
0001
0100
0001
0000
0101
0000
0001
0000
,
1001
0000
1000
0100
1000
0000
1010
0000
1000
0001
1000
0000
1001
0000
1000
0000
,
1100
0000
1000
0010
1000
0000
1001
0000
1000
0010
1000
0000
1010
0000
1000
0100
,
1001
0000
0001
1000
0001
0000
0011
0000
0001
0100
0001
0000
0101
0000
0001
0000
,
1001
0000
0001
0100
0001
0000
0011
0000
0001
0100
0001
0000
0101
0000
0001
0000
,
1001
0000
1000
0001
1000
0000
1010
0000
1000
0100
1000
0000
1100
0000
1000
0000
,
1010
0000
1000
0001
1000
0000
1001
0000
1000
0000
1000
0010
1000
0001
1000
0100
,
2000
0000
0002
0000
,
0023
0000
0000
0000
0230
0000
0000
0300
,
3002
0000
2000
0000
,
3200
0000
0000
0000
0320
0000
0000
0030
,
2003
0000
0020
0000
0032
0000
0203
0300
,
3002
0000
2000
0000
3200
0000
0320
0030
,
1003
1000
1010
1000
1100
1000
1001
0001
,
0011
0001
0101
0001
1001
0000
0000
0000
,
1001
0000
1000
0010
1000
0000
1010
0000
1000
0001
1000
0000
1100
0000
1000
0001
,
1000
0000
1010
0000
1000
0010
1000
0000
1000
0001
1000
0000
1000
0100
1000
0000
,
1001
0000
0001
0010
0001
0000
0101
0000
0001
0010
0001
0000
1001
0000
0001
0100
,
0001
0000
1001
0000
0001
0010
0001
0000
0001
0100
0001
0000
0001
1000
0001
0000
,
1001
0000
1000
0100
1000
0000
1010
0000
1000
0001
1000
0000
1010
0000
1000
0010
,
1000
0000
1001
0000
1000
0100
1000
0000
1000
0010
1000
0000
1000
0001
1000
0000
,
1001
0000
0001
0010
0001
0000
1001
0000
0001
0100
0001
0000
0011
0000
0001
1000
,
0001
0000
0101
0000
0101
0000
0001
0000
0011
0000
0001
0100
0001
0010
0001
1000
,
1001
0010
1000
0100
1000
0001
1000
0010
1000
0100
1000
0010
1000
0001
1000
0010
,
1000
0100
1000
0010
1000
0001
1000
0010
1000
0001
1000
0100
1000
0010
1000
0001
,
1001
1000
0001
0010
0001
1000
0001
0100
0001
0010
0001
1000
0001
0100
0001
0010
,
0001
1000
0001
0100
0001
0010
0001
0100
0001
1000
0001
0100
0001
0010
0001
1000
,
1001
0100
1000
0010
1001
0100
0001
0010
1001
0010
1000
0100
1001
0010
0001
0100
,
1001
0100
1000
0010
1001
0010
0001
0100
1001
0100
1000
0010
1001
0100
0001
0010
,
1001
1000
1000
0001
0001
0001
1001
0000
;
