#TITLE:Welcome トゥ 混沌(カオス);
#SUBTITLE:;
#ARTIST:(K)NoW_NAME;
#TITLETRANSLIT:Welcome To Chaos;
#SUBTITLETRANSLIT:;
#ARTISTTRANSLIT:(K)NoW_NAME;
#GENRE:ANIME;
#CREDIT:;
#MUSIC:Welcome To Chaos.ogg;
#BANNER:Welcome To Chaos.png;
#BACKGROUND:Welcome To Chaos-bg.png;
#CDTITLE:;
#SAMPLESTART:55.328;
#SAMPLELENGTH:11.027;
#SELECTABLE:YES;
#OFFSET:-0.193;
#BPMS:0.000=185.000
,168.000=92.500
,170.000=185.000
;
#STOPS:;
#BGCHANGES:2.000=Welcome To Chaos.avi=1.000=0=0=0=StretchNoLoop====,
99999.000=-nosongbg-=1.000=0=0=0=StretchNoLoop====
;
#FGCHANGES:;

//--------------- dance-single - ----------------
#NOTES:
     dance-single:
     :
     Medium:
     12:
     0,0,0,0,0:
0000
0000
0000
0000
,
0002
0000
0000
2003
0100
0000
3100
0000
,
2000
0000
0000
3002
0100
0000
0103
0000
,
0010
0100
0010
0000
1000
0001
1000
0000
,
0100
0010
0100
0010
0100
0010
0110
0000
,
1000
0100
0000
0001
0100
0000
1000
0100
,
0000
0001
0100
0000
0010
0000
1001
0000
,
0001
0010
0000
1000
0010
0000
0001
0010
,
0000
1000
0010
0000
0001
1000
1000
0000
,
0001
0100
0000
1000
0100
0000
0001
0010
,
0000
1000
0010
0000
0100
0000
0100
0000
,
1000
0001
0000
0010
0100
0000
1000
0001
,
0000
0100
0010
1000
0100
1000
0001
1000
,
0010
0010
0010
0010
,
0110
0000
1001
0000
0001
1000
0100
0000
,
0010
0001
0100
0000
0010
1000
0100
1000
,
0010
0000
0110
0000
0001
1000
0001
0000
,
1000
0001
1000
0000
1001
0000
1001
0000
,
0010
0000
0100
0000
0010
0100
0010
0000
,
1000
0100
1000
0000
0101
0000
1100
0000
,
0110
0000
1001
0000
1000
0001
0100
0000
,
0010
1000
0100
0000
0010
0001
0100
0001
,
0010
0000
0110
0000
1000
0001
1000
0000
,
0001
1000
0001
0000
1001
0000
1001
0000
,
0010
0000
0100
0000
0010
0100
0010
0000
,
0001
0100
0001
0000
1000
0100
1000
0100
,
0010
0001
0100
0010
,
1000
0010
0100
0010
1000
0100
0001
0100
,
2000
0100
3002
0010
,
2003
0001
3100
0001
1000
0010
0200
0000
,
2300
0000
0100
0000
3001
0010
0200
0000
,
1300
0001
1000
0001
0100
0010
0100
0000
,
0110
0000
1000
0010
0100
0000
0001
0010
,
0100
1000
0001
0010
1000
0001
0200
0000
,
1300
0010
0100
0000
1000
0100
0010
0000
,
0100
0001
0010
0100
1000
0001
0100
0010
,
0110
1010
0101
1010
,
0011
0000
1100
0000
0011
0000
1001
0100
,
0010
1000
0010
1000
0001
0100
0001
0100
,
0001
0010
0001
0010
0100
1000
0000
0001
,
1001
0110
1001
0110
,
0100
0010
0100
0010
1000
0001
1000
0002
,
0000
0000
2003
0000
3001
0010
0001
0010
,
0100
0010
0100
0010
0001
0100
0001
0100
,
0010
2000
0000
3001
1000
0100
1000
0100
,
0010
0001
1000
0100
0020
0000
0032
0000
,
0203
0000
2300
0000
3100
0001
0010
1000
,
0010
0100
1000
0010
0100
0000
0010
1000
,
0010
0001
0010
1000
0100
0000
0010
0001
,
0100
0000
0010
1000
0100
0000
0010
0001
,
1000
0001
1000
0010
0100
0001
0100
0001
,
1000
0100
1000
0100
0010
0001
0010
0200
,
0000
2300
0000
3100
0010
1000
0010
0001
,
0010
1000
0010
0001
0100
0000
0110
0000
,
0010
1000
0100
0010
0100
1000
0001
0010
,
0100
0001
0100
0010
0002
0000
0000
0000
,
2003
0000
0000
0000
3001
0010
0100
1000
,
0001
0000
0010
0000
0100
0000
1000
0000
0010
0000
0000
0010
0000
0000
0010
0000
,
0100
0001
1000
0000
0001
0100
0000
1000
,
0100
0000
0001
0100
0000
1000
0100
0000
,
0010
0000
1001
0000
1000
0010
0000
0001
,
0010
0000
1000
0010
0000
0001
0010
0000
,
1000
0001
0001
0000
1000
0100
0000
0001
,
0100
0000
1000
0010
0000
0001
0010
0000
,
0100
0000
0100
0000
0001
1000
0000
0010
,
0100
0000
0001
1000
0000
0100
0010
0001
,
0100
0001
1000
0010
0200
0000
0302
2000
,
0000
0000
0000
0000
,
0000
3003
0000
0000
;

//--------------- dance-single - ----------------
#NOTES:
     dance-single:
     :
     Hard:
     15:
     0,0,0,0,0:
0000
0000
0000
0000
,
0001
0010
0000
0100
1000
0001
1000
0000
,
1000
0010
0000
0100
0001
1000
0001
0000
,
1000
0100
1000
0100
1000
0000
0000
0000
0001
0100
0001
0100
0001
0000
0000
0000
,
0100
0010
0100
0010
0100
0000
0001
0000
1000
0000
0001
0000
1001
0000
0000
0000
,
1000
0100
0100
0001
0100
0100
1000
0010
,
0010
0001
0010
0010
1000
0000
1001
0000
,
0001
0100
0100
1000
0100
0100
0001
0010
,
0010
0000
1000
0000
0010
0000
0010
0000
0001
0000
1000
0010
1000
0000
0001
0100
,
0001
1000
1000
0100
0001
0001
0100
1000
,
1000
0010
0001
0001
0010
0000
1000
0100
,
1000
0001
0000
0010
0100
0000
1000
0001
,
0000
0000
0100
0000
0010
0000
1000
0000
0100
0000
1000
0001
1000
0000
0010
0200
,
0010
0010
0010
0310
,
0110
0000
1001
0000
0001
1000
0100
1000
,
0010
0100
0001
0000
0001
0010
0100
0010
,
0001
0000
0011
0000
0010
0100
1000
0000
,
0001
0010
0100
0010
0001
1000
0001
0000
,
0010
0000
0100
0000
0010
0100
0010
0000
,
0001
0010
0100
0010
0100
1000
0001
0000
,
0110
0000
1001
0000
1000
0001
0100
0001
,
0010
0100
1000
0000
1000
0010
0100
0010
,
1000
0000
1010
0000
0010
0100
0001
0000
,
1000
0010
0100
0010
1000
0001
1000
0000
,
0010
0000
0100
0000
0010
0100
0010
0000
,
1000
0000
0010
0000
0100
0000
0010
0000
0100
0000
0001
0010
0001
0000
1000
0100
,
1000
0000
1000
0100
0001
0100
1000
0000
,
0001
0000
0010
0000
1000
0000
0010
0000
0001
0000
0100
0000
0010
0000
0100
0001
,
2000
0000
0100
3010
0002
0000
0010
0103
,
2000
0000
0001
0000
3100
0000
0001
0000
0200
0000
0010
1300
0002
0000
0000
0000
,
2003
0000
3001
0010
0001
0010
0100
1000
,
0100
0000
1000
0000
0001
0000
1000
0000
0001
0000
0100
0010
0100
0000
0000
0000
,
0110
0000
0000
0000
1000
0000
0010
0100
0010
0000
0001
0000
1000
0000
0100
0010
,
0100
0000
0001
0000
0010
0100
0010
0000
1000
0000
0001
0100
0020
0000
0000
0000
,
0031
0000
0010
1000
0010
0000
0100
0000
1000
0000
0001
0100
0001
0000
1000
0000
,
0001
0000
0100
1000
0100
0000
0001
0000
1000
0100
1000
0000
0100
0010
0100
0010
,
0001
0001
0010
0010
0100
0100
1000
1000
,
0001
0001
0100
0100
0010
0010
0000
1000
,
0010
0001
0010
1000
0100
0001
0100
1000
,
0010
0001
1000
0100
0001
1000
0000
0010
,
1001
0011
1010
1100
,
0001
0001
1000
1000
0001
1000
0001
2001
,
0000
0000
0000
0000
3002
0000
0000
0000
1003
0000
0100
0000
0010
0001
0010
0000
,
0100
0000
1000
0000
0001
1000
0001
0000
0100
0000
0010
0000
1000
0010
1000
0000
,
0100
0000
0010
0000
0001
0100
0001
0000
0010
0000
0010
0001
0100
0000
0100
0000
,
0010
0000
0010
1000
0100
0000
0100
0000
1000
0000
1000
0100
0010
0000
0010
0001
,
0100
0000
0100
0010
1000
0001
0100
0010
1000
0000
1000
0100
0010
0000
0010
0100
,
1000
0000
1000
0100
0010
0000
0010
0000
0001
0000
0001
0100
0010
0000
0010
0100
,
0001
0000
0001
0100
0010
0000
1000
0000
0100
0000
0100
0010
0100
0000
0100
0000
,
0010
0000
0010
0100
0010
0000
0010
0000
0001
0000
1000
0100
1000
0000
0001
0100
,
0001
0000
1000
0100
1000
0001
0100
0001
1000
0000
0001
0000
0100
0000
1000
0000
,
0100
0000
0001
0000
0010
0100
0010
0100
0010
0000
0001
0000
0010
0000
1000
0000
,
0010
0000
0001
0000
0100
0010
0100
0010
0100
0000
1000
0000
0100
0000
0001
0000
,
0010
0000
1000
0000
0010
0100
0010
0100
0010
0000
0001
0000
1001
0000
1000
0000
,
0001
0010
0001
0000
1000
0010
1000
0010
0100
0000
0001
0000
0010
0000
0100
0000
,
1000
0001
0010
0100
2000
0000
0000
0000
,
0002
0000
3003
0000
1000
0010
0100
0001
,
1000
0000
0010
0000
0100
0000
0001
1000
0001
0000
0000
1001
0000
0000
0001
0010
,
0001
0010
0100
1000
0001
0000
0000
0000
0001
0000
0100
0000
0100
0000
1000
0000
,
0100
0100
0001
0010
0010
1000
0010
0010
,
0001
0000
1001
0000
1000
0100
0100
0001
,
0100
0100
1000
0010
0010
0001
0010
0010
,
1000
0000
0001
0010
0001
0000
1000
0100
1000
0000
0001
0000
0001
0000
0100
0000
,
1000
1000
0100
0001
0001
0010
1000
1000
,
0010
0000
0001
0100
0001
1000
0000
0010
,
0100
0000
0001
1000
0000
0100
0010
0001
,
0100
0000
0001
1000
0001
0000
0010
0100
0020
0000
0000
0000
0032
0000
2000
0000
,
0000
0000
0000
0000
,
0000
3003
0000
0000
;

//--------------- dance-single - ----------------
#NOTES:
     dance-single:
     :
     Challenge:
     17:
     1.052189,1.232306,1.042877,0.271583,0.678957,678,582,96,25,0,0,1.052189,1.232306,1.042877,0.271583,0.678957,678,582,96,25,0,0:
0000
0000
0000
0000
,
2000
0010
0000
3010
0100
0001
2000
0000
,
0001
3020
0000
0130
1000
0001
2000
0000
,
3001
0100
0001
0100
0010
0000
0000
0000
0100
0001
0100
0001
0010
0000
0000
0000
,
0100
0010
0100
0010
0001
0000
1000
0000
0110
0000
0110
0000
1001
0000
0000
0000
,
1001
0001
0001
0101
0100
0100
1001
1000
,
1000
1100
0100
0100
1001
0000
0110
0000
,
1001
1000
1000
1100
0100
0100
1001
0001
,
0001
0000
0101
0000
0100
0000
0100
0000
1001
0000
1000
0100
1000
0000
1000
0010
,
0100
0100
0100
0101
0001
0001
0110
0010
,
0010
1010
1000
1000
0110
0010
1001
1000
,
0001
0101
0000
1000
1010
0000
0100
0110
,
0000
0000
0010
0000
1010
0000
1000
0000
0010
0000
1000
0010
0100
0000
0001
0020
,
0100
0100
0100
0130
,
0110
0000
1001
0000
0100
1000
1010
0100
,
0001
0010
0100
0000
1001
0010
0100
0010
,
0101
0000
1010
0000
1100
0100
0011
0000
,
0001
0010
0100
0000
0100
1000
0001
0000
,
0100
0000
0010
0000
0100
0001
1000
0000
,
0001
0010
0001
0000
1000
0100
1000
0000
,
0001
0000
0110
0000
0100
0001
0011
0100
,
1000
0010
0100
0000
1001
0010
0100
0010
,
1100
0000
0011
0000
0101
0100
1010
0000
,
1000
0010
0100
0000
0100
0001
1000
0000
,
0100
0000
0010
0000
0100
1000
0001
0000
,
1000
0000
0010
0000
1000
0000
0000
0000
0001
0000
0100
0010
0100
0000
0001
1000
,
0001
0000
0001
0010
0100
0010
0001
0000
,
1000
0000
0100
0000
0010
0000
0100
0000
1000
0000
0001
0000
0110
0000
0010
1000
,
0010
0000
0000
0000
1000
0000
0010
0000
0100
0000
0001
1000
0001
0000
0010
0000
,
0100
1000
0100
0000
0010
0001
0010
0000
0100
1000
0100
1000
0001
0000
0000
0000
,
1000
0000
0000
0000
0001
0000
0100
0000
0001
0000
0100
0010
0100
0001
0100
1000
,
0100
0000
0010
1000
0100
0000
0010
0001
0100
0000
0001
1000
0001
0000
0000
0000
,
0010
0000
0000
0000
0100
0000
1000
0001
0100
0000
0010
1000
0100
0000
0010
0001
,
0010
0000
0100
0010
0100
0000
1000
0000
0001
0100
0010
1000
0001
0000
0100
0000
,
0001
0000
0010
1000
0010
0000
0100
0000
1000
0010
0001
0010
0100
0000
1000
0000
,
0100
0000
0010
0100
0001
0000
0010
0000
0100
1000
0100
0010
0100
1000
0100
0010
,
0001
0010
2100
3001
0102
1003
2100
3001
,
0012
1003
2010
3001
0011
2002
3003
1001
,
0120
0130
2100
3100
0102
0103
0210
0310
,
2010
3010
0012
0013
0110
2002
3003
1001
,
0110
0011
1010
1100
,
0001
0100
0100
1000
0100
0100
0001
2001
,
0000
0000
0000
0000
3002
0000
0000
0000
0103
0001
0100
0001
1000
0100
1000
0100
,
0010
0001
0010
0001
1000
0010
1000
0010
0100
0001
0100
0010
1000
0001
1000
0010
,
0100
0001
0010
0100
1000
0001
1000
0100
0010
0001
0010
0001
1000
0010
1000
0010
,
0100
0001
0100
0001
1000
0100
1000
0100
0010
0001
0010
0100
1000
0001
1000
0100
,
0010
0001
0100
0010
1000
0001
0100
0010
1000
0001
1000
0001
1000
0010
0100
0010
,
1000
0001
1000
0001
1000
0100
0010
0100
1000
0001
1000
0001
1000
0010
0100
0010
,
1000
0001
1000
0001
1000
0100
0010
0100
1000
0001
0100
0010
1000
0001
0100
0010
,
1000
0001
0010
0100
1000
0001
0010
0100
1000
0001
0100
0010
1000
0001
0010
0100
,
1000
0010
0100
0001
0100
0001
0101
0001
,
0100
0001
0100
0010
1000
0010
1000
0001
0100
0000
0010
0000
1010
0000
0010
0000
,
1000
0100
1000
0001
0010
0100
1000
0001
0010
0000
0100
0000
0110
0000
0100
0000
,
1000
0010
1000
0001
0100
0010
1000
0000
0001
0000
1000
0000
1001
0000
1000
0000
,
0001
0010
0001
1000
0100
0010
0100
0010
0001
0000
1000
0000
0010
0100
0010
0000
,
0001
0000
1000
0000
0100
0010
0100
0000
0001
0000
1000
0000
0100
0010
0100
0000
,
0002
0000
0000
0000
0103
1000
0001
0010
,
0100
0000
1000
0000
0100
0000
1000
0001
1000
0000
0000
0110
0000
0000
0100
0001
,
1000
0001
1000
0010
0100
0000
0000
0000
1001
0000
1000
0000
1000
0000
1010
0000
,
0010
0010
1001
0001
0001
0011
0010
0010
,
1001
0000
0110
0000
1001
0001
0001
0011
,
0010
0010
1001
1000
1000
1010
0010
0010
,
1001
0000
0001
0010
0001
0000
0001
0100
0010
0000
0010
0000
0010
0000
1010
0000
,
1000
1000
0110
0100
0100
0101
0001
0001
,
0110
0100
1001
0001
1000
1100
0000
0001
,
0011
0000
0100
0110
0000
0010
0011
0001
,
0100
0000
0010
1000
0010
0000
0010
0001
0020
0000
0000
0000
2030
0000
0002
0000
,
0000
0000
0000
0000
,
0000
3003
0000
0000
;
