#TITLE:Watch me!;
#SUBTITLE:;
#ARTIST:YOASOBI;
#TITLETRANSLIT:Watch me!;
#SUBTITLETRANSLIT:;
#ARTISTTRANSLIT:YOASOBI;
#GENRE:ANIME;
#CREDIT:;
#MUSIC:Watch me!.ogg;
#BANNER:Watch me!.png;
#BACKGROUND:Watch me!-bg.png;
#CDTITLE:;
#SAMPLESTART:51.785;
#SAMPLELENGTH:15.000;
#SELECTABLE:YES;
#OFFSET:2.590;
#BPMS:0.000=128.000;
#STOPS:;
#LASTBEATHINT:3.347953;
#BGCHANGES:5.500=Watch me!.avi=1.000=0=0=0=StretchNoLoop====,
99999.000=-nosongbg-=1.000=0=0=0=StretchNoLoop====
;
#FGCHANGES:;

//--------------- dance-single - ----------------
#NOTES:
     dance-single:
     :
     Medium:
     11:
     0,0,0,0,0:
0000
0000
0000
0000
,
0000
0000
0000
0000
,
0001
0000
0000
0000
1000
0000
0000
0001
0100
0000
0010
0000
0100
0000
0001
0000
,
1000
0100
0010
0001
0000
1000
0001
1000
,
0020
0000
0230
0000
0301
0100
0010
1000
,
0001
0010
0100
1000
0000
0001
0100
0001
,
1000
0000
1000
0001
0100
0001
1000
0100
,
1000
0001
0100
0010
0000
1000
0001
0010
,
0000
0100
1000
0001
0000
0100
0010
0100
,
0001
0000
1000
0000
0010
0000
0100
0000
0001
0000
0000
1000
0000
0010
0100
0000
,
0001
0000
1000
0100
0000
1000
0001
0000
0100
0000
0001
0010
0000
0001
1000
0000
,
0010
0000
0100
0000
0001
0000
1000
0000
0100
0000
0000
0010
0000
0001
1000
0000
,
0010
0100
0000
0001
0000
1000
0000
0010
0000
1000
0001
0000
0010
0000
0000
0000
,
0100
1000
0001
0100
1000
0100
0001
1000
,
0000
0001
1000
0100
0001
0100
1000
0001
,
0000
0100
0010
1000
0001
0010
0000
0010
,
0100
1000
0001
1000
0010
0100
0001
1000
,
0000
0001
0100
1000
0100
0001
0010
0100
,
0000
1000
0100
0001
0100
1000
0010
0100
,
0001
0000
1000
0000
0001
0100
0000
0100
0000
0000
0010
0000
1000
0000
0001
0000
,
0010
0000
0100
1000
0000
0001
0100
0000
2002
0000
0000
0000
0000
0000
3003
0000
,
0001
0000
1000
0000
0010
0000
0100
0000
0201
0000
0000
1000
0000
0000
0301
0000
,
1000
0000
0100
0000
0010
0000
0001
0000
0020
0000
0130
0020
0000
0000
0130
0000
,
1000
0001
0100
0100
0010
1000
0100
0100
,
0010
0000
0001
1000
0000
1000
0000
0010
0000
0010
0100
0000
0001
0000
1000
0000
,
0010
0000
0001
0000
1000
0000
0100
0000
0002
0000
0000
2003
0000
0000
3001
0000
,
0010
1000
0001
0100
2000
0000
3001
1000
,
0002
0023
0230
2300
3020
0230
0302
0023
,
0230
0000
1300
0001
0100
0010
0100
0010
,
0110
0000
0000
0000
1001
0000
0000
0000
0101
0000
0000
1010
0000
0000
0101
0000
,
0001
0000
1000
0100
0010
0001
0010
0100
,
0110
0000
0000
0000
1001
0000
0000
0000
0011
0000
0000
1100
0000
0000
0011
0000
,
0001
0010
0100
1000
0100
0010
0001
1000
,
0001
0100
1000
0100
0001
0010
1000
0020
,
0000
0031
0010
0100
1000
0001
1000
0010
,
0110
0000
0000
0000
1001
0000
0000
0000
1010
0000
0000
0101
0000
0000
1010
0000
,
0010
1000
0100
0010
0100
1000
0001
1000
,
0001
0100
0010
0100
0001
1000
0100
1000
,
0001
0100
1000
0100
0001
0010
0100
1000
,
0001
0010
0100
0010
0001
1000
0100
0001
,
0200
1000
2300
0010
3020
0100
0230
0001
,
0301
0010
1000
0010
0001
0100
1000
0200
,
0000
0301
0010
0100
1000
0001
0010
0100
,
1100
0000
0000
0000
0011
0000
0000
0000
1200
0000
0000
0001
0000
0000
1300
0000
,
0001
0100
0010
0100
1000
0100
0001
0010
,
0100
0000
1000
0010
0000
0010
0000
0100
0000
0001
0000
0001
0000
0010
0100
0000
,
0100
0000
1000
0000
0100
0000
1000
0000
0002
0000
0000
1000
0000
0000
1003
0000
,
0001
0000
0100
0000
0100
0000
0200
0000
0010
0000
0000
1000
0000
0000
0301
0000
,
1000
0100
1000
0100
1000
0102
0003
0000
;

//--------------- dance-single - ----------------
#NOTES:
     dance-single:
     :
     Hard:
     14:
     0,0,0,0,0:
0000
0000
0000
0000
,
0000
0000
0000
0000
,
0110
0000
0000
0000
1001
0000
0000
0001
0100
0000
0010
0000
1000
0000
0001
0000
,
0011
1000
0100
1100
0000
1000
0010
0100
,
0110
0000
1001
0000
0001
0010
0100
1000
,
0001
0100
0010
0110
0000
1000
0001
0100
,
0101
0000
0000
1000
0100
0000
0010
0000
0100
0000
1000
0001
0100
0000
0010
0000
,
1000
0000
0001
0010
0100
0000
1000
0000
0000
0000
1000
0000
0001
0000
0101
0000
,
0000
1000
0100
1100
0000
1000
0001
1001
,
1000
0000
0010
0000
0100
0000
0001
0000
1000
0000
0000
0001
0000
1000
0010
0100
,
0001
0010
0000
0110
0000
0100
1000
0001
0100
0010
0000
1001
0000
0001
1000
0001
,
0100
0100
1000
0001
0100
0000
0010
0000
1010
0000
1000
0100
0000
0010
0100
0000
,
1000
0001
0100
1000
0000
0100
0001
0010
0000
0100
1000
0000
1100
0000
0000
0000
,
1000
0000
0010
0000
0100
0001
1000
0001
0000
0001
0010
0000
1100
0000
0010
0000
,
1001
0000
0001
0100
0010
1000
0000
0001
0000
1000
0010
0000
0100
0000
0001
0000
,
1000
0000
0100
0000
0001
0000
0100
0010
0000
0000
1001
0000
0000
0000
0001
0100
,
0001
0000
1000
0010
0000
0100
0000
0001
0000
0001
1000
0000
0100
0000
0010
0000
,
0011
0000
0001
0010
0100
0000
1000
0010
0000
0100
0001
0000
0010
0000
0100
0000
,
1100
0000
0001
0100
0010
0000
1000
0010
0000
0100
0001
0000
0010
0000
0100
0000
,
1000
0001
1000
0000
0010
0100
0000
0002
0000
0000
0013
0000
0100
0000
1000
0000
,
0001
0000
0100
0010
0000
1000
0001
0000
1000
0100
0010
0001
0010
0100
1000
0000
,
0011
0000
1100
0000
2000
0000
3010
0000
1010
0000
1000
0002
0000
1003
0002
0000
,
1003
0001
0010
0100
1000
0000
0010
0000
0200
0000
0310
0200
0000
0000
0310
0000
,
1000
0100
0002
0000
0103
0020
0000
0000
0031
0100
1000
0100
0001
2000
0000
0000
,
3001
0010
0100
1000
0000
1100
0000
0101
0000
0001
1000
0000
1010
0000
0010
0100
,
0010
0000
1000
0000
0001
0000
1000
0000
1100
0000
0000
1000
0001
0000
0011
0000
,
0010
0000
0001
0000
1000
0000
0001
0000
0101
0000
0000
0000
1000
0010
0100
0001
,
2000
0000
3200
0000
0320
0000
0032
0000
2003
0000
3010
0100
0010
0000
1000
0000
,
1001
0000
0001
0010
0100
0000
1000
0000
1010
0000
0101
0000
1001
0000
0001
1000
,
0100
0000
0000
0000
0110
0000
0010
0000
0001
0000
1000
0010
0000
0010
0100
0001
,
1000
0200
0000
0310
0001
1000
0001
0100
0010
0000
1000
0001
1000
0000
0100
0000
,
0110
0000
0000
0000
1001
0000
0000
0000
0011
0000
0001
0010
0000
0100
1000
0000
,
1000
0010
0100
0001
0000
0001
0010
0100
1000
0000
1000
0010
0100
0000
0010
0000
,
1010
0000
0101
0000
0011
0000
1100
0000
1001
0000
0001
0010
0100
0000
1200
0000
,
0000
0000
1300
0000
0001
0000
1000
0010
0100
0000
0001
0000
1000
0000
0100
0000
,
1100
0000
1000
0000
0101
0000
0001
0000
0110
0000
1000
0010
0000
0100
0001
0000
,
1000
0200
0000
0010
0000
1300
0001
0100
0001
1000
0001
0010
0100
0000
1000
0000
,
0101
0000
1000
0000
0110
0000
1000
0000
0101
0000
1000
0010
0000
0010
0100
0001
,
1000
0001
0000
1001
0000
1000
0100
0010
0001
1000
0000
0001
0000
1000
0001
0000
,
1100
0000
0001
0000
0110
0000
0001
0000
1100
0000
0001
0100
0000
0010
1000
0000
,
0001
0000
1000
0100
1000
0000
0001
0100
0001
0000
1000
0100
1000
0000
0001
0000
,
1020
0130
0021
0130
1002
0103
0010
0200
,
0000
0000
0310
1000
0001
0000
0010
0000
0100
0000
1000
0000
0001
0000
0100
0000
,
0110
0000
0001
0000
1001
0000
0010
0000
0110
0000
1000
0010
0000
0100
0001
0000
,
0001
0010
0000
0100
0000
1000
0001
0100
0010
0100
0001
1000
0100
0000
1000
0000
,
0001
0010
0100
1000
0000
1010
0000
0101
0000
0001
1000
0100
0000
0010
0001
0000
,
1002
0000
0103
0000
2001
0000
3100
0000
1002
0000
0000
0010
0000
0000
0010
0000
,
0203
0000
0010
0000
0010
0000
0310
0000
0110
0000
0000
1000
0000
0001
1000
0000
,
2001
3100
1002
0103
1001
0210
0300
0000
;

//--------------- dance-single - ----------------
#NOTES:
     dance-single:
     :
     Challenge:
     16:
     0.956753,0.945962,0.55441,0.188499,1.347216,604,554,50,17,0,0,0.956753,0.945962,0.55441,0.188499,1.347216,604,554,50,17,0,0:
0000
0000
0000
0000
,
0000
0000
0000
0000
,
0011
0000
0000
0000
1100
0000
1000
0001
0100
0000
0000
0101
0000
1010
0000
0000
,
1001
0000
0000
0011
0000
0010
0100
0000
0110
0000
0000
0110
0000
0000
1001
0000
,
0001
0000
0100
0000
0000
0010
1000
0000
0001
0000
0000
0021
0000
0000
0000
0000
,
0130
0000
1000
0000
0001
0000
0000
0100
0001
0010
0000
0110
0000
1000
0001
0000
,
0100
0000
1000
0100
0010
0000
1000
0001
0010
0000
0100
1000
0010
0100
0001
0010
,
1000
0000
0010
0001
1000
0010
0100
0001
1000
0001
0010
0100
1000
0001
0100
0010
,
1000
0000
0000
0001
0000
0000
1000
0000
0000
0010
0000
0000
0100
0000
0000
0001
0000
0000
1000
0000
0100
0000
0010
0000
0001
0000
1000
0000
0010
0000
0100
0000
0001
0000
1000
0000
0100
0000
0000
0000
0000
0000
0000
0000
0000
0000
0000
0000
,
0110
0000
1000
0000
0001
0000
0010
0000
1100
0000
0000
1000
0001
0100
0010
0100
,
0001
1000
0000
1001
0000
0001
0010
0100
1000
0001
0000
1001
0000
0001
1000
0001
,
0100
0100
1000
0010
0100
0000
0010
0000
1001
0000
0001
0100
0000
0010
1000
0001
,
0100
0010
1000
0100
0000
0010
0001
0100
0000
0010
0100
0000
0110
0000
0001
1000
,
0001
0000
0000
0000
1000
0000
0000
0000
0010
0100
0010
0100
0010
0000
1000
0000
0000
0000
0001
0100
0001
1000
0100
1000
0010
0000
0100
0000
0001
0000
1000
0000
,
0100
0010
0000
0110
0000
0001
1000
0010
0100
0010
0000
1001
0000
0001
0010
0100
,
1000
0010
0100
1000
0000
0100
0010
1000
0001
0010
0100
0001
0000
0100
1000
0001
,
0000
0100
0010
0100
0000
0001
1000
0100
0010
0100
1000
0001
0000
0100
0010
0100
,
0001
0010
0100
1000
0001
0000
0100
0000
0010
1000
0001
1000
0000
0001
0100
0001
,
0010
0100
1000
0001
0000
0100
0010
1000
0001
1000
0100
0010
0000
0100
1000
0001
,
0100
0010
1000
0001
0100
0000
1010
0000
0101
0000
0001
0010
0000
0100
1000
0001
,
1000
0000
0100
0000
0010
0000
0001
0000
0010
0000
0100
0000
0010
0000
0001
0000
0010
0000
0100
0000
1000
0000
0100
0000
0010
0000
0000
0001
0000
0000
1000
0000
0000
0001
0000
0000
1000
0000
0000
0010
0000
0000
0100
0000
0000
0001
0000
0000
,
0011
0000
1100
0000
0021
0000
0130
0000
1001
0000
0101
1001
0000
1100
1001
0000
,
0001
0000
0100
0010
0100
0000
0001
0000
0010
0000
0100
0000
1000
0000
0000
0000
1010
0000
0000
0000
0001
0000
0102
0000
0000
0000
0103
0000
0010
0000
1000
0000
,
0001
0000
0010
0100
1000
0010
0001
0000
0011
0000
0010
1000
0100
0001
1000
0010
,
0001
1000
0010
0100
0000
0101
0000
1100
0000
1000
0001
0000
0101
0000
0100
0001
,
1000
0000
0000
0001
0010
0100
1000
0000
0000
1001
0000
0000
0001
0000
0000
1000
0100
0010
0001
0000
0000
1001
0000
0000
,
1000
0000
0010
0000
0100
0000
0001
0000
0010
0000
0100
1000
0001
1000
0010
0100
,
0002
0000
0023
0000
0230
0000
2300
0000
3002
0000
0103
0010
0100
0000
0001
0000
,
1000
0100
1000
0100
1000
0000
0001
0000
0100
0000
0000
0000
0010
0000
0000
0000
1000
0100
1000
0000
0001
0100
0001
0000
1000
0000
0000
0000
0001
0000
1000
0000
,
0200
0000
0310
0000
0110
0000
1000
0001
0100
0000
0010
0100
1000
0100
0010
1000
,
0100
0020
0000
0230
0000
0310
0100
0001
0100
0010
0001
0100
0010
1000
0001
0100
,
1000
0000
0100
0010
0100
0001
1000
0100
0010
0000
0001
0010
0100
1000
0001
0000
,
1000
0010
0100
0010
1000
0000
0001
0010
0100
0010
0001
1000
0010
0000
0100
0001
,
1000
0000
0110
0000
0001
0000
0110
0000
1000
0000
0001
0100
0001
0010
0100
1000
,
0010
1000
0100
0000
0010
0001
1000
0010
0100
0000
0001
0000
1000
0100
0010
0000
,
0110
0000
0100
1000
0001
0000
0100
0000
0110
0000
0010
1000
0001
0010
0100
1000
,
0001
0000
0000
0200
0000
0000
0000
0000
0000
1000
0000
0000
0000
0000
0000
0310
0000
0000
1000
0000
0000
0100
0000
0000
0010
0000
0000
0001
0000
0000
1000
0000
0000
0000
0000
0000
0010
0000
0000
0100
0000
0000
0001
0000
1000
0000
0001
0000
,
1000
0000
1100
0000
0100
1000
0001
0000
0101
0000
0100
0001
0000
0001
0010
0100
,
1000
0010
0000
0110
0000
0100
0001
0100
0010
0100
1000
0100
0000
0001
1000
0100
,
0001
0000
0110
0000
1000
0000
0110
0000
0001
0000
1000
0001
0000
0001
1000
0000
,
0001
0000
0100
0000
0100
0000
1000
0000
0001
0000
0100
0000
0100
0000
0010
0000
0001
0000
0100
0000
0100
0000
1000
0000
0010
0000
0100
0000
0100
0000
1000
0001
,
1000
0000
0101
0000
1000
0000
0101
0000
1000
0000
1000
0002
0000
0000
0013
0000
,
0100
0000
1000
0001
1000
0010
0100
0000
0001
0000
0010
0100
1000
0000
0001
0100
,
1000
0100
0001
0000
1000
0100
0010
0000
0110
0000
0100
1000
0000
0001
0100
0000
,
0010
1000
0000
1000
0001
0010
1000
0001
0100
1000
0001
0010
0100
0000
1100
0000
,
0001
0010
0100
1000
0000
1100
0000
0011
0000
0001
0100
0010
0000
1000
0001
0000
,
2100
0000
3001
0000
1200
0000
0301
0000
2100
0000
0000
0001
0000
0000
3001
0000
,
1000
0020
0100
0000
0100
0000
0130
0000
0110
0000
0000
0001
0010
0100
1000
0000
,
0102
1003
0201
1300
0101
1200
0300
0000
;
