#TITLE:私は、わたしの事が好き。;
#SUBTITLE:;
#ARTIST:HoneyWorks / かぐや(cv.夏吉ゆうこ) from 超かぐや姫!;
#TITLETRANSLIT:Watashiwa Watashino Kotoga Suki;
#SUBTITLETRANSLIT:;
#ARTISTTRANSLIT:HoneyWorks;
#GENRE:ANIME;
#CREDIT:;
#MUSIC:Watashiwa Watashino Kotoga Suki.ogg;
#BANNER:Watashiwa Watashino Kotoga Suki.png;
#BACKGROUND:Watashiwa Watashino Kotoga Suki-bg.png;
#CDTITLE:;
#SAMPLESTART:54.342;
#SAMPLELENGTH:10.725;
#SELECTABLE:YES;
#OFFSET:0.839;
#BPMS:0.000=193.000;
#STOPS:174.500=0.622;
#BGCHANGES:2.750=Watashiwa Watashino Kotoga Suki.avi=1.000=0=0=0=StretchNoLoop====,
99999.000=-nosongbg-=1.000=0=0=0=StretchNoLoop====
;
#FGCHANGES:;

//--------------- dance-single - ----------------
#NOTES:
     dance-single:
     :
     Medium:
     12:
     0,0,0,0,0:
0000
0000
0000
0000
,
0000
0000
0000
0000
,
0001
0100
0001
1000
0100
1000
0010
0100
,
0001
0010
0001
1000
0010
1000
0100
0010
,
0001
0100
0001
1000
0100
1000
0010
0100
,
0001
0010
0001
1000
0010
1000
0100
0010
,
0001
0100
0001
0100
0010
1000
0010
1000
,
0001
0010
0001
0010
0100
1000
0100
1000
,
0001
0010
0100
1000
0001
0100
0010
0100
,
0001
0000
1000
0100
1000
0000
0001
0000
1000
0000
0001
0100
0001
0000
1000
0000
,
0010
0000
1001
0000
0001
0010
0100
2000
,
0000
3010
0100
0001
1000
0200
0000
1300
,
0001
0000
1001
0000
1000
0100
0010
0002
,
0000
1003
0010
0100
0001
0020
0000
0031
,
1000
0000
1001
0000
0100
0000
0001
0020
,
0000
0130
1000
0002
0000
1003
0001
0100
,
0010
0000
1010
0000
0101
0000
0001
0010
,
0000
0100
1000
0100
0010
0001
0010
0100
,
1000
0001
0010
0100
2000
0000
3020
0000
,
0130
0001
1000
0001
2000
0100
3100
0000
,
0010
0001
1000
0100
0020
0000
0230
0000
,
1300
0001
0100
0010
2000
0001
3001
0000
,
0010
0000
0110
0000
0100
1000
0001
0010
,
0000
0100
1000
0000
0001
0100
0010
1000
,
0000
1000
0001
0000
1000
0100
1000
0100
,
0000
0010
0001
1000
0000
0002
0203
0320
,
2030
0000
3001
0100
2000
0000
3100
0001
,
0010
0100
1000
0001
0010
2000
3020
0230
,
1300
0002
0000
0103
0010
0000
0101
0000
,
1000
0010
0100
0001
1000
0000
0001
0000
,
0011
0000
1100
0000
1000
0100
0010
0001
,
0011
1100
1010
0101
,
1001
0000
1000
0000
0001
0010
0100
0000
,
1000
0000
0001
0100
0001
0100
0001
0100
,
0020
0000
2030
0001
3001
0000
1100
0000
,
0001
0000
0002
1000
1003
0000
0110
1000
,
0002
0000
0023
0100
0130
0000
0110
0000
,
0001
1000
0010
0100
0010
1000
1010
0100
,
0002
0000
0023
0100
0130
0000
1100
0000
,
0002
0000
0013
0100
1000
0001
1000
0001
,
0101
0000
1100
0000
0101
0000
0001
0010
,
0200
2300
3020
0130
,
0101
1010
1100
0011
,
0001
0010
0100
1000
0001
0200
0000
0000
,
0301
0010
0100
1000
0010
0000
0100
0001
,
1000
0100
0000
0011
0000
1000
0100
0000
,
0010
0001
1000
0000
0001
0100
0010
0100
,
0001
0010
0000
1100
0000
0001
0010
0000
,
0100
1000
0001
0000
1000
0000
0110
0000
,
0001
1000
0010
0100
0000
0001
1000
0000
,
0001
0010
0001
0010
0000
0100
1000
0001
,
0010
1000
0010
0100
0000
1000
0001
0100
,
1000
0100
0010
0001
1000
0100
0010
1000
,
0100
0002
0000
0203
0000
1300
0001
0010
,
0100
0010
2000
0000
3010
0001
0010
0100
,
1000
0020
0000
0230
0000
0301
1000
0010
,
0100
0010
0002
0000
0023
0000
1030
0000
,
0100
0010
0001
1000
0000
0001
0100
0000
,
0010
1000
0001
0010
0000
0100
1000
0000
,
0001
0100
0000
0010
0000
1000
0010
0002
,
0000
0013
1000
0100
0010
0000
0010
0001
,
1000
0000
1100
0000
1010
0000
0010
1000
,
0001
0000
1000
0100
0001
1000
0010
1000
,
0001
0100
1000
0010
0001
1000
0100
1000
,
0001
0010
1000
0001
0010
0000
0110
0000
,
1000
0001
0010
0200
0000
1300
0001
0010
,
0100
2000
0000
3001
0100
0000
1001
0000
,
1000
0010
0100
0002
0000
1003
0100
0010
,
0100
1000
0001
0100
0010
0000
1010
0000
,
1000
0010
0100
0002
0000
0013
0100
2000
,
0000
3001
0100
0001
0100
0001
0010
0100
,
1000
0100
0010
0002
0000
1003
0010
0100
,
0001
0100
0010
1000
0001
0010
0200
0000
,
0000
0000
0000
0000
0000
0000
0000
1300
;

//--------------- dance-single - ----------------
#NOTES:
     dance-single:
     :
     Hard:
     15:
     0,0,0,0,0:
0000
0000
0000
0000
,
0000
0000
0000
0000
,
0001
0100
0001
1000
0010
1000
0100
0010
,
0100
1000
0100
0010
0001
0010
0100
1000
,
0001
0100
0001
1000
0010
1000
0100
0010
,
0100
1000
0100
0010
0001
0010
0100
1000
,
0001
0000
0100
0000
0010
0000
1000
0100
1000
0000
0001
0100
0001
0000
0010
0000
,
0100
0000
1000
0000
0001
0000
1000
0010
1000
0000
0001
0010
0001
0000
0100
0000
,
0010
0000
1000
0100
0010
0000
0001
0010
0100
0000
1000
0001
0100
0001
0100
0001
,
1000
0000
0010
0100
0010
0000
1000
0000
0001
0000
0010
0100
1000
0001
0010
0100
,
1000
0000
1001
0000
0001
0010
0100
2000
,
0000
3001
0100
0010
0100
0002
0000
1003
,
0100
0000
1001
0000
0001
0100
0001
0020
,
0000
0130
1000
0001
0010
0100
1000
0010
,
0100
0000
1001
0000
0001
0100
0001
0020
,
0000
0130
1000
0020
0000
0130
0001
1000
,
0100
0000
0011
0000
1100
0000
0001
0200
,
0000
0000
0301
0000
1000
0000
0100
0000
0010
0000
0100
1000
0100
1000
0100
1000
,
0001
0100
1000
0100
0002
0100
1003
0010
,
1000
0100
0010
0001
2000
0100
3100
0000
,
1000
0100
0001
0100
2000
0100
3001
0010
,
0001
0100
0010
1000
0002
0100
0103
0000
,
0020
0100
1030
0001
0100
0010
1000
0200
,
0010
1300
0001
0010
0100
1000
0010
0200
,
0010
0301
0010
0100
1000
0001
0100
2000
,
0000
3100
0001
0010
0100
2000
3200
0320
,
0032
0003
1000
0010
0110
0000
0110
1000
,
0001
0010
0001
0100
0010
2000
3200
0320
,
0032
1003
0010
0100
0110
0000
1001
0000
,
1000
0010
0100
0001
1000
0100
0010
0000
,
0011
0000
1100
0000
1000
0001
0010
0100
,
2000
0000
0000
0000
3001
0000
1000
0000
0010
0100
0010
0100
0010
0100
0010
0100
,
0001
0000
0010
0000
0100
0000
1000
0100
1000
0000
0001
0000
1000
0000
0001
0100
,
0001
0000
0000
0000
1000
0001
1000
0001
1000
0100
0010
0001
1000
0100
0010
0001
,
1000
0000
0020
0100
0130
0000
0110
0000
,
2000
0000
3002
0010
0013
0000
0110
1000
,
0020
0000
0230
0001
0301
0000
0101
0000
,
1000
0010
0100
0001
1000
0100
0110
0001
,
0020
0000
0230
1000
1300
0000
1001
0000
,
0002
0000
0000
0000
1003
0000
0010
0000
0100
0001
0100
0001
1000
0100
1000
0100
,
0010
0100
1000
1000
0001
0100
0001
0001
,
1000
0100
0010
0010
0001
1000
0010
0000
,
0110
0000
1010
0000
0101
0000
1000
0001
,
0100
0000
0000
0000
0000
0000
0000
0000
0000
0000
0000
0000
0010
0000
0000
0000
0000
0000
0000
0000
0000
0000
0000
0000
1000
0000
0000
0000
0000
0000
0000
0000
0000
0000
0000
0000
0010
0000
0000
0000
0000
0000
0000
0000
0000
0000
0000
0000
1000
0000
0000
0000
0000
0000
0000
0000
0000
0000
0000
0000
0001
0000
0000
0000
0000
0000
0000
0000
0000
0000
0000
0000
0010
0000
0000
0000
0000
0000
0000
0000
0000
0000
0000
0000
0100
0000
0000
0000
0000
0000
0000
0000
0000
0000
0000
0000
1000
0000
0000
0000
0000
0000
0000
0000
0000
0000
0000
0000
0000
0000
0000
0000
0000
0000
0000
0000
0000
0000
0000
0000
0002
0003
0000
0000
0000
0000
0000
0000
0000
0000
0000
0000
0000
0000
0000
0000
0000
0000
0000
0000
0000
0000
0000
0000
0000
0000
0000
0000
0000
0000
0000
0000
0000
0000
0000
0000
0000
0000
0000
0000
0000
0000
0000
0000
0000
0000
0000
0000
0000
0000
0000
0000
0000
0000
0000
0000
0000
0000
0000
0000
0000
0000
0000
0000
0000
0000
0000
0000
0000
0000
0000
0000
,
1000
0100
0010
0001
1000
0000
1010
1000
,
0001
0000
0010
0000
0100
0000
0020
0000
0000
0000
0031
1000
0100
0000
0010
0001
,
1000
0001
0100
1000
0100
0010
1000
0100
,
0010
0000
0011
0000
0000
0000
1100
0000
0000
0000
1000
0010
0100
0000
0001
0010
,
0100
0000
1000
0000
0010
0000
0100
0000
0001
1000
0001
0000
0101
0000
0000
0000
,
0100
0000
0001
0000
0010
0000
0110
0000
0000
0000
0100
1000
0001
0000
0000
0000
,
0010
0000
0100
0000
1000
0000
1001
0000
0000
0000
0001
0100
0001
0000
1000
0000
,
0010
0000
0100
0000
0001
0000
0011
0000
0000
0000
0010
0100
0010
0000
0001
1000
,
0001
0000
1000
0010
1000
0010
0100
0001
0010
0000
0100
0000
1000
0000
0100
0000
,
0001
0000
0100
0000
1000
0000
0020
0000
0000
0000
0130
0001
0010
0000
0100
1000
,
0010
0000
0100
0001
0010
0000
0000
0000
0010
0000
0001
0000
0100
0000
1000
0000
,
0001
0000
0010
0000
1000
0000
0200
0000
0000
0000
0310
0001
0100
0000
0010
1000
,
0100
0000
0010
0001
0100
0000
0000
0000
0110
0000
0000
0000
1001
0000
0001
0000
,
0010
0100
1000
0010
0000
0100
0101
0000
,
0001
1000
0100
0010
0000
0100
1100
0000
,
1000
0010
0100
0001
0000
1000
0010
0100
,
0001
0100
0001
1000
0100
1000
0001
0010
0100
0000
0000
0000
1100
0000
0000
0000
,
0011
1100
1010
0101
,
1010
0000
0000
0000
1000
0000
0001
0100
0001
0000
1000
0000
0001
0000
1000
0100
,
1000
0000
0001
0010
0100
0000
1000
0000
0001
1000
0001
0010
0100
0000
1000
0000
,
0001
1000
0001
0100
0010
0000
1000
0000
0001
0000
0000
0000
0011
0000
0000
0000
,
0010
0100
1000
0002
0000
0103
1000
0100
,
0001
0010
0100
0000
1100
0000
0011
0000
,
1000
0010
0100
0002
0000
1003
0100
0010
,
0100
1000
0100
1000
0001
0000
0100
0000
0010
0000
0000
0000
1001
0000
0000
0000
,
0001
0010
0100
2000
0000
3010
0100
0020
,
0000
0000
1030
0001
1000
0010
0100
0001
1000
0000
0100
0000
0010
0100
1000
0000
,
0001
0010
0100
0000
1000
0001
0020
0000
0000
0000
0130
0000
1000
0000
0001
0000
,
0100
0000
0010
0000
0100
0000
0010
0000
1000
0100
0010
0001
2000
0000
0000
0000
,
0000
0000
0000
0000
0000
0000
0000
0001
,
3100
0000
0000
0000
;

//--------------- dance-single - ----------------
#NOTES:
     dance-single:
     :
     Challenge:
     17:
     0.865911,0.66094,0,0,0,571,571,0,0,0,0,0.865911,0.66094,0,0,0,571,571,0,0,0,0:
0000
0000
0000
0000
,
0000
0000
0000
0000
,
0001
0000
0100
0000
0001
0000
1000
0000
0100
0000
1000
0001
0100
0000
0010
0000
,
1000
0000
0100
0000
1000
0000
0001
1000
0100
0000
0010
0000
0100
0000
1000
0000
,
0001
0000
0010
0000
0001
0000
1000
0001
0010
0000
0100
0000
1000
0000
0001
0100
,
0010
0000
1000
0000
0001
0000
0010
0100
1000
0000
0001
0010
0100
0000
1000
0000
,
0001
0000
0100
0000
0010
0000
1000
0100
1000
0000
0001
0010
0001
1000
0100
1000
,
0010
0000
0100
0001
1000
0000
0010
0100
0001
0000
1000
0100
0010
0001
0010
0100
,
1000
0010
1000
0010
0100
0001
0100
0001
1000
0100
1000
0100
0010
0001
0010
0001
,
1000
0000
0010
0100
0001
0000
1000
0000
0001
0000
0010
0100
1000
0001
0010
0100
,
1000
0000
1001
0000
0001
1000
0100
0011
,
0000
0001
0110
1000
0001
0101
1000
0000
,
0110
0000
1001
0000
1010
0100
0001
0020
,
0000
0000
0130
0000
1000
0000
0001
0000
0100
0010
0100
0010
0100
0000
0001
1000
,
0100
0000
0110
0000
0110
0001
0010
0200
,
0000
0000
1300
0000
0010
0000
0100
0000
0001
0010
0001
0010
0100
1000
0001
0000
,
0011
0000
0000
0000
1100
0000
1000
0000
0010
0000
0100
0001
1000
0000
0020
0000
,
0000
0000
0130
0000
0001
0000
0010
0000
0100
1000
0100
1000
0001
0100
0001
0100
,
0010
1000
0100
1000
0010
1000
0100
1000
,
0001
0010
0100
1000
0002
0100
0103
0001
,
0010
0001
0100
0001
0010
0001
0100
0001
,
0010
0100
1000
0001
2000
0100
3100
1000
,
0001
0000
0100
0000
1000
0000
0100
0000
0001
0000
0100
0000
1000
0000
0100
0001
,
1000
0000
0100
0000
0001
0000
0100
0000
1000
0000
0100
0000
0001
0000
0100
1000
,
0001
0000
0010
0000
0100
0000
1000
0001
1000
0000
0010
0000
0100
0000
0001
0000
,
0000
0001
0010
0100
2000
3200
0320
0032
,
1003
0000
1100
0100
1000
0010
0101
0100
,
0001
0010
0100
1000
0001
2000
3200
0320
,
0032
0013
1100
0001
0010
0100
1100
1000
,
0010
0100
0101
1000
0010
0100
0101
0000
,
1010
0000
0101
0000
0001
0010
0100
1000
,
1100
0000
0000
0000
0101
0000
0000
0000
0001
0100
0001
0100
0010
1000
0010
1000
,
0001
0000
0010
0000
0100
0000
1000
0100
1000
0000
0001
0000
1000
0000
0001
0100
,
0001
0000
1000
0000
0100
0010
0001
0010
0100
1000
0100
0010
0100
1000
0100
0010
,
0002
1000
0203
0010
0302
1003
0101
0000
,
2000
0001
3200
0010
2300
3001
1100
0000
,
0002
1000
0203
0010
0302
1003
0101
0000
,
0001
0010
0200
2300
0001
3200
0320
0032
,
2003
0010
3020
0100
0130
0010
0110
0000
,
1001
0000
1000
0000
0020
0000
2030
0000
3001
0010
0100
0010
0100
1000
0001
0010
,
0100
1000
1100
0001
0100
0001
0101
1000
,
0010
0000
1000
0000
1010
0000
0001
0000
0010
0000
0001
0000
0011
0000
0010
0100
,
1100
1000
0101
0001
1100
1000
0101
0001
,
1000
0000
0000
0000
0000
0000
0000
0000
0000
0000
0000
0000
0100
0000
0000
0000
0000
0000
0000
0000
0000
0000
0000
0000
0010
0000
0000
0000
0000
0000
0000
0000
0000
0000
0000
0000
0001
0000
0000
0000
0000
0000
0000
0000
0000
0000
0000
0000
1000
0000
0000
0000
0000
0000
0000
0000
0000
0000
0000
0000
0001
0000
0000
0000
0000
0000
0000
0000
0000
0000
0000
0000
1000
0000
0000
0000
0000
0000
0000
0000
0000
0000
0000
0000
0001
0000
0000
0000
0000
0000
0000
0000
0000
0000
0000
0000
0010
0000
0000
0000
0000
0000
0000
0000
0000
0000
0000
0000
0000
0000
0000
0000
0000
0000
0000
0000
0000
0000
0000
0000
0200
0300
0000
0000
0000
0000
0000
0000
0000
0000
0000
0000
0000
0000
0000
0000
0000
0000
0000
0000
0000
0000
0000
0000
0000
0000
0000
0000
0000
0000
0000
0000
0000
0000
0000
0000
0000
0000
0000
0000
0000
0000
0000
0000
0000
0000
0000
0000
0000
0000
0000
0000
0000
0000
0000
0000
0000
0000
0000
0000
0000
0000
0000
0000
0000
0000
0000
0000
0000
0000
0000
0000
,
1000
0100
1000
0100
1000
0100
0010
0001
1000
0000
0001
0000
0011
0000
0000
0000
,
0010
0000
0100
1000
0001
0000
0101
0000
0000
0000
0100
0001
0010
0000
0100
1000
,
0010
0000
0100
0001
0010
0000
0100
0000
1000
0000
0001
0000
0011
0000
0010
0000
,
0100
0000
1000
0100
0010
0001
0200
0000
0000
0000
0310
1000
0100
0000
0010
0001
,
0100
0000
0010
1000
0100
0000
0010
0000
0100
1000
0100
1000
0020
0000
0000
0000
,
0130
0001
0100
1010
0000
0010
0101
0000
,
0001
0000
0010
0000
0100
0000
1000
0000
0001
0100
0010
0000
0110
0000
1000
0000
,
1010
0000
1001
0000
0101
0000
0110
0000
0000
0000
0001
0010
0100
0000
1000
0000
,
0001
1000
0100
1000
0100
1000
0001
0100
1000
0000
0100
0000
0010
0000
1000
0000
,
0001
0000
0010
0000
0100
0000
2000
0000
0000
0000
3001
0010
1000
0000
0001
0100
,
1000
0000
0001
0010
1000
0010
0001
1000
0100
0000
0010
0000
0001
0000
0010
0100
,
1000
0000
0010
0000
0100
0000
0002
0000
0000
0000
1003
0010
0001
0000
1000
0100
,
0001
0000
1000
0010
0001
0010
1000
0001
0020
0000
0000
0000
0130
0000
2000
0000
,
0001
3001
0010
0200
0000
1300
0010
0002
,
1000
0000
1003
0000
0100
0000
0020
0000
0000
0000
1030
0000
0001
0000
0010
0100
,
0010
0000
1000
0000
0001
0000
0200
0000
0000
0000
0310
0001
1000
0000
0001
0000
,
0010
0100
1000
0100
1000
0001
0010
0100
1000
0000
0000
0000
1100
0000
1000
0000
,
1001
1000
1010
0000
0101
0001
1001
0001
,
0011
0000
0000
0000
1000
0100
1000
0100
0010
0000
0001
0010
0001
0010
0100
1000
,
0001
0000
0100
0010
0100
0000
0001
0010
0100
1000
0010
0100
0010
0100
0010
1000
,
0100
0010
0001
0010
0100
1000
0001
0010
0100
0000
0000
0000
1001
0000
0000
0000
,
1000
0001
0100
1010
0000
1000
0110
0001
,
1000
1100
0001
0000
0110
0000
1001
0000
,
0011
0100
1000
0020
0000
0130
0001
1000
,
0100
0010
0100
0010
0100
0000
1000
0001
0100
0000
0000
0000
0110
0000
0000
0000
,
0110
1000
0010
0200
0000
0301
0010
0100
,
1000
0010
1000
0010
0100
0001
1000
0100
0010
0000
0001
0000
1000
0100
0010
0100
,
1000
0001
0010
0100
0010
0001
2000
0000
0000
0000
3001
0000
0010
0000
0100
0000
,
1000
0000
0001
0100
0001
1000
0100
1000
0010
0100
0001
0010
0200
0000
0000
0000
,
0000
0000
0000
0000
0000
0000
0000
0000
0000
0000
0000
0000
0000
0000
1300
0001
,
0010
0100
0000
0000
0000
0000
0000
0000
0000
0000
0000
0000
0000
0000
0000
0000
;
