#TITLE:私は、私達は;
#SUBTITLE:;
#ARTIST:Guiano feat.吉乃;
#TITLETRANSLIT:;
#SUBTITLETRANSLIT:;
#ARTISTTRANSLIT:;
#GENRE:;
#CREDIT:;
#MUSIC:Watashi wa, Watashitachi wa (I am, We are).ogg;
#BANNER:Watashi wa, Watashitachi wa (I am, We are).png;
#BACKGROUND:Watashi wa, Watashitachi wa (I am, We are)-bg.png;
#CDTITLE:;
#SAMPLESTART:37.942;
#SAMPLELENGTH:11.471;
#SELECTABLE:YES;
#OFFSET:-0.001;
#BPMS:0.000=170.000
,274.000=85.000
,274.500=340.000
,276.000=170.000
;
#STOPS:275.500=0.022
,275.625=0.022
,275.750=0.022
,275.875=0.022
;
#DISPLAYBPM:170.000;
#BGCHANGES:0.000=Watashi wa=1.000=0=0=0=StretchNoLoop====,
0.000==1.000=0=0=0=StretchNoLoop====,
0.000=1.000=0.000=0=0=0=StretchNoLoop====,
99999.000=-nosongbg-=1.000=0=0=0=StretchNoLoop====
;
#FGCHANGES:;

//--------------- dance-single - ----------------
#NOTES:
     dance-single:
     :
     Hard:
     12:
     0,0,0,0,0:
0000
0000
0000
0000
,
0000
0000
0000
0000
,
0001
0000
0000
1000
0100
0000
0000
1000
,
0001
0000
0000
0001
0100
0000
0001
0010
,
0100
0000
0000
1000
0001
0000
0100
0010
,
0100
0000
0000
0000
0001
0010
0100
1000
,
0001
0000
0000
1000
0010
0000
0000
0100
,
0010
0000
0000
1000
0001
0000
0000
0001
,
0010
0000
0000
0100
1000
0000
0000
0001
,
0100
0000
0000
0000
0001
1000
0100
1000
,
0010
0000
0100
0001
0010
0000
0100
1000
,
0001
0000
0001
1000
0100
0000
1000
0001
,
0100
0000
0100
0001
1000
0000
0010
0100
,
0010
0000
1000
0000
0001
0010
0100
1000
,
0010
0000
0100
0001
1000
0000
0001
0010
,
0100
0000
1000
0010
0100
0000
0010
1000
,
0001
0000
0001
0010
0100
0000
0100
1000
,
0001
0000
0100
0000
0001
0100
0010
1000
,
0002
0000
0010
0023
0000
0100
0230
0000
,
1000
0000
0010
0000
1300
0001
0100
0010
,
0200
0000
0001
0302
0000
1000
2003
0000
,
0010
0000
0001
0000
3010
0100
0001
0010
,
0100
0000
0100
1000
0001
0000
0201
0000
,
0010
0000
1000
0000
0310
1000
0001
0000
,
0011
0000
0010
0100
1000
0000
1010
0000
,
0010
0100
0001
0000
0101
0000
0100
0001
,
0010
0000
1100
0000
0100
1000
0010
0100
,
0001
0000
0001
0010
0100
0000
0100
1000
,
0001
0000
0001
0100
0010
0000
0100
0001
,
0010
0100
0010
0001
1000
0010
0100
0001
,
1000
0000
0011
0000
1100
1000
0010
0100
,
0010
0000
0010
1000
0001
0000
0001
0010
,
0100
0000
0100
1000
0001
0000
0100
0010
,
0100
0010
1000
0100
0010
0001
1000
0010
,
1010
0000
0101
0000
0001
0010
0100
1000
,
0001
0000
0001
0010
1000
0000
0010
0001
,
0100
0000
0001
0100
1000
0000
0100
0001
,
0010
0100
1000
0010
0001
0010
0100
0010
,
2000
0000
0001
0000
3001
0010
0100
1000
,
0010
0000
0001
0010
1000
0000
0010
1000
,
0100
0000
0001
0100
1000
0000
0010
0100
,
0001
0010
0001
0010
0100
1000
0100
1000
,
0010
0000
0100
0000
1001
0000
0001
0100
,
0001
0010
0001
0100
0001
0010
0100
0000
,
0100
1000
0010
1000
0100
1000
0010
1000
,
0100
0000
0010
0001
0100
1000
0100
0000
,
0100
0001
0010
1000
0010
0001
1000
0010
,
0001
0000
0010
1000
0100
1000
0001
0000
,
1000
0010
0100
0001
0010
0001
1000
0010
,
0100
0000
0010
1000
0100
0010
0001
1000
,
0010
0100
0001
0010
0100
1000
0010
0100
,
0001
0020
0000
0000
0130
0000
1000
0001
,
0100
0010
0100
0010
0100
0000
1001
0000
,
1000
0001
0010
0100
0010
0001
0010
0100
,
0000
0100
0000
0100
1000
0010
2000
0000
,
3001
0200
0000
0000
0310
0000
0010
1000
,
0001
0010
0001
0010
0100
0000
1001
0000
,
1000
0010
0100
0010
0100
0000
0100
0001
,
1000
0100
1000
0100
0010
0000
0110
0000
,
0100
1000
0010
0100
0001
0001
1000
0010
,
0100
0001
0010
0100
0010
0001
1000
1000
,
0010
0200
0000
0301
0010
0010
0100
1000
,
0001
1000
0010
0100
0001
0001
0010
0010
,
0100
2000
0000
3001
0100
0100
0010
1000
,
0100
1000
0010
1000
0001
0010
0100
0100
,
1000
0001
0100
0010
0100
0001
1000
0100
,
1000
0001
0010
0100
1000
0010
0100
0000
0000
1001
0000
0000
,
0001
0010
0100
1000
0001
0010
0100
1000
,
0001
0010
0100
1000
0020
0230
0000
0300
,
0001
0010
0100
1000
0001
0100
0010
1000
,
0001
0010
0001
0010
0100
0000
1100
0000
,
1000
0010
0100
0001
1000
0010
0100
0001
,
1000
0010
0100
0001
0010
0000
1100
0000
,
1000
0010
0100
0001
1000
0100
0010
0001
,
1000
0010
1000
0010
0100
0000
1001
0000
,
0101
0000
0001
0100
1000
0000
0100
0001
,
0010
0000
0001
0100
1000
0000
0101
0000
,
1100
0000
1000
0100
0001
0000
0100
1000
,
0010
0000
1000
0100
0001
0000
1100
0000
,
0011
0000
0001
0010
1000
0000
0010
0001
,
0100
0000
0001
0010
1000
0000
0011
0000
,
1010
0000
1000
0010
0001
0000
0010
1000
,
0100
0000
1000
0010
0001
0000
0110
0000
,
0001
0100
1000
0100
0001
0010
0001
0100
,
1000
0100
0001
0010
0001
0000
1001
0000
,
1000
0100
0001
0100
1000
0010
1000
0100
,
0001
0100
1000
0010
1000
0000
1001
0000
,
0001
0100
0100
0100
0100
0100
0100
0110
,
0000
1001
0000
1000
0001
0100
0001
0010
,
0100
1000
0100
0001
1000
0010
0001
0010
,
1000
0001
0100
1000
0200
0000
0000
0000
,
0000
0000
0000
0000
0000
0300
0000
0000
;

//--------------- dance-single - ----------------
#NOTES:
     dance-single:
     :
     Challenge:
     17:
     0.992422,1.163067,0.738547,0.423126,0.677001,903,807,96,55,0,0,0.992422,1.163067,0.738547,0.423126,0.677001,903,807,96,55,0,0:
0000
0000
0000
0000
,
0000
0000
0000
0000
,
2010
0000
0000
3100
0000
0100
0010
0001
,
0102
0000
0000
1003
0000
1000
0010
0000
,
0120
0000
0000
0130
0000
0100
0001
1000
,
2100
0000
0000
3010
0000
0010
0100
0000
,
1002
0000
0000
0103
0000
0100
0001
0010
,
0021
0000
0000
0130
0000
0100
1000
0000
,
2001
0000
0000
3010
0000
0010
0100
0001
,
0021
0000
0000
0130
0000
1000
0002
0000
,
1003
0000
0100
0000
0010
0000
0001
1000
0001
0000
0010
0000
0100
0000
1000
0000
,
0001
0000
0010
0000
0100
0000
1000
0001
1000
0000
0100
0000
0020
0000
0000
0000
,
0031
0000
0100
0000
0010
0000
1000
0001
1000
0000
0010
0000
0100
0000
0001
0000
,
1000
0000
0010
0000
0100
0000
0001
1000
0001
0000
0100
0000
0020
0000
0000
0000
,
1030
0000
0100
0000
0001
0000
0100
0010
0100
0000
0001
0000
0100
0000
1000
0000
,
0001
0000
0100
0000
1000
0000
0100
0010
0100
0000
0001
0000
2000
0000
0000
0000
,
3001
0000
0100
0000
1000
0000
0100
0010
0100
0000
1000
0000
0100
0000
0001
0000
,
2000
3200
0320
0032
0013
0100
1000
0010
,
2100
0001
3001
2010
0001
3001
2100
0001
,
3001
0000
0100
0000
0200
0000
0000
0000
0310
0000
0010
0000
0100
0010
0100
0000
,
0012
1000
1003
0102
1000
1003
0012
1000
,
1003
0000
0100
0000
0200
0000
0000
0000
1300
0001
1000
0001
1000
0001
1000
0000
,
0102
0010
0013
2100
0010
3010
0102
0010
,
0013
0000
0100
0000
0200
0000
0000
0000
0310
0000
0001
0000
1000
0010
0100
0000
,
0011
1000
0100
0010
0101
0000
1010
0001
,
0100
0000
0010
0000
1100
0000
0000
0000
0001
0010
0001
0010
0100
0010
0001
0010
,
0100
0000
0000
1000
0000
0000
0100
0000
0000
1000
0000
0000
0100
0000
0000
0010
0000
0000
0100
0000
0000
1000
0000
0000
0100
0000
0000
0010
0000
0000
0001
0000
0000
1000
0000
0000
0001
0000
0010
0000
0100
0000
1000
0000
0001
0000
0010
0000
,
0100
0000
1000
0000
0010
0000
0100
0001
0010
0100
1000
0010
0100
0000
1000
0000
,
0100
0000
0001
0010
0100
0000
0001
0000
0100
1000
0010
0100
0010
0000
0100
0000
,
0001
0000
1000
0100
0001
0000
0100
1000
0010
0000
1000
0010
0001
0000
0010
0000
,
1000
0100
0010
0001
1000
0000
0001
0010
0100
1000
0001
0000
0100
0010
0100
0010
,
2000
0001
0100
0001
3200
1000
0010
1000
,
0320
0100
0001
0100
0032
1000
0100
1000
,
0103
0000
0001
0010
0100
0000
1000
0000
0001
0000
1000
0010
0100
0000
0001
0000
,
1000
0100
0010
0100
1000
0100
0010
0001
1000
0000
0010
0000
0100
0000
0001
0000
,
1001
0000
0001
0100
0010
0000
0010
0100
0001
0010
0100
0000
0010
0000
0001
0000
,
1001
0000
1000
0010
0100
0000
0100
0010
1000
0100
0010
0000
0100
0000
1000
0000
,
1100
0000
0100
1000
0010
0000
0010
1000
0100
0010
0100
1000
0010
0000
0100
0000
,
0110
0000
0100
0001
0010
0000
0010
0001
0100
0000
0100
0001
0010
0100
0010
0001
,
2000
0001
0100
0001
3200
1000
0010
1000
,
0320
0000
0001
0000
0100
0000
0001
0000
0130
0000
1000
0010
0100
0000
0010
0000
,
0100
0001
0010
0001
0100
0000
0010
0000
1000
0100
0010
0100
1000
0000
0001
0000
,
0100
0010
0001
0000
1000
0100
0010
0000
0120
0000
0000
0000
0130
0000
0000
0000
,
1001
0001
0100
0100
0000
0100
1001
0010
,
0100
0000
0100
0000
0000
0000
0100
0000
0001
0000
0001
0000
1000
0100
1000
0000
,
0110
0001
1000
1000
0000
0001
0110
1000
,
0001
0000
0001
0000
1000
0000
0100
0000
1000
0010
0100
0010
1000
0010
0100
0000
,
1001
0100
0010
0010
1000
0001
0110
1000
,
0001
0000
0001
0000
1000
0000
0001
0000
0010
0100
0010
0001
0010
0100
0010
0001
,
1000
0010
0100
0010
1000
0010
0100
0001
0010
0100
0010
0001
0010
0100
0010
0001
,
1000
0100
0010
0001
1000
0100
0010
0001
1000
0010
0100
0001
1000
0010
0100
0001
,
1000
0102
0000
0000
1003
0000
0001
1100
,
0010
0100
0010
0100
1001
0000
0110
0000
,
1000
0011
0100
0010
1001
0100
0010
1100
,
0010
1000
0001
1000
0110
0001
2000
0000
,
3001
1020
0000
0000
0130
0000
0001
1100
,
0001
0100
0001
0100
1001
0000
0110
0000
,
1000
0101
1000
0001
0110
0000
1000
0101
,
0010
0001
0010
0100
1001
0000
0110
0000
,
0001
1000
0100
1000
0100
1000
0100
1000
0001
0000
0100
0000
1000
0000
0100
0000
,
0001
0000
1000
0001
0100
0001
0100
0001
1000
0000
0100
0000
0001
0000
0100
0000
,
1000
0000
0001
0100
0010
0100
0010
0100
0001
0000
0010
0000
1000
0000
0010
0000
,
0001
0000
1000
0010
0000
0010
0100
0001
0010
0000
0100
0000
1000
0000
0001
0000
,
0100
0010
0001
0010
0100
0000
0001
0010
0100
0010
0001
0000
1000
0000
0010
0000
,
0100
0000
1000
0100
0010
0100
1000
0100
0001
0000
0010
0000
0100
0000
1000
0000
,
0001
0010
0100
0010
0001
0010
0100
1000
0100
0010
0100
1000
0100
0010
0001
0010
,
0100
1000
0001
0000
0100
0000
0010
0000
0100
0000
0001
0000
1001
0000
0000
0000
0000
0000
0110
0000
0000
0000
0000
0000
,
0001
0010
0100
1000
0001
0010
0100
1000
,
0001
0010
0100
1000
0020
0230
0000
0300
,
0102
0013
0100
1000
0102
0013
0100
1000
,
0102
0013
0102
0013
0110
0000
1001
0000
,
2100
3010
0100
0001
2100
3010
0100
0001
,
2100
3010
2100
3010
0110
0000
1001
0000
,
0102
0013
0100
1000
0012
0103
0010
1000
,
0102
0013
0102
0013
0110
0000
1001
0000
,
1100
0000
0001
0010
0100
0000
1000
0000
0101
0000
1000
0010
0100
0000
0001
0000
,
1100
0000
0001
0010
0100
0000
1000
0000
0101
0000
0000
0000
1001
0000
0000
0000
,
1100
0000
0001
0010
0100
0000
1000
0000
0101
0000
1000
0010
0100
0000
0001
0000
,
1100
0000
0001
0010
0100
0000
1000
0010
0100
0000
0001
0000
1100
0000
0000
0000
,
0011
0000
1000
0100
0010
0000
0001
0000
1010
0000
0001
0100
0010
0000
1000
0000
,
0011
0000
1000
0100
0010
0000
0001
0000
1010
0000
0000
0000
1001
0000
0000
0000
,
1010
0000
0001
0100
0010
0000
1000
0000
0011
0000
1000
0100
0010
0000
0001
0000
,
1010
0000
0001
0100
0010
0000
1000
0100
0010
0000
0000
0000
1001
0000
0000
0000
,
0101
0000
1000
0100
0010
0100
1000
0000
0011
0000
1000
0010
0100
0010
1000
0000
,
0101
0000
1000
0100
0010
0100
1000
0000
0101
0000
0000
0000
1001
0000
0000
0000
,
1100
0000
0001
0100
0010
0100
0001
0000
1010
0000
0001
0010
0100
0010
0001
0000
,
1100
0000
0001
0100
0010
0100
0001
0100
0010
0000
0100
0000
0001
1000
0001
1000
,
0001
0000
1000
0100
1000
0010
1000
0100
1000
0010
1000
0100
1000
0010
0002
0000
,
0000
0000
1003
0100
0010
0000
1000
0000
0001
0010
0100
0010
0001
0000
1010
0000
,
0001
0010
0100
0010
0001
1000
0100
1000
0001
0100
0010
0100
0001
1000
0010
1000
,
0001
0010
1000
0010
0001
1000
0010
0001
0020
0000
0000
0000
0000
0000
0000
0000
,
0000
0000
0000
0000
0000
0030
0000
0000
;
