#TITLE:渉り星;
#SUBTITLE:;
#ARTIST:Islet feat.Sando Aoi×Yoru;
#TITLETRANSLIT:Watariboshi;
#SUBTITLETRANSLIT:;
#ARTISTTRANSLIT:Islet feat.Sando Aoi×Yoru;
#GENRE:POP;
#CREDIT:;
#BANNER:Watariboshi.png;
#BACKGROUND:Watariboshi-bg.png;
#LYRICSPATH:;
#CDTITLE:;
#MUSIC:Watariboshi.ogg;
#OFFSET:1.684000;
#SAMPLESTART:67.318001;
#SAMPLELENGTH:13.714000;
#LASTBEATHINT:1.530648;
#SELECTABLE:YES;
#BPMS:0.000000=140.000000
;
#STOPS:
;
#BGCHANGES:6.500=Watariboshi.avi=1.000=0=0=0=====,
99999=-nosongbg-=1.000=0=0=0 // don't automatically add -songbackground-
;
#KEYSOUNDS:;
#ATTACKS:;

//---------------dance-single - ----------------
#NOTES:
     dance-single:
     :
     Hard:
     11:
     0.369086,0.482969,0.174830,0.407937,0.000000,266.000000,248.000000,18.000000,42.000000,0.000000,0.000000,0.369086,0.482969,0.174830,0.407937,0.000000,266.000000,248.000000,18.000000,42.000000,0.000000,0.000000:
0000
0000
0000
0000
,
0000
0000
0000
0000
,
0000
0000
0000
0000
,
0000
0000
0000
0000
,
0000
0000
0000
0000
,
0000
0000
0000
0000
,
0000
0000
0000
0000
0000
0000
0000
0001
,
0020
0000
0000
0031
2000
0000
3020
0000
,
0100
0000
0000
0000
1000
0000
0130
0002
,
0010
0000
0000
0000
0000
0000
0013
0200
,
0000
0000
0000
1000
0010
0000
0000
0310
,
0002
0000
0000
1003
0020
0000
0230
0000
,
0010
0000
0000
0000
0000
0000
0301
2000
,
0100
0000
0000
0000
0000
0000
3010
0200
,
0001
0000
0000
0000
0010
0000
0000
0310
,
2000
0000
0000
3010
0200
0000
0320
0000
,
1000
0000
0000
0000
1000
0000
0130
0002
,
1000
0000
0000
0000
0010
0000
0013
0200
,
1000
0000
0000
0000
0010
0000
0310
0002
,
0100
0000
0000
0000
0100
0000
0103
0020
,
1000
0000
0000
0000
1000
0000
0130
0002
,
0010
0000
0000
0000
0000
0000
0013
0100
,
2000
0000
0002
0000
3000
0000
0000
0103
,
0010
0000
0010
1000
0002
0000
0013
0000
,
1100
0000
1000
0001
0100
0000
0010
0100
,
0210
0000
1000
0000
0001
0000
0301
0010
,
0100
1000
2000
0000
3001
0010
0100
1000
,
0001
0000
0001
1000
0020
0000
0130
0000
,
2001
0000
0010
0000
0100
0000
3100
0010
,
0002
0000
1000
0000
0100
0000
1003
0010
,
0200
0000
0302
0000
0023
0230
2300
3002
,
0023
0000
0130
1000
0002
0000
0103
0000
,
0110
0000
0010
1000
0001
0000
0001
0010
,
2000
0000
0010
0000
3010
0001
0100
1000
,
0200
0000
0010
0000
0301
0010
0100
1000
,
0010
0000
0010
1000
0100
0000
0100
1000
,
0002
0000
0010
0000
0013
0100
1000
0010
,
0200
0000
1000
0000
0301
1000
0100
1000
,
0010
0100
0010
1000
0001
0100
0001
0001
,
0010
0100
1000
0010
0100
0010
1000
0001
,
0010
0000
0010
0100
1000
0001
0100
0010
,
0110
0000
1001
0000
0001
0010
0100
1000
,
1100
0000
0101
0000
0001
0100
1000
0100
,
0010
0000
0010
0100
0000
0100
0010
0000
,
1010
0000
0101
0000
1001
0000
0001
0010
,
0100
1000
1020
0000
0130
0001
1000
0010
,
0100
0001
0010
0000
0011
0000
0001
0010
,
0200
0000
1000
0000
1300
0010
0100
0001
,
0010
1000
0010
0001
1000
0100
0010
0001
,
0011
0000
1100
0000
1001
0000
1000
0010
,
0100
0001
1000
0000
0001
0010
1000
0010
,
0001
0000
0001
0100
0000
0100
0010
1000
,
0100
0010
0001
0000
0110
0000
1002
0000
,
0100
0000
0010
0000
1003
0000
0010
1000
,
0001
0000
0001
0010
0000
0010
0200
0000
,
0000
0300
0000
0000
;

//---------------dance-single - ----------------
#NOTES:
     dance-single:
     :
     Challenge:
     17:
     0.757598,1.068407,0.223394,0.602193,1.014987,546.000000,523.000000,23.000000,62.000000,0.000000,0.000000,0.757598,1.068407,0.223394,0.602193,1.014987,546.000000,523.000000,23.000000,62.000000,0.000000,0.000000:
// measure 0
0000
0000
0000
0000
,  // measure 1
0000
0000
0000
0000
,  // measure 2
0000
0000
0000
0000
,  // measure 3
0000
0000
0000
0000
,  // measure 4
0000
0000
0000
0000
,  // measure 5
0000
0000
0000
0000
,  // measure 6
0000
0000
0000
0000
0000
0000
0000
0001
,  // measure 7
0102
0000
0000
1003
0200
0000
0320
0000
,  // measure 8
0001
0000
0000
0000
0001
0000
0130
1000
,  // measure 9
1020
0000
0000
0000
0000
0000
0130
0002
,  // measure 10
0000
0000
0000
1000
0100
0000
0000
0103
,  // measure 11
0210
0000
0000
0301
2000
0000
3002
0000
,  // measure 12
0100
0000
0000
0000
0000
0000
1003
0100
,  // measure 13
0210
0000
0000
0000
0000
0000
1300
0010
,  // measure 14
0120
0000
0000
0000
0100
0000
0000
0130
,  // measure 15
0102
0000
0000
1003
0200
0000
0320
0000
,  // measure 16
0001
0000
0000
0000
0100
0000
0031
1000
,  // measure 17
2100
0000
0000
0000
0010
0000
3010
0100
,  // measure 18
0201
0000
0000
0000
0010
0000
0301
0010
,  // measure 19
0210
0000
0000
0000
1000
0000
0310
0001
,  // measure 20
2001
0000
0000
0000
0010
0000
3010
0100
,  // measure 21
0210
0000
0000
0000
0000
0000
0310
1000
,  // measure 22
0002
0000
2000
0000
0000
0000
3003
1000
,  // measure 23
0101
0000
0100
0000
0010
1000
0100
0010
0100
1000
0001
0010
0100
0000
1000
0000
,  // measure 24
1001
0000
0001
0100
0010
0100
0001
1000
0010
0100
0010
1000
0100
0010
0001
0000
,  // measure 25
0101
0000
0100
0000
0010
0100
0010
1000
0001
0010
0100
1000
0001
0100
0010
0100
,  // measure 26
0001
0010
0100
1000
0002
0000
1003
0100
0020
0000
0130
1000
0002
0000
0103
0000
,  // measure 27
0110
0000
0010
0000
1000
0001
0010
0100
0010
0001
1000
0100
1000
0010
1000
0100
,  // measure 28
0020
0000
0031
0100
0010
0100
0001
0010
0001
0100
0010
0100
0001
1000
0100
0010
,  // measure 29
0002
0000
1000
0000
1003
0100
0010
0100
1000
0001
0010
0100
1000
0001
0200
0000
,  // measure 30
0320
0000
1000
0000
0031
1000
0010
0100
0010
0100
0001
1000
0200
0000
0320
0000
,  // measure 31
0032
0000
1003
0000
0010
0100
0001
0000
0010
0100
1000
0001
0100
0000
0010
1000
,  // measure 32
0002
0000
0100
0000
0103
0010
1000
0001
1000
0100
0010
0001
1000
0000
0001
0000
,  // measure 33
0110
0000
1000
0000
0010
0100
0001
0100
0010
0100
0001
0010
0100
0000
1000
0000
,  // measure 34
0001
0010
0100
1000
0020
0000
0130
0001
0020
0000
0130
1000
0020
0000
0100
0000
,  // measure 35
0130
0001
1000
0001
1000
0010
0100
0010
1000
0001
0010
0100
2000
0000
3020
0000
,  // measure 36
0130
0001
0010
0000
0100
1000
0001
0100
0001
0100
0001
0010
0200
0000
1300
0000
,  // measure 37
1001
0000
0001
0000
0010
0100
0010
0001
0010
0100
1000
0010
0100
0001
1000
0000
,  // measure 38
0010
0100
0001
0100
0010
0100
0001
1000
0001
0010
0001
0100
0110
0000
0110
0000
,  // measure 39
0200
0000
0301
0000
1000
0010
1000
0100
0010
0100
1000
0001
0010
0000
0100
0000
,  // measure 40
0110
0000
0010
0001
0010
0100
1000
0001
0100
0000
0010
0000
0100
0000
0010
0000
,  // measure 41
0100
0000
0000
0000
0000
0000
0000
0000
0000
0000
0000
0000
0000
0000
0000
0000
0000
0000
0000
0000
0000
0000
0000
0000
0001
0000
0000
0000
0000
0000
0000
0000
0010
0000
0000
0000
0000
0000
0000
0000
0100
0000
0000
0000
0000
0000
0000
0000
1000
0000
0000
0000
0000
0000
0000
0000
0000
0000
0000
0000
0010
0000
0000
0000
0000
0000
0000
0000
0000
0000
0000
0000
0100
0000
0000
0000
0000
0000
0000
0000
0000
0000
0000
0000
0000
0000
0000
0000
0000
0000
0000
0000
0000
0000
0000
0000
0001
0000
0000
0000
0000
0000
0000
0000
1000
0000
0000
0000
0000
0000
0000
0000
0010
0000
0000
0000
0000
0000
0000
0000
0100
0000
0000
0000
0000
0000
0001
0000
0000
0000
0000
0000
0100
0000
0000
0000
0000
0000
0001
0000
0000
0000
0000
0000
1000
0000
0000
0000
0000
0000
0000
0000
0000
0000
0000
0000
0010
0000
0000
0000
0000
0000
0000
0000
0000
0000
0000
0000
0100
0000
0000
0000
0000
0000
0000
0000
0000
0000
0000
0000
0001
0000
0000
0000
0000
0000
0000
0000
0000
0000
0000
0000
,  // measure 42
2000
0000
0000
0000
3200
0000
0000
0000
0320
0000
0000
0000
0031
0000
1000
0000
0001
0100
0010
0100
0010
0000
0000
0000
1000
0000
0000
0000
0001
0100
0001
0000
,  // measure 43
1000
0000
0000
0000
0000
0000
0000
0000
0000
0000
0000
0000
0000
0000
0000
0000
0000
0000
0000
0000
0000
0000
0000
0000
0001
0000
0000
0000
0000
0000
0000
0000
0010
0000
0000
0000
0000
0000
0000
0000
0100
0000
0000
0000
0000
0000
0000
0000
1000
0000
0000
0000
0000
0000
0000
0000
0000
0000
0000
0000
0010
0000
0000
0000
0000
0000
0000
0000
0000
0000
0000
0000
0200
0000
0000
0000
0000
0000
0000
0000
0000
0000
0000
0000
0000
0000
0000
0000
0000
0000
0000
0000
0000
0000
0000
0000
0301
0000
0000
0000
0000
0000
0000
0000
1000
0000
0000
0000
0000
0000
0000
0000
0010
0000
0000
0000
0000
0000
0000
0000
0100
0000
0000
0000
0000
0000
0001
0000
0000
0000
0000
0000
0100
0000
0000
0000
0000
0000
0001
0000
0000
0000
0000
0000
1000
0000
0000
0000
0000
0000
0000
0000
0000
0000
0000
0000
0100
0000
0000
0000
0000
0000
0000
0000
0000
0000
0000
0000
0010
0000
0000
0000
0000
0000
0000
0000
0000
0000
0000
0000
0001
0000
0000
0000
0000
0000
0000
0000
0000
0000
0000
0000
,  // measure 44
2000
0000
0000
0000
0000
0000
0000
0000
0000
0000
0000
0000
0000
0000
0000
0000
0000
0000
0000
0000
0000
0000
0000
0000
3020
0000
0000
0000
0000
0000
0000
0000
0000
0000
0000
0000
0000
0000
0000
0000
0000
0000
0000
0000
0000
0000
0000
0000
0130
0000
0000
0000
0000
0000
0000
0000
0001
0000
0000
0000
0000
0000
0000
0000
0010
0000
0000
0000
0000
0000
0000
0000
0100
0000
0000
0000
0000
0000
0000
0000
0000
0000
0000
0000
1000
0000
0000
0000
0000
0000
0000
0000
0000
0000
0000
0000
0001
0000
0000
0000
0000
0000
0100
0000
0000
0000
0000
0000
0001
0000
0000
0000
0000
0000
0000
0000
0000
0000
0000
0000
1000
0000
0000
0000
0000
0000
0100
0000
0000
0000
0000
0000
1000
0000
0000
0000
0000
0000
0000
0000
0000
0000
0000
0000
0002
0000
0000
0000
0000
0000
0000
0000
0000
0000
0000
0000
0000
0000
0000
0000
0000
0000
0000
0000
0000
0000
0000
0000
1003
0000
0000
0000
0000
0000
0000
0000
0010
0000
0000
0000
0000
0000
0000
0000
0100
0000
0000
0000
0000
0000
0000
0000
,  // measure 45
0001
0000
0000
0000
1000
0100
1000
0100
0010
0000
0000
0000
0100
0000
0000
0000
1000
0001
1000
0000
0010
0100
0010
0100
0001
0000
1000
0000
0200
0000
0000
0000
,  // measure 46
1300
0000
0001
0000
0020
0000
0000
0000
0130
0000
0000
0000
0100
0000
1000
0000
0001
0100
0010
0100
0010
0000
0000
0000
0100
0000
0000
0000
0001
0100
0001
0000
,  // measure 47
1000
0000
0000
0000
0000
0000
0000
0000
0000
0000
0000
0000
0100
0000
0000
0000
0000
0000
0000
0000
0000
0000
0000
0000
0010
0000
0000
0000
0000
0000
0000
0000
0100
0000
0000
0000
0000
0000
0000
0000
1000
0000
0000
0000
0000
0000
0000
0000
0001
0000
0000
0000
0000
0000
0000
0000
0000
0000
0000
0000
0010
0000
0000
0000
0000
0000
0000
0000
0000
0000
0000
0000
0100
0000
0000
0000
0000
0000
0000
0000
0000
0000
0000
0000
0000
0000
0000
0000
0000
0000
0000
0000
0000
0000
0000
0000
1000
0000
0000
0000
0000
0000
0010
0000
0000
0000
0000
0000
1000
0000
0000
0000
0000
0000
0000
0000
0000
0000
0000
0000
0001
0000
0000
0000
0000
0000
0010
0000
0000
0000
0000
0000
0001
0000
0000
0000
0000
0000
0010
0000
0000
0000
0000
0000
0100
0000
0000
0000
0000
0000
0000
0000
0000
0000
0000
0000
1000
0000
0000
0000
0000
0000
0000
0000
0000
0000
0000
0000
0010
0000
0000
0000
0000
0000
0000
0000
0000
0000
0000
0000
0100
0000
0000
0000
0000
0000
0000
0000
0000
0000
0000
0000
,  // measure 48
0002
0000
0000
0000
0000
0000
0000
0000
0000
0000
0000
0000
0000
0000
0000
0000
0000
0000
0000
0000
0000
0000
0000
0000
2003
0000
0000
0000
0000
0000
0000
0000
0000
0000
0000
0000
0000
0000
0000
0000
0000
0000
0000
0000
0000
0000
0000
0000
3010
0000
0000
0000
0000
0000
0000
0000
0100
0000
0000
0000
0000
0000
0000
0000
0001
0000
0000
0000
0000
0000
0000
0000
1000
0000
0000
0000
0000
0000
0000
0000
0000
0000
0000
0000
0100
0000
0000
0000
0000
0000
0000
0000
0000
0000
0000
0000
0010
0000
0000
0000
0000
0000
0001
0000
0000
0000
0000
0000
0010
0000
0000
0000
0000
0000
0000
0000
0000
0000
0000
0000
0100
0000
0000
0000
0000
0000
0010
0000
0000
0000
0000
0000
0100
0000
0000
0000
0000
0000
0000
0000
0000
0000
0000
0000
1000
0000
0000
0000
0000
0000
0100
0000
0000
0000
0000
0000
1000
0000
0000
0000
0000
0000
0000
0000
0000
0000
0000
0000
0001
0000
0000
0000
0000
0000
0010
0000
0000
0000
0000
0000
0001
0000
0000
0000
0000
0000
0010
0000
0000
0000
0000
0000
,  // measure 49
0100
0000
0000
0000
0000
0000
0000
0000
0000
0000
0000
0000
0000
0000
0000
0000
0000
0000
0000
0000
0000
0000
0000
0000
1000
0000
0000
0000
0000
0000
0000
0000
0100
0000
0000
0000
0000
0000
0000
0000
0010
0000
0000
0000
0000
0000
0000
0000
0001
0000
0000
0000
0000
0000
0000
0000
0000
0000
0000
0000
1000
0000
0000
0000
0000
0000
0000
0000
0000
0000
0000
0000
0010
0000
0000
0000
0000
0000
0000
0000
0000
0000
0000
0000
0000
0000
0000
0000
0000
0000
0000
0000
0000
0000
0000
0000
0100
0000
0000
0000
0000
0000
0001
0000
0000
0000
0000
0000
0100
0000
0000
0000
0000
0000
0000
0000
0000
0000
0000
0000
0010
0000
0000
0000
0000
0000
1000
0000
0000
0000
0000
0000
0010
0000
0000
0000
0000
0000
1000
0000
0000
0000
0000
0000
0001
0000
0000
0000
0000
0000
0000
0000
0000
0000
0000
0000
0010
0000
0000
0000
0000
0000
0000
0000
0000
0000
0000
0000
0100
0000
0000
0000
0000
0000
0000
0000
0000
0000
0000
0000
1000
0000
0000
0000
0000
0000
0000
0000
0000
0000
0000
0000
,  // measure 50
0020
0000
0000
0000
2030
0000
0000
0000
3002
0000
0000
0000
0103
0000
0010
0000
0100
0001
1000
0000
0200
0000
0000
0000
0320
0000
0000
0000
0130
1000
0001
0000
,  // measure 51
0200
0000
0000
0000
0000
0000
0000
0000
0000
0000
0000
0000
0000
0000
0000
0000
0000
0000
0000
0000
0000
0000
0000
0000
0310
0000
0000
0000
0000
0000
0000
0000
1000
0000
0000
0000
0000
0000
0000
0000
0100
0000
0000
0000
0000
0000
0000
0000
0020
0000
0000
0000
0000
0000
0000
0000
0000
0000
0000
0000
0000
0000
0000
0000
0000
0000
0000
0000
0000
0000
0000
0000
0130
0000
0000
0000
0000
0000
0000
0000
0000
0000
0000
0000
0000
0000
0000
0000
0000
0000
0000
0000
0000
0000
0000
0000
1000
0000
0000
0000
0000
0000
0010
0000
0000
0000
0000
0000
0100
0000
0000
0000
0000
0000
0000
0000
0000
0000
0000
0000
0010
0000
0000
0000
0000
0000
1000
0000
0000
0000
0000
0000
0100
0000
0000
0000
0000
0000
0010
0000
0000
0000
0000
0000
0001
0000
0000
0000
0000
0000
0000
0000
0000
0000
0000
0000
0000
0000
0000
0000
0000
0000
0000
0000
0000
0000
0000
0000
1000
0000
0000
0000
0000
0000
0000
0000
0000
0000
0000
0000
0010
0000
0000
0000
0000
0000
0000
0000
0000
0000
0000
0000
,  // measure 52
0100
0000
0000
0000
0000
0000
0000
0000
0000
0000
0000
0000
0000
0000
0000
0000
0000
0000
0000
0000
0000
0000
0000
0000
0101
0000
0000
0000
0000
0000
0000
0000
0000
0000
0000
0000
0000
0000
0000
0000
0000
0000
0000
0000
0000
0000
0000
0000
1001
0000
0000
0000
0000
0000
0000
0000
0000
0000
0000
0000
0000
0000
0000
0000
0000
0000
0000
0000
0000
0000
0000
0000
1000
0000
0000
0000
0000
0000
0000
0000
0000
0000
0000
0000
0010
0000
0000
0000
0000
0000
0000
0000
0000
0000
0000
0000
0100
0000
0000
0000
0000
0000
0001
0000
0000
0000
0000
0000
1000
0000
0000
0000
0000
0000
0000
0000
0000
0000
0000
0000
0100
0000
0000
0000
0000
0000
1000
0000
0000
0000
0000
0000
0001
0000
0000
0000
0000
0000
0000
0000
0000
0000
0000
0000
0100
0000
0000
0000
0000
0000
0001
0000
0000
0000
0000
0000
1000
0000
0000
0000
0000
0000
0000
0000
0000
0000
0000
0000
0100
0000
0000
0000
0000
0000
0000
0000
1000
0000
0000
0000
0000
0000
0000
0000
0010
0000
0000
0000
0000
0000
0000
0000
,  // measure 53
0200
0000
0000
0000
0000
0000
0000
0000
0000
0000
0000
0000
0000
0000
0000
0000
0000
0000
0000
0000
0000
0000
0000
0000
0301
0000
0000
0000
0000
0000
0000
0000
0010
0000
0000
0000
0000
0000
0000
0000
0100
0000
0000
0000
0000
0000
0000
0000
2000
0000
0000
0000
0000
0000
0000
0000
0000
0000
0000
0000
0000
0000
0000
0000
0000
0000
0000
0000
0000
0000
0000
0000
3020
0000
0000
0000
0000
0000
0000
0000
0000
0000
0000
0000
0000
0000
0000
0000
0000
0000
0000
0000
0000
0000
0000
0000
0130
0000
0000
0000
0000
0000
0001
0000
0000
0000
0000
0000
1000
0000
0000
0000
0000
0000
0000
0000
0000
0000
0000
0000
0001
0000
0000
0000
0000
0000
0010
0000
0000
0000
0000
0000
0100
0000
0000
0000
0000
0000
1000
0000
0000
0000
0000
0000
0001
0000
0000
0000
0000
0000
0000
0000
0000
0000
0000
0000
0010
0000
0000
0000
0000
0000
0000
0000
0000
0000
0000
0000
0200
0000
0000
0000
0000
0000
0000
0000
0000
0000
0000
0000
0000
0000
0000
0000
0000
0000
0000
0000
0000
0000
0000
0000
,  // measure 54
1300
0000
0000
0000
0000
0000
0000
0000
0000
0000
0000
0000
0001
0000
0000
0000
0000
0000
0000
0000
0000
0000
0000
0000
2000
0000
0000
0000
0000
0000
0000
0000
0000
0000
0000
0000
0000
0000
0000
0000
0000
0000
0000
0000
0000
0000
0000
0000
3010
0000
0000
0000
0000
0000
0000
0000
0100
0000
0000
0000
0000
0000
0000
0000
0001
0000
0000
0000
0000
0000
0000
0000
1000
0000
0000
0000
0000
0000
0000
0000
0000
0000
0000
0000
0001
0000
0000
0000
0000
0000
0000
0000
0000
0000
0000
0000
0010
0000
0000
0000
0000
0000
0100
0000
0000
0000
0000
0000
1000
0000
0000
0000
0000
0000
0000
0000
0000
0000
0000
0000
0020
0000
0000
0000
0000
0000
0000
0000
0000
0000
0000
0000
0000
0000
0000
0000
0000
0000
0000
0000
0000
0000
0000
0000
0130
0000
0000
0000
0000
0000
0000
0000
0000
0000
0000
0000
0000
0000
0000
0000
0010
0000
0000
0000
0000
0000
0000
0000
0000
0000
0000
0000
0000
0000
0000
0000
0100
0000
0000
0000
0000
0000
0000
0000
0000
0000
0000
0000
0000
0000
0000
0000
,  // measure 55
0110
0000
0000
0000
;
