#TITLE:ボイドロイド;
#SUBTITLE:;
#ARTIST:r-906 ft. 羽累 , miku , una;
#TITLETRANSLIT:Voidroid;
#SUBTITLETRANSLIT:;
#ARTISTTRANSLIT:r-906 ft. HARU , miku , una;
#GENRE:POP;
#CREDIT:;
#MUSIC:Voidroid.ogg;
#BANNER:Voidroid.png;
#BACKGROUND:Voidroid-bg.png;
#CDTITLE:;
#SAMPLESTART:36.451;
#SAMPLELENGTH:12.885;
#SELECTABLE:YES;
#OFFSET:2.587;
#BPMS:0.000=156.000;
#STOPS:;
#LASTBEATHINT:4.053379;
#BGCHANGES:6.500=Voidroid.avi=1.000=0=0=0=StretchNoLoop====,
99999.000=-nosongbg-=1.000=0=0=0=StretchNoLoop====
;
#FGCHANGES:;

//--------------- dance-single - ----------------
#NOTES:
     dance-single:
     :
     Medium:
     12:
     0,0,0,0,0:
0000
0000
0000
0000
,
0000
0000
0000
0000
,
0001
1000
0001
1000
,
0010
0100
0010
0100
,
0001
0010
0001
0010
,
0100
1000
0100
1000
,
0001
0000
0000
0100
0000
0000
0010
0000
,
1000
0001
1000
0001
,
1000
0000
0000
0010
0000
0000
0100
0000
,
0001
0010
0100
1100
,
0001
1000
0100
0010
0100
1000
0001
0000
,
0001
0010
0100
1000
0010
0100
0001
1000
,
0010
1000
0001
0100
0001
1000
0010
1000
,
0001
0100
0001
1000
0010
1000
0001
0010
,
0100
0000
0000
0100
0000
0000
1000
0000
0000
0001
0000
0100
0010
0000
0100
0010
,
0000
1000
0000
0001
0000
1000
0100
0000
0010
0000
0001
0000
1000
0000
0001
0000
,
0010
0001
1000
0100
1000
0001
0010
0001
,
1000
0100
1000
0001
0010
0001
2000
0000
,
3010
0000
0000
0010
0000
0000
0100
0000
0000
0001
0000
0001
1000
0000
0000
0000
,
0001
0000
1000
0100
0000
1000
0100
0000
0010
0000
0001
0000
1000
0000
0010
0000
,
0100
0000
0100
0001
1000
0001
1000
0001
,
0010
0100
1000
0010
0100
0001
1000
0000
,
0010
0000
0000
0100
0000
0000
0001
0000
0000
0010
0000
0000
0100
0000
1000
0000
,
0001
0000
0000
1000
0000
0000
0010
0000
0000
0100
0000
0000
0001
0000
0010
0000
,
0100
0000
0000
0100
0000
0000
0010
0000
0001
0000
1000
0000
0010
0000
0100
0000
,
0001
0010
0100
1000
0001
0100
1000
0100
,
0101
0000
0000
1100
0000
0000
0101
0000
0000
1100
0000
0000
0101
0000
0000
0000
,
0001
1000
0100
0001
0100
1000
0010
0100
,
0101
0000
0000
0011
0000
0000
0101
0000
0000
0011
0000
0000
1001
0000
0000
0000
,
0001
0000
0000
1000
0000
0000
0010
0000
0100
0000
0001
0000
0100
0000
0010
0000
,
1010
0000
0000
0011
0000
0000
1010
0000
0000
0011
0000
0000
1010
0000
0000
0000
,
1000
0001
0100
1000
0100
0001
0010
0100
,
1100
0000
0000
1010
0000
0000
1100
0000
0000
1010
0000
0000
1001
0000
0001
0000
,
0100
0000
0000
0100
0000
0000
0010
0000
0100
0000
0010
0000
1001
0000
0000
0000
,
0011
0000
0010
0100
1000
0000
1100
0000
,
1000
0100
0010
0001
0010
0100
1000
0000
,
1010
0000
0010
0100
0001
0000
0101
0000
,
0001
0100
0010
1000
0010
0100
0001
0000
,
1001
0000
0001
0100
0010
0000
0110
0000
,
0100
0001
0010
0100
1000
0010
0100
0000
,
0210
0000
0000
1000
0000
0000
0001
0000
,
0301
1000
0100
1001
,
0001
0000
1000
0100
0000
1000
0010
0000
0100
0001
0000
1000
0001
0000
0000
0000
,
0010
0100
1000
0100
0010
0001
1000
0000
,
1000
0000
0001
0100
0000
0001
0010
0000
0100
1000
0000
0001
0100
0000
0000
0000
,
0010
0100
0001
0010
0100
1000
0001
0000
,
1000
0000
0010
0100
0000
0010
1000
0000
0001
0010
0000
0100
0010
0000
0001
0000
,
1000
0001
0010
2000
0000
3010
0001
0100
,
2000
0000
0000
0100
0000
0000
3200
0000
0000
0000
0301
0000
0010
0000
0100
0000
,
1000
0010
0100
0110
,
0001
0000
0000
0001
0000
0000
1000
0000
0000
0001
0000
0100
0010
0000
1000
0000
,
0100
0000
1000
0001
0000
0001
0010
0000
0100
0000
1000
0000
0001
0000
0100
0000
,
0100
0000
0010
1000
0100
0010
0001
0000
,
0001
1000
0001
1000
0010
0100
0010
0000
,
1010
0000
0000
1000
0000
0000
0010
0000
0000
0100
0000
0000
0001
0000
0010
0000
,
0011
0000
0000
0001
0000
0000
0010
0000
0000
0100
0000
0000
1000
0000
0010
0000
,
0110
0000
0000
0100
0000
0000
0001
0000
0000
1000
0000
0000
0001
0000
0000
0000
,
0000
0000
0000
0110
,
0201
0000
0000
1000
0000
0000
0001
0000
0000
1000
0000
0000
0301
0000
0000
0000
,
0001
1000
0100
0001
0100
1000
0010
0100
,
0102
0000
0000
0010
0000
0000
0100
0000
0000
0010
0000
0000
1003
0000
0000
0000
,
0001
0000
0000
1000
0000
0000
0010
0000
0100
0000
0001
0000
0100
0000
0010
0000
,
1020
0000
0000
0001
0000
0000
1000
0000
0000
0001
0000
0000
1030
0000
0000
0000
,
1000
0001
0100
1000
0100
0001
0010
0100
,
2100
0000
0000
0010
0000
0000
0100
0000
0000
0010
0000
0000
3001
0000
0001
0000
,
0100
0000
0000
0100
0000
0000
0010
0000
0100
0000
0010
0000
1001
0000
0000
0000
,
0011
0000
0000
1100
0000
0000
0011
0000
0000
1100
0000
0000
1001
0000
0000
0000
,
1000
0001
0100
1000
0100
0001
1000
0010
,
1010
0000
0000
0101
0000
0000
1010
0000
0000
0101
0000
0000
1001
0000
0000
0000
,
1000
0000
0000
0001
0000
0000
0010
0000
0100
0000
1000
0000
0010
0000
0100
0000
,
0101
0000
0000
1010
0000
0000
0101
0000
0000
1010
0000
0000
0110
0000
0000
0000
,
1000
0001
0010
1000
0010
0001
0010
0100
,
1100
0000
0000
0011
0000
0000
1100
0000
0000
0011
0000
0000
0110
0000
0000
0000
,
0020
0000
0000
0100
0000
0000
0100
0000
0000
0130
0000
0000
0110
0000
0000
0000
,
0002
0000
0000
2003
0000
0000
3020
0000
,
0130
0000
0000
0001
0000
0000
1000
0000
0000
0001
0000
0000
0010
0000
0100
0000
,
2000
0000
0000
3002
0000
0000
0203
0000
,
0310
0000
0000
1000
0000
0000
0100
0000
0000
0010
0000
0000
0001
0000
1000
0000
,
0020
0000
0000
0230
0000
0000
0002
0000
,
0000
0000
0000
0000
,
0303
0000
0000
0000
;

//--------------- dance-single - ----------------
#NOTES:
     dance-single:
     :
     Hard:
     15:
     0,0,0,0,0:
0000
0000
0000
0000
,
0000
0000
0000
0000
,
0001
0000
0001
0000
1000
0000
1000
0010
,
0100
0000
0100
0000
0010
0000
0010
1000
,
0001
0000
0001
0000
0010
0000
0010
0100
,
1000
0000
1000
0000
0001
0000
0001
0100
,
0201
0000
0000
0301
0000
0000
1002
0000
0000
1003
0000
0000
1020
0000
0000
0000
,
0100
1000
0100
1030
,
1020
0000
0000
1030
0000
0000
0210
0000
0000
0310
0000
0000
0201
0000
0000
0000
,
0010
0001
0310
0110
,
0001
0000
1000
0100
1000
0000
0001
0000
1000
0010
1000
0000
0001
0000
0100
0010
,
0100
0000
0010
0000
1000
0000
0001
0000
0010
0100
0010
0001
1000
0000
0020
0000
,
0230
0302
0023
0230
2300
3020
0230
0302
,
0023
0230
2300
3020
0230
0302
1003
0100
,
0010
0000
0001
0100
0000
0001
1000
0000
0001
0010
0000
0100
1000
0000
1000
0010
,
0000
0100
0001
1000
0000
0100
0010
0000
0100
0000
1000
0000
0010
0000
0200
0000
,
0302
0023
0230
2300
3020
0230
0302
0023
,
0230
2300
3020
0230
0302
0023
0230
0000
,
1300
0000
0001
0100
0000
0001
0010
0000
0010
0100
0000
1000
0001
0000
0000
0000
,
0001
0000
0100
0010
0000
0100
0001
0000
0001
1000
0000
0100
0010
0000
0001
0000
,
0100
0000
0000
0000
0001
0100
0001
0000
1000
0010
1000
0100
0010
0000
0100
0000
,
1000
0000
0001
0100
0010
0000
0100
0001
0000
0010
0100
1000
0001
0000
0100
0000
,
0102
0000
0000
0100
0000
0000
1000
0000
0000
1000
0000
0000
0010
0000
1003
0000
,
2001
0000
0000
0001
0000
0000
0100
0000
0000
0100
0000
0000
0010
0000
0001
0000
,
3001
0000
0000
0100
0000
0000
0010
0000
1000
0001
1000
0000
0010
0000
0100
0001
,
1000
0000
0100
0010
0100
0000
1000
0000
0001
0100
0010
0100
0001
0000
1000
0000
,
1002
0000
0000
0100
0000
0000
1000
0000
0000
0100
0000
0000
1003
0000
0010
0000
,
0100
0000
0002
0010
0203
0000
2300
0000
3020
0100
0032
0000
2003
0000
3020
0000
,
0230
0000
0000
0001
0000
0000
0010
0000
0000
0001
0000
0000
0310
0000
1000
0000
,
0001
0000
0010
0100
0000
0100
1000
0000
0001
0000
0100
0010
0100
0000
0001
0000
,
2001
0000
0000
0100
0000
0000
0001
0000
0000
0100
0000
0000
3001
0000
1000
0000
,
0010
0000
0200
0001
2300
0000
3002
0000
0023
0100
2030
0000
3002
0000
0103
0000
,
0120
0000
0000
1000
0000
0000
0100
0000
0000
1000
0000
0000
0130
0000
0001
0000
,
0010
0000
0100
1000
0000
1000
0001
0000
0100
0000
0010
1000
0001
0000
0000
0000
,
2100
0000
0000
3100
0000
0000
0102
0000
0000
0103
0000
0000
2100
0000
0000
0000
,
3001
0000
0100
0010
0100
0000
1000
0000
0100
0010
0100
0000
0001
0000
1000
0000
,
0012
0000
0000
0013
0000
0000
2010
0000
0000
3010
0000
0000
0012
0000
0000
0000
,
1003
0000
0010
0100
0010
0000
0001
0000
1000
0000
0100
0000
0001
0000
0010
0000
,
0021
0000
0000
0130
0000
0000
1020
0000
0000
0130
0000
0000
0021
0000
0000
0000
,
0130
0000
1000
0001
1000
0000
0010
0000
0100
0010
0100
0000
0001
0000
1000
0000
,
2100
0000
0000
3010
0000
0000
0102
0000
0000
0013
0000
0000
0120
0000
0000
0000
,
1000
0000
0031
0100
0010
0100
1001
0000
,
0001
0000
1000
0010
0000
0100
0010
0000
0001
0010
0000
1000
0020
0000
0000
0000
,
1030
0000
0001
0010
0001
0010
0100
0000
1000
0100
1000
0100
0010
0000
0001
0000
,
1000
0000
0001
0010
0000
0100
0010
0000
1000
0010
0000
0001
2000
0000
0000
0000
,
3001
0000
0010
0100
0001
0100
0010
0000
0100
0000
1000
0010
0100
1000
0100
0000
,
0001
0000
0010
0100
0000
1000
0010
0000
0100
0001
0000
0010
0100
0000
0010
0000
,
0001
0000
0100
0000
1000
0000
1200
0000
0000
0000
0310
1000
0001
0000
0010
0000
,
0100
0000
1000
0001
0010
0000
0100
0000
1000
0000
0001
0100
0001
0000
0010
0000
,
0100
1000
0010
0001
0010
1000
1001
0000
,
1000
0000
0001
0100
0000
0100
0010
0000
0010
1000
0000
1000
0001
0000
0000
0000
,
1000
0100
0010
0001
0000
0001
1000
0000
1000
0010
0000
0010
0100
0000
0010
0000
,
0100
0000
0000
0000
0001
1000
0001
1000
0000
0010
0100
0000
0001
0000
1000
0000
,
0001
0010
1000
0001
0100
1000
0010
0000
,
0120
0000
0000
1000
0000
0000
0100
0000
0000
0001
0000
0000
0130
0000
0001
0000
,
2001
0000
0000
0100
0000
0000
0010
0000
0000
0100
0000
0000
3001
0000
0010
0000
,
0100
0000
1000
0010
0000
0000
0100
0000
0001
1000
0000
0000
1100
0000
0000
0000
,
0000
0000
0000
0110
,
1001
0000
0001
0100
0000
0010
0100
0000
0001
0010
0000
0100
0010
0000
0001
0000
,
1000
0000
0001
0100
0010
0100
0001
0000
1000
0100
0010
0100
1000
0000
0010
0000
,
1000
0000
0100
0010
0000
0100
1000
0000
0010
0100
0000
0010
1000
0000
0001
0000
,
1000
0000
0001
0010
0000
0100
0010
0000
0001
0000
1000
0010
0100
0000
0010
0000
,
0100
0000
0001
0010
0000
0100
0010
0000
0001
0100
0000
0010
0100
0000
0001
0000
,
1000
0000
0100
0010
0100
0000
0001
0000
0100
0010
0100
0000
1000
0000
0001
0000
,
0100
0000
1000
0100
0000
0010
0100
0000
0001
1000
0000
0100
0010
0000
0001
0000
,
1000
0000
0000
1000
0000
0000
0010
0000
0000
1000
0000
0000
0001
0000
0100
0000
,
0110
0000
0010
1000
0000
1000
0001
0000
0001
0010
0000
0010
0100
0000
1000
0000
,
0001
0000
2000
0100
3020
0100
2030
0000
3020
0100
2030
0100
3020
0000
2030
0000
,
3001
0000
0010
0100
0000
0100
1000
0000
1000
0001
0000
0001
0100
0000
0010
0000
,
1000
0000
0001
0010
0000
0010
0200
0000
2300
0000
3002
0000
0203
0000
0320
0000
,
1030
0000
1000
0010
0000
0010
0100
0000
0100
0001
0000
0001
1000
0000
0100
0000
,
1000
0000
0002
0100
0023
0100
0032
0000
0023
0100
0032
0100
0023
0000
0032
0000
,
1003
0000
0001
0010
0000
0010
0100
0000
0100
1000
0000
1000
0001
0000
0100
0000
,
0110
0000
0000
0101
0000
0000
1001
0000
0000
0011
0000
0000
1100
0000
0000
0000
,
2000
0000
0000
0010
0000
0000
3020
0000
0000
0100
0000
0000
0130
0000
0001
0000
,
1000
0000
0000
0100
0000
0000
1000
0000
0000
0001
0000
0000
0100
0000
0010
0000
,
2000
0000
0000
0001
0000
0000
3002
0000
0000
0010
0000
0000
0013
0000
0100
0000
,
1000
0000
0000
1000
0000
0000
0010
0000
0000
0100
0000
0000
0001
0000
0100
0000
,
0120
0000
0000
2030
0000
0000
3200
0000
,
0000
0000
0000
0000
,
0300
0000
0000
0000
;

//--------------- dance-single - ----------------
#NOTES:
     dance-single:
     :
     Challenge:
     17:
     0.876863,0.880512,0.246756,0.269889,1.152811,796,764,32,35,0,0,0.876863,0.880512,0.246756,0.269889,1.152811,796,764,32,35,0,0:
0000
0000
0000
0000
,
0000
0000
0000
0000
,
0001
0000
0001
0000
0100
0000
0100
0010
,
1000
0000
1000
0000
0100
0000
0100
0010
,
0001
0000
0001
0000
1000
0000
1000
0010
,
0100
0000
0100
0000
0010
0000
0010
1000
,
1100
0000
0000
0010
0000
0000
0101
0000
0000
1000
0000
0000
0110
0000
0000
0000
,
0010
0000
0000
1000
0000
0000
0010
0000
0000
0100
0000
0000
0001
0000
1000
0000
,
0011
0000
0000
0100
0000
0000
1010
0000
0000
0001
0000
0000
0110
0000
1000
0000
,
0100
0000
0000
0010
0000
0000
0001
0000
0000
0010
0000
0000
0110
0000
1000
0000
,
0001
0000
1000
0010
0100
0010
0100
0000
0001
1000
0100
1000
0001
0000
0100
0010
,
1000
0010
0100
0001
0010
0000
0100
1000
0001
0100
0010
1000
0001
0000
2000
0000
,
3200
0302
2003
3020
0032
2003
3020
0032
,
2003
0000
3200
0000
0302
0000
2003
0000
3200
0000
0302
0000
0103
1000
0010
0100
,
0001
0000
0001
0010
0000
0010
0100
0000
0100
1000
0000
1000
0001
0100
0001
1000
,
0000
1000
0001
0010
0000
0010
0100
0000
0100
1000
0001
0000
0010
0000
0002
0000
,
0203
2300
3002
0023
2030
3002
0023
2030
,
3002
0203
2300
3002
0203
2300
3002
0000
,
0013
0000
0010
1000
0000
1000
0100
0000
0010
0001
0000
0001
0100
0000
0000
0000
,
0001
1000
0100
1000
0000
1000
0010
0000
0010
0100
0000
0100
0001
0000
1000
0100
,
0010
0000
0100
0000
1000
0010
1000
0010
0100
0001
0100
0001
0010
0000
0100
1000
,
0001
0000
0001
0100
0010
0100
0010
1000
0100
0010
0001
1000
0100
0000
0010
0000
,
0012
0000
0000
1000
0000
0000
0100
0000
0000
0010
0000
0000
0100
0000
1003
0000
,
2001
0000
0000
0010
0000
0000
0100
0000
0000
0001
0000
0000
0100
0000
0001
0000
,
3010
0000
1000
0001
0000
0000
0100
0001
0100
0001
1000
0100
0010
0000
0001
0010
,
0100
1000
0001
0100
0001
1000
0100
0010
0001
1000
0001
1000
0010
0000
0100
0000
,
1001
0000
0001
0100
0000
1000
0100
0000
0001
0100
0000
1000
0100
0000
0010
0000
,
1000
0000
0002
1000
0203
1000
0302
1000
0023
1000
0032
1000
0203
1000
0302
1000
,
0023
0000
0130
0001
0000
0010
0100
0000
0001
0100
0000
0010
0100
0000
1000
0000
,
0001
0100
0010
1000
0000
0001
0010
0000
0100
1000
0100
1000
0001
0100
0010
1000
,
0100
0000
0001
0100
0000
1000
0100
0000
0001
0100
0000
1000
0100
0000
1000
0000
,
0010
0000
0100
0001
2000
0001
3200
0001
0320
0001
0230
0001
2300
0001
3200
0001
,
0320
0000
0130
1000
0000
0100
0010
0000
1000
0010
0000
0100
1000
0000
0001
0000
,
0100
0000
1000
0100
0010
0000
1000
0000
0100
0000
0010
0000
1001
0000
0000
0000
,
0011
0000
0000
0001
0000
0000
1100
0000
0000
1000
0000
0000
0110
0000
0001
0100
,
0001
0000
1000
0100
0000
1000
0001
0000
0100
0000
1000
0000
0100
0000
0010
0000
,
1010
0000
0000
1000
0000
0000
0011
0000
0000
0001
0000
0000
1100
0000
1000
0000
,
0001
0000
0010
0100
0010
0000
0001
0000
1000
0000
0010
0100
0000
0001
0100
0000
,
1010
0000
0000
1000
0000
0000
0101
0000
0000
0001
0000
0000
1100
0000
1000
0000
,
0001
0000
0100
0010
0000
1000
0010
0000
0100
0001
1000
0000
0100
0000
0010
0000
,
0021
0000
0000
0001
0000
0000
0100
0000
0000
0100
0000
0000
1030
0000
0010
0000
,
0001
0000
1000
0001
1000
0000
0010
0000
0100
0000
0010
0000
1001
0000
0000
0000
,
0001
0000
1000
0100
0000
0100
0001
0000
1000
0010
0000
0010
0001
0000
1000
0000
,
0010
0000
0100
0001
1000
0001
0100
0010
0000
0010
1000
0100
0010
0001
1000
0000
,
1001
0000
0001
0100
0000
0100
1000
0000
0001
0010
0000
0010
1000
0000
0001
0000
,
0010
0000
0100
1000
0100
1000
0100
0010
0000
0010
0001
1000
0010
0100
0001
0000
,
0011
0000
0100
1000
0000
1000
0010
0000
0100
0001
0000
0001
0010
0000
0100
0000
,
1000
0001
0100
0000
0101
0000
0001
0010
0100
0000
0001
0100
0000
1000
0010
0000
,
0110
0000
0100
0001
0000
0001
1000
0000
0100
1000
0000
1000
0001
0000
0010
0000
,
0100
0010
1000
0000
0010
0000
0001
0100
0010
0000
0001
0010
0100
0000
0101
0000
,
0001
1000
0001
0010
0000
0010
0100
0000
0100
1000
0000
1000
0001
0000
1000
0010
,
0100
0010
1000
0010
0000
0010
0100
0000
0100
0001
0010
0100
1000
0000
0010
0100
,
0010
0000
0100
0000
0001
1000
0100
0010
0000
0010
0100
0000
1000
0000
0001
0100
,
0001
0000
0100
0010
1000
0010
0100
1000
0100
0010
0100
0001
1000
0000
0100
0000
,
0110
0000
0010
0001
0000
1000
0010
0000
0100
0001
0000
0010
0100
0000
1000
0000
,
0001
0100
0001
0010
0001
1000
0100
1000
0010
1000
0100
0010
0001
0000
1000
0000
,
1100
0000
0000
0011
0000
0000
1001
0000
0000
0101
0000
0000
0110
0000
0000
0000
,
0000
0000
0000
0110
,
1001
0000
0001
0100
0000
1000
0100
0000
0001
0010
0000
1000
0010
0000
0001
0100
,
0001
0100
1000
0001
0010
1000
0010
1000
0001
0010
0001
0010
1000
0001
0100
1000
,
0010
0000
0001
0010
0000
0100
0010
0000
1000
0100
0000
0010
0100
0000
1000
0010
,
1000
0010
0001
1000
0100
0001
0100
0001
1000
0100
1000
0100
0010
0001
1000
0010
,
0100
0000
1000
0100
0000
0010
0100
0000
0001
0010
0000
0100
0010
0000
0001
0000
,
0100
0001
0100
0001
0010
0100
1000
0010
1000
0010
0100
0001
0010
0100
1000
0010
,
0001
0000
1000
0100
0000
0001
0010
0000
1000
0010
0000
0001
1000
0000
0001
0100
,
0001
0100
0002
1000
0000
0000
1000
0000
0000
1003
0000
0000
0001
0000
0010
0000
,
0110
0000
0100
1000
0000
1000
0001
0000
0001
0010
0000
0010
0100
0000
1000
0001
,
1000
0001
2000
0100
3020
0100
2030
0010
3200
0010
2300
0100
3020
0100
2030
0010
,
3100
0000
0100
0001
0000
0001
1000
0000
1000
0100
0000
0100
0010
0000
0001
0010
,
0100
1000
0001
0010
0100
1000
0002
0100
0023
0100
0032
0010
0203
0010
0302
0100
,
0013
0000
0010
1000
0000
1000
0001
0000
0001
0010
0000
0010
0100
0000
1000
0001
,
1000
0001
2000
0100
3002
0100
2003
0010
3002
0010
2003
0100
3002
0100
2003
0010
,
3001
0000
0001
0010
0000
0010
0100
0000
0100
0001
0000
0001
1000
0000
0100
0000
,
0010
0001
0100
0010
0001
0000
1000
0100
0010
1000
0100
0010
0110
0000
0000
0000
,
0002
0000
0000
1000
0000
0000
0023
0000
0000
0100
0000
0000
0031
0000
1000
0000
,
0100
0000
0000
0100
0000
0000
0010
0000
0000
0001
0000
0000
1000
0000
0010
0000
,
0200
0000
0000
0001
0000
0000
0320
0000
0000
1000
0000
0000
0130
0000
0001
0000
,
1000
0000
0000
1000
0000
0000
0100
0000
0000
0010
0000
0000
0001
0000
1000
0000
,
0020
0000
0000
2030
0000
0000
3200
0000
,
0000
0000
0000
0000
,
0300
0000
0000
0000
;
