#TITLE:ヴィータ;
#SUBTITLE:;
#ARTIST:柊キライ feat. Gero;
#TITLETRANSLIT:Vita;
#SUBTITLETRANSLIT:;
#ARTISTTRANSLIT:Hiiragi Kirai feat. Gero;
#GENRE:POP;
#CREDIT:;
#MUSIC:Vita.ogg;
#BANNER:Vita.png;
#BACKGROUND:Vita-bg.png;
#CDTITLE:;
#SAMPLESTART:89.118;
#SAMPLELENGTH:10.102;
#SELECTABLE:YES;
#OFFSET:1.188;
#BPMS:0.000=196.000;
#STOPS:156.000=0.153
,156.500=0.153
,157.000=0.153
,266.500=0.153
,267.000=0.153
,267.500=0.153
;
#LASTBEATHINT:0.614133;
#BGCHANGES:5.000=Vita.avi=1.000=0=0=0=StretchNoLoop====,
99999.000=-nosongbg-=1.000=0=0=0=StretchNoLoop====
;
#FGCHANGES:;

//--------------- dance-single - ----------------
#NOTES:
     dance-single:
     :
     Medium:
     12:
     0,0,0,0,0:
0000
0000
0000
0000
,
0000
0000
0000
0000
,
0010
0000
1001
0000
0100
0000
0001
1000
,
0001
0000
1001
0000
0010
0000
0100
0010
,
0100
0000
1010
0000
0100
0001
0100
0001
,
0010
0100
1000
0010
1000
0010
0100
0001
,
1000
0000
0011
0000
1100
0000
1000
0010
,
0001
0000
0110
0000
1000
0000
0100
1000
,
0010
1001
0001
0010
,
1000
0010
0001
0000
0001
0100
0010
1000
,
0001
0000
0000
0110
0000
0000
1000
0000
0100
0000
0010
0000
0100
0000
1000
0000
,
0010
0100
0010
0100
0001
1000
0010
0100
,
0001
0000
0000
0101
0000
0000
0100
0000
0001
0000
0010
0000
0100
0000
0010
0000
,
1000
0010
0100
1000
1001
0000
0001
0010
,
0100
0000
0000
0100
1000
0000
0000
0000
1000
0000
0001
0000
0100
0000
0010
0000
,
0100
0000
0000
0100
0001
0000
0000
0000
0001
0000
0010
0000
0100
0000
1000
0000
,
0001
0000
0000
0001
0100
0000
0000
0000
0100
0000
0010
0000
1000
0000
0001
0000
,
0010
0000
0000
0010
0100
0000
1000
0000
0001
0000
0000
0000
0100
0000
0000
0000
,
1001
0000
0000
1000
0010
0000
0000
0000
0010
0000
0100
0000
0001
0000
0010
0000
,
0100
0000
0000
0100
1000
0000
0000
0000
1000
0000
0010
0000
0100
0000
0001
0000
,
1000
0000
0000
1000
0100
0000
0000
0000
0100
0000
0010
0000
0001
0000
1000
0000
,
0010
0000
0000
0010
0100
0000
0001
0000
1001
0000
0000
0000
0000
0000
0000
0000
,
0100
0000
1001
0000
1000
0000
0001
0100
,
1000
0000
0100
0000
0001
0000
1000
0100
,
0001
0000
0100
0000
1000
0010
0100
0000
,
0001
0100
0001
0100
1000
0100
0001
0010
,
0100
0000
0110
0000
0010
0001
0010
0001
,
1000
0000
1001
0000
1000
0010
1000
0010
,
0100
0000
0110
0000
0010
1000
0100
0001
,
1000
0010
0001
0100
1000
0100
0001
0010
,
0100
1100
0011
1100
,
1000
0010
0100
0001
1000
0000
0010
0000
,
0100
0101
1010
0101
,
0001
0010
0100
1000
0001
0000
0001
0100
,
0001
0000
1000
0100
1000
0000
0001
0100
,
0010
0100
0010
1000
0001
0000
0001
0010
,
0100
0000
1000
0001
0000
0100
1000
0100
,
0000
0100
0001
0010
0100
0000
1100
0000
,
1010
0000
0101
0000
0001
1000
0001
1000
,
0020
0030
0000
0000
0000
0000
0000
0000
0000
0000
0000
0000
0000
0000
0000
0000
0000
0000
0000
0000
0000
0000
0000
0000
0020
0030
0000
0000
0000
0000
0000
0000
0000
0000
0000
0000
0000
0000
0000
0000
0000
0000
0000
0000
0000
0000
0000
0000
0020
0030
0000
0000
0000
0000
0000
0000
0000
0000
0000
0000
0000
0000
0000
0000
0000
0000
0000
0000
0000
0000
0000
0000
0100
0000
0000
0000
0000
0000
0000
0000
0000
0000
0000
0000
0000
0000
0000
0000
0000
0000
0000
0000
0000
0000
0000
0000
0000
0000
0000
0000
0000
0000
0000
0000
0000
0000
0000
0000
0000
0000
0000
0000
0000
0000
0000
0000
0000
0000
0000
0000
0210
0000
0000
0000
0000
0000
0000
0000
0000
0000
0000
0000
0000
0000
0000
0000
0000
0000
0000
0000
0000
0000
0000
0000
0000
0000
0000
0000
0000
0000
0000
0000
0000
0000
0000
0000
0000
0000
0000
0000
0000
0000
0000
0000
0000
0000
0000
0000
0001
0000
0000
0000
0000
0000
0000
0000
0000
0000
0000
0000
0000
0000
0000
0000
0000
0000
0000
0000
0000
0000
0000
0000
,
0000
0302
0000
1000
0000
2003
0000
3010
,
0000
0110
0000
1001
0000
0001
0010
0100
,
0000
1000
0010
0100
0000
0010
1000
0100
,
0010
1000
0010
0001
0200
0000
0000
0000
,
0000
0000
0000
0000
,
0000
0000
0000
0000
0000
0000
0310
0000
0000
0000
1001
0000
0000
0001
0100
0000
,
0000
0000
0100
0000
0010
0000
1000
0000
0001
0000
0010
0000
0000
0010
0100
0000
,
0000
0000
0100
0000
1000
0000
0001
0000
0100
0000
0010
0000
0000
0010
1000
0000
,
0000
0000
1000
0000
0100
0000
0001
0000
0100
0000
1000
0000
0000
1000
0010
0000
,
0100
0110
0000
0000
0000
1000
0000
1100
,
0000
0001
0000
0101
0000
1000
0000
0001
,
0100
0001
0000
0001
0100
0001
0000
0011
,
0000
1000
0000
1010
0000
0001
0000
1000
,
0100
1000
0000
1000
0100
1000
0000
1001
,
0000
0010
0000
0110
0000
1000
0000
0001
,
0100
0001
0000
1000
0100
1000
0000
0110
,
0000
1001
0000
0110
0000
1000
0001
0000
,
0001
0010
0100
0010
0100
0000
0100
1000
,
0010
0001
0010
0100
0001
0011
0000
0101
,
0000
1010
0000
1100
0000
1000
0010
0100
,
1000
0001
0010
0100
0001
0011
0000
0110
,
0000
1100
0000
1000
0001
1000
0000
0010
,
0100
0010
0000
0100
0001
0010
0100
1000
,
0001
0100
0000
1000
0100
0001
0000
0001
,
0010
0000
0100
1000
0010
0000
0010
1000
,
0001
1000
0000
0011
0000
1001
0000
1100
,
0000
0000
0000
0000
0000
0000
0000
0000
0000
0000
0000
0000
0000
0000
0000
0000
0000
0000
0000
0000
0000
0000
0000
0000
1000
0000
0000
0000
0000
0000
0000
0000
0000
0000
0000
0000
0000
0000
0000
0000
0000
0000
0000
0000
0000
0000
0000
0000
0010
0000
0000
0000
0000
0000
0000
0000
0000
0000
0000
0000
0000
0000
0000
0000
0000
0000
0000
0000
0000
0000
0000
0000
1000
0000
0000
0000
0000
0000
0000
0000
0000
0000
0000
0000
0000
0000
0000
0000
0000
0000
0000
0000
0000
0000
0000
0000
0010
0000
0000
0000
0000
0000
0000
0000
0000
0000
0000
0000
0000
0000
0000
0000
0000
0000
0000
0000
0000
0000
0000
0000
0200
0300
0000
0000
0000
0000
0000
0000
0000
0000
0000
0000
0000
0000
0000
0000
0000
0000
0000
0000
0000
0000
0000
0000
0200
0300
0000
0000
0000
0000
0000
0000
0000
0000
0000
0000
0000
0000
0000
0000
0000
0000
0000
0000
0000
0000
0000
0000
0200
0300
0000
0000
0000
0000
0000
0000
0000
0000
0000
0000
0000
0000
0000
0000
0000
0000
0000
0000
0000
0000
0000
0000
,
0010
0100
0000
1001
,
0000
0010
0000
1001
,
0000
0001
0100
0001
0000
1000
0100
1000
,
0000
0001
0100
0000
0010
0000
1000
0000
,
0001
0000
0010
0100
1000
0000
0001
1000
,
0001
0000
1000
0010
0100
0001
1000
0000
,
0001
0010
0200
0000
0010
0000
2300
0000
,
0010
3002
0103
0110
,
1010
1100
0101
0011
,
0110
0000
1100
0000
0000
0100
1000
0001
,
0000
0000
0001
0000
1000
0000
0000
0010
0000
0000
0010
0000
0100
0000
0001
0000
,
0000
0001
0010
0100
1000
0001
0100
0000
,
0100
0000
0010
1000
0100
0000
0010
0001
,
0100
1010
0101
0011
,
1100
0000
0001
0100
1000
0100
0002
0000
,
1003
0000
1000
0100
0001
0100
2000
0000
,
3001
0000
0001
0100
0010
0100
0001
0100
,
1000
0100
0001
0010
1000
0001
0200
0000
,
1300
0000
1000
0100
0001
0100
2000
0000
,
3001
0000
0001
0100
1000
0100
0002
0000
,
1003
0000
1000
0100
0010
0000
0010
0100
,
1000
0000
1000
0010
0001
1000
0100
0001
,
0010
0100
1000
0000
0001
0100
0001
0100
,
0010
0000
1000
0000
0001
0000
0000
0001
0000
0000
0010
0000
0100
0000
0000
0000
,
2000
3020
0000
0230
,
0000
0000
0302
0000
0023
0000
1030
0010
,
0100
0000
1000
0000
0001
0000
0000
0001
0200
0000
0000
0000
1300
0000
0001
0000
,
0010
0000
1000
0000
0100
0000
0000
0100
0002
0000
0000
0000
1003
0000
0010
0000
,
0001
0000
0100
0000
0010
0000
0000
0010
2000
0000
0000
0000
3001
0000
0010
0000
,
0100
0000
1000
0000
0001
0000
0000
0001
1000
0000
0010
0000
0110
0000
0000
0000
,
0200
0000
0000
0000
0301
0000
0000
0001
2000
0000
0000
0000
3001
0000
0010
0000
,
1000
0000
0001
0000
0100
0000
0000
0100
2000
0000
0000
0000
3001
0000
0100
0000
,
1000
0000
0001
0000
0010
0000
0000
0010
0200
0000
0000
0000
0301
0000
1000
0000
,
0001
0000
0010
0000
0100
0000
0000
0100
1000
0000
0001
0000
0101
0000
0000
0000
,
0000
1000
0010
0000
0110
0000
0100
0001
,
0010
0100
0010
0001
1000
0010
0110
0000
;

//--------------- dance-single - ----------------
#NOTES:
     dance-single:
     :
     Hard:
     16:
     0,0,0,0,0:
0000
0000
0000
0000
,
0000
0000
0000
0000
,
0110
0000
1001
0000
0001
0010
0100
1000
,
1100
0000
1001
0000
1000
0010
0100
0001
,
0101
0000
0110
0000
1000
0001
1000
0001
,
0010
1000
0001
0100
1000
0010
0001
1000
,
1100
0000
0101
0000
0001
0100
0001
0010
,
1100
0000
1000
0010
0100
0010
1000
0100
,
0011
0000
1001
0000
0001
0010
0100
0010
,
1000
0001
0100
1000
0001
0100
0010
0100
,
0110
0000
0000
0110
0000
0000
0100
0000
0001
0000
0010
0000
0100
1000
0100
0000
,
0010
0100
1000
0010
0100
0001
0100
0010
,
1010
0000
0000
1010
0000
0000
1000
0000
0001
0000
0010
0100
0010
0000
0001
0000
,
1000
0000
0010
0000
0100
0000
0001
0000
1001
0000
0000
0000
1000
0100
0010
0001
,
1000
0000
0000
1000
0010
0000
0000
0000
0010
0000
0100
0000
0001
0000
0010
0000
,
0100
0000
0000
0100
1000
0000
0000
0000
1000
0000
0010
0000
0100
0000
0010
0000
,
1000
0000
0000
1000
0001
0000
0000
0000
0001
0000
0010
0000
0100
0000
0010
0000
,
0001
0000
0000
0001
1000
0000
0010
0000
0101
0000
0000
0000
0001
0010
0100
1000
,
0001
0000
0000
0001
0100
0000
0000
0000
0100
0000
0010
0000
1000
0000
0100
0000
,
0010
0000
0000
0010
0001
0000
0000
0000
0001
0000
0100
0000
0010
0000
0100
0000
,
0001
0000
0000
0001
1000
0000
0000
0000
1000
0000
0100
0000
0010
0000
0001
0000
,
0100
0000
0000
0100
0001
0000
0010
0000
1100
0000
0000
0000
0000
0000
0000
0000
,
0010
0000
1001
0000
0001
0100
0001
0010
,
1000
0000
1010
0000
0010
0001
0100
0010
,
0001
0000
0011
0000
0010
1000
0100
0010
,
0001
0001
0100
0100
1000
0100
0001
0010
,
0100
0000
1000
0100
1000
0000
0010
0100
0010
0000
0001
0000
0010
0000
0001
0000
,
0010
0000
0100
0001
0100
0000
0001
0010
0001
0000
0010
0000
1000
0000
0010
0000
,
1000
0000
0010
0100
0010
0000
0001
0010
0001
0000
0100
0000
1000
0000
0100
0000
,
1000
0000
0100
0010
0100
0000
0001
0010
0100
0000
1000
0000
0100
0000
1000
0000
,
0001
1001
0110
1001
,
1000
0100
0010
0001
1000
0000
0010
0000
,
0100
0110
1001
0110
,
0001
0010
0100
1000
0001
0000
0001
0100
,
0101
0000
1000
0100
1100
0000
1000
0001
,
0100
0010
0100
0010
0100
0000
0001
0000
1000
0000
0100
0010
0100
0010
0100
0000
,
1000
0000
0001
0100
0000
1000
0100
0001
,
0000
0001
0010
0100
1100
0000
0011
0000
,
0001
0000
0100
0010
0100
0000
0001
0000
1000
0100
1000
0100
1000
0100
0010
0001
,
0200
0300
0000
0000
0000
0000
0000
0000
0000
0000
0000
0000
0000
0000
0000
0000
0000
0000
0000
0000
0000
0000
0000
0000
0020
0030
0000
0000
0000
0000
0000
0000
0000
0000
0000
0000
0000
0000
0000
0000
0000
0000
0000
0000
0000
0000
0000
0000
0220
0330
0000
0000
0000
0000
0000
0000
0000
0000
0000
0000
0000
0000
0000
0000
0000
0000
0000
0000
0000
0000
0000
0000
0100
0000
0000
0000
0000
0000
0000
0000
0000
0000
0000
0000
0000
0000
0000
0000
0000
0000
0000
0000
0000
0000
0000
0000
0001
0000
0000
0000
0000
0000
0000
0000
0000
0000
0000
0000
0010
0000
0000
0000
0000
0000
0000
0000
0000
0000
0000
0000
0200
0000
0000
0000
0000
0000
0000
0000
0000
0000
0000
0000
0000
0000
0000
0000
0000
0000
0000
0000
0000
0000
0000
0000
0000
0000
0000
0000
0000
0000
0000
0000
0000
0000
0000
0000
0001
0000
0000
0000
0000
0000
0000
0000
0000
0000
0000
0000
0000
0000
0000
0000
0000
0000
0000
0000
0000
0000
0000
0000
0000
0000
0000
0000
0000
0000
0000
0000
0000
0000
0000
0000
,
0010
0000
0320
0000
0000
1000
0000
0000
0001
0000
0032
0000
0000
1000
0000
0000
,
0103
0110
0000
1001
0000
0001
1000
0010
,
0100
1000
0200
0000
0301
0010
0001
0100
,
0010
0000
1000
0100
0010
0001
1000
0100
0020
0000
0000
0000
0000
0000
0000
0000
,
0000
0000
0000
0000
,
0000
0000
0030
0000
0000
0000
0001
0010
0100
1000
0001
0000
0000
0001
0100
0000
,
0000
0000
0100
0000
0001
0000
0010
0000
1000
0000
0001
0000
0000
0001
0100
0000
,
0000
0000
0100
0000
1000
0000
0010
0000
0100
0000
1000
0000
0000
1000
0100
0000
,
0000
0000
0100
0000
0001
0000
1000
0000
0100
0000
0010
0000
0000
0010
0001
0000
,
1000
0110
0000
0000
0000
1010
0000
0101
,
0000
0011
0000
1100
0000
0001
0010
0100
,
1000
0002
0023
0230
2300
3001
0000
0011
,
0000
0101
0000
1010
0000
1000
0010
0100
,
0001
2000
3020
0230
0302
1003
0000
0110
,
0000
1001
0000
0110
0000
0001
0100
0010
,
1000
0002
0203
0320
2030
3001
0000
0110
,
0000
1001
0000
0110
0000
0100
0001
1000
,
0001
0010
0100
0010
0100
0000
0010
0001
,
0100
0000
1000
0000
0100
0000
0001
0000
0010
0000
0011
0000
0000
1100
0000
0000
,
0011
0000
1010
0000
0000
0101
0000
0000
1010
0000
0010
0000
1000
0000
0100
0000
,
0001
0000
0100
0000
1000
0000
0010
0000
0001
0000
0020
0000
0000
1000
0000
0000
,
0130
0110
0000
1000
0001
0110
0000
0100
,
0010
0000
1001
0000
0000
0000
1000
0000
0100
0000
0010
0001
0010
0001
0010
0100
,
1000
0000
0001
0000
1000
0010
1000
0010
0100
0001
1000
0000
0000
0000
0100
0000
,
0001
0000
0100
1000
0010
0000
0100
0001
,
1000
0010
0000
1001
0000
0011
0000
1100
,
0000
0000
0000
0000
0000
0000
0000
0000
0000
0000
0000
0000
0000
0000
0000
0000
0000
0000
0000
0000
0000
0000
0000
0000
1000
0000
0000
0000
0000
0000
0000
0000
0000
0000
0000
0000
0100
0000
0000
0000
0000
0000
0000
0000
0000
0000
0000
0000
0010
0000
0000
0000
0000
0000
0000
0000
0000
0000
0000
0000
0100
0000
0000
0000
0000
0000
0000
0000
0000
0000
0000
0000
1000
0000
0000
0000
0000
0000
0000
0000
0000
0000
0000
0000
0100
0000
0000
0000
0000
0000
0000
0000
0000
0000
0000
0000
0010
0000
0000
0000
0000
0000
0000
0000
0000
0000
0000
0000
0001
0000
0000
0000
0000
0000
0000
0000
0000
0000
0000
0000
2000
0000
3000
0000
0000
0000
0000
0000
0000
0000
0000
0000
0000
0000
0000
0000
0000
0000
0000
0000
0000
0000
0000
0000
0002
0003
0000
0000
0000
0000
0000
0000
0000
0000
0000
0000
0000
0000
0000
0000
0000
0000
0000
0000
0000
0000
0000
0000
2002
3003
0000
0000
0000
0000
0000
0000
0000
0000
0000
0000
0000
0000
0000
0000
0000
0000
0000
0000
0000
0000
0000
0000
,
0010
0000
0000
0000
0100
0000
0000
0100
0000
0000
0100
0000
1001
0000
0000
0000
,
0001
0000
1000
0000
0010
0000
0000
0010
0000
0000
0010
0000
1001
0000
0000
0000
,
0000
0000
0010
0000
1010
0000
0000
1001
0000
0000
0010
0000
0011
0000
0000
1001
,
0000
0000
1000
0000
0200
0000
0000
0001
0000
0000
1300
0000
0010
0000
0100
0000
,
1000
0001
0010
1000
0100
0010
0100
1000
,
0001
0000
0100
0000
1000
0000
0100
0000
0001
0010
0001
0010
0100
0000
0000
0000
,
0100
0000
0100
1000
0020
0000
0000
0001
0000
0000
0100
0000
2030
0000
0000
0100
,
0000
0000
0001
0000
3020
0000
0000
0001
0000
0000
0130
0000
0110
0000
0000
0000
,
1001
0000
0000
0000
1000
0000
0100
0010
0100
0000
0001
0000
0100
0000
1000
0000
,
0001
0000
0100
0000
1000
0000
0100
0001
0010
0000
0100
0000
1000
0000
1001
0000
,
0000
0000
0001
0000
1000
0000
0010
0100
0010
0000
0100
0010
0100
0000
0001
0000
,
0000
0000
1000
0000
0001
0000
0010
0100
0010
0000
0100
0010
0100
1000
0001
0010
,
0100
1000
0100
0010
0002
0000
0000
1000
0000
0000
0103
0000
0200
0000
0000
1000
,
0000
0000
0010
0000
0310
0000
0100
0001
0010
0000
0100
1000
0010
0000
0100
0001
,
0020
0000
0000
0000
0130
0000
1000
0010
0100
0000
1000
0000
0100
0000
0000
0100
,
0001
0000
0010
0000
0100
0000
0001
0100
0010
0000
0001
0000
0100
0000
0000
0100
,
1000
0100
0001
0010
0100
1000
0001
0100
,
0010
0000
1000
0000
0001
0000
0001
0000
1000
0000
1000
0000
0001
0000
1000
0100
,
1000
0100
0010
0100
0010
0000
1000
0010
0100
0000
1000
0000
0010
0000
0000
0010
,
0001
0000
0010
0000
0100
0000
0001
0010
0100
0000
0001
0000
0100
0000
0000
0100
,
1000
0010
0100
0100
1000
0001
0010
0100
,
0100
0000
0001
0000
1000
0000
1000
0000
0001
0000
0001
0000
1000
0000
0010
0100
,
0010
0000
1000
0001
1000
0000
0001
0000
0010
0000
0100
1000
0100
0000
0010
0001
,
0010
0100
1000
0001
0010
0000
0000
0010
0100
0000
1000
0000
1001
0000
0000
0000
,
0101
2010
0000
3020
,
0000
0000
0000
0000
0130
0000
0001
0000
0010
0000
1000
0000
0001
0000
0100
1000
,
0010
0000
0100
0001
1000
0000
0000
1000
0200
0000
0000
0000
0310
0000
0001
0000
,
0100
0000
1000
0000
0100
0000
0000
0100
0002
0000
0000
0000
0013
0000
1000
0000
,
0010
0000
0001
0000
0100
0000
0000
0100
0020
0000
0000
0000
1030
0000
0001
0000
,
0010
0000
0100
0000
1000
0000
0000
1000
0001
0000
0100
0000
0110
0000
0000
0000
,
0010
1000
0100
0010
0001
0000
0000
0001
0020
0000
0000
0000
0130
0000
1000
0000
,
0001
0000
0100
0000
1000
0000
0000
1000
0200
0000
0000
0000
0301
0000
0010
0000
,
0100
0000
1000
0000
0010
0000
0000
0010
0002
0000
0000
0000
0013
0000
1000
0000
,
0100
0000
0010
0000
0001
0000
0000
0001
1000
0000
0010
0000
0110
0000
0000
0000
,
0000
0000
1000
0000
1010
0000
0000
0000
0101
0000
0000
0000
0110
0000
0001
1000
,
0001
1000
0001
1000
0010
0000
0100
0000
0010
0000
1000
0000
1001
0000
0000
0000
;

//--------------- dance-single - ----------------
#NOTES:
     dance-single:
     :
     Challenge:
     18:
     1.154687,1.209478,1.294818,0.337438,0.776891,1030,865,165,43,0,0,1.154687,1.209478,1.294818,0.337438,0.776891,1030,865,165,43,0,0:
0000
0000
0000
0000
,
0000
0000
0000
0000
,
1001
0000
0000
0000
0000
0000
0000
0110
,
1001
0000
0001
0010
0100
1000
0001
0110
,
1001
0000
0000
0000
0000
0000
0000
1010
,
0102
0000
0000
0000
0010
0000
0000
0000
1000
0000
0000
0000
0013
0000
0001
0100
,
0010
0000
0000
0000
0110
0000
0100
0000
0001
0000
0010
0000
1000
0010
0100
0000
,
1000
0000
0010
0000
0100
0000
0010
1000
0001
0000
0010
0000
0100
0000
1000
0000
,
0110
0000
0001
0000
1000
0100
0010
0000
0001
0000
1000
0100
0010
0000
0001
0000
,
1001
0000
0010
0000
0110
0000
1000
0000
0001
0010
0100
0010
0001
1000
0010
0000
,
0110
0000
0000
0110
0000
0000
0100
0000
0001
0000
0010
0000
0100
1000
0010
0000
,
0100
1000
0001
0010
0100
0001
0010
0100
,
1100
0000
0000
0110
0000
0001
1000
0000
0010
0000
0100
0001
0010
0000
0100
0000
,
0010
0000
0011
0000
1000
0000
0010
0000
1001
0000
0000
0000
0001
1000
0100
0010
,
0001
0000
0000
1000
0010
0000
0000
0000
0101
0000
0010
0000
1000
0000
0100
0000
,
0011
0000
0000
0001
0010
0000
0000
0000
1100
0000
0010
0000
0100
0000
0001
0000
,
1010
0000
0000
0100
0001
0000
0000
0000
1001
0000
0010
0000
0100
0000
0010
0000
,
1001
0000
0000
0001
0010
0000
0100
0000
1100
0000
0000
0000
1000
0001
0100
0010
,
1000
0000
0000
0001
0010
0000
0000
0000
1100
0000
0010
0000
0001
0000
0100
0000
,
1010
0000
0000
1000
0010
0000
0000
0000
0101
0000
0010
0000
1000
0000
0100
0000
,
0011
0000
0000
0001
0010
0000
0000
0000
0110
0000
1000
0000
0001
0000
1000
0000
,
0110
0000
0000
0001
1000
0000
0010
0000
0110
0000
0000
0000
0000
0000
1010
0000
,
0101
0000
1001
0000
0001
0100
0001
0010
,
1100
0000
0011
0000
1000
0100
1000
0010
,
0101
0000
1001
0000
0001
0010
0100
0010
,
0011
0001
0101
0010
1100
1000
1010
0100
,
1001
0000
1000
0100
0010
0001
0100
0020
0001
0000
0100
0000
0001
0000
0130
0000
,
0110
0000
0001
0100
0010
1000
0100
0020
1000
0000
0100
0000
1000
0000
0130
0000
,
0110
0000
0001
0010
0100
1000
0010
0200
1000
0000
0010
0000
1000
0000
0310
0000
,
0110
0000
1000
0010
0100
0001
0010
0200
0001
0000
0010
0000
0001
0000
0310
0000
,
1001
0000
0110
0000
0010
1000
0100
0010
,
0101
0000
1000
0000
0011
0000
1000
0000
0101
0000
0000
0001
0100
0000
0010
1000
,
0001
0000
1001
0000
1000
0001
0100
0010
,
1100
0001
1010
0001
1100
0000
0101
1100
,
1001
0000
1010
0011
0110
0000
1001
0110
,
0001
1000
0001
1000
0001
0000
0110
0000
1001
0000
0010
0100
0010
0100
0010
0000
,
1001
0000
0000
0001
0010
0000
0110
0000
0000
0000
1100
0000
0010
0000
0101
0000
,
0000
0011
0100
0010
1100
0000
1001
0000
,
1000
0100
1000
0010
1000
0100
1000
0010
0100
0001
0010
0001
0100
0001
0010
0100
,
0020
0030
0000
0000
0000
0000
0000
0000
0000
0000
0000
0000
0000
0000
0000
0000
0000
0000
0000
0000
0000
0000
0000
0000
0200
0300
0000
0000
0000
0000
0000
0000
0000
0000
0000
0000
0000
0000
0000
0000
0000
0000
0000
0000
0000
0000
0000
0000
0220
0330
0000
0000
0000
0000
0000
0000
0000
0000
0000
0000
0000
0000
0000
0000
0000
0000
0000
0000
0000
0000
0000
0000
0010
0000
0000
0000
0000
0000
0000
0000
0000
0000
0000
0000
0001
0000
0000
0000
0000
0000
0000
0000
0000
0000
0000
0000
0100
0000
0000
0000
0000
0000
0000
0000
0000
0000
0000
0000
0010
0000
0000
0000
0000
0000
0000
0000
0000
0000
0000
0000
1000
0000
0000
0000
0000
0000
0000
0000
0000
0000
0000
0000
0000
0000
0000
0000
0000
0000
0000
0000
0000
0000
0000
0000
0000
0000
0000
0000
0000
0000
0000
0000
0000
0000
0000
0000
1000
0000
0000
0000
0000
0000
0000
0000
0000
0000
0000
0000
0010
0000
0000
0000
0000
0000
0000
0000
0000
0000
0000
0000
0000
0000
0000
0000
0000
0000
0000
0000
0000
0000
0000
0000
,
0100
0000
0101
0000
0000
0001
0010
0000
0100
0000
1100
0000
0000
1000
0001
0000
,
0100
0000
0110
0000
0000
0000
0110
0000
0000
0000
1001
0000
0001
0010
0100
0000
,
0010
0000
0001
0000
0101
0000
0000
0000
1010
0000
0010
0100
0001
0010
0100
1000
,
0010
1000
0100
0010
0001
1000
0001
0100
0010
0000
1000
0000
1000
0000
1000
0000
,
1000
0001
0001
0001
0001
0100
0100
0010
,
0010
0000
1001
0000
0000
0000
1000
0010
0100
0001
0010
0000
0000
0100
1000
0000
,
0000
0000
1010
0000
0100
0000
0001
0000
0010
0000
1100
0000
0000
1000
0010
0000
,
0000
0000
0101
0000
0010
0000
1000
0000
0100
0000
0011
0000
0000
0001
0100
0000
,
0000
0000
0110
0000
0001
0000
1000
0000
0100
0000
1001
0000
0000
0001
0010
0000
,
0100
0110
0000
0000
0000
1100
0000
0011
,
0000
1010
0000
0101
0000
0001
0001
1000
,
0100
0002
0203
2300
3020
0230
0300
1010
,
0000
0101
0000
0011
0000
0001
1000
0001
,
0100
2000
3200
0302
0023
0230
0300
0110
,
0000
0011
0000
1001
0000
0001
0001
1000
,
0010
0002
0023
2030
3200
0320
0030
1100
,
0000
0011
0000
1001
0001
0100
0010
1000
,
0001
0000
1000
0100
0010
0001
1000
0100
0010
0001
1000
0000
0010
0000
1000
0000
,
0001
0010
0100
0000
0010
0000
0001
0000
1000
0010
0001
0000
0000
0001
0010
0000
,
1000
0100
0001
0000
0000
0001
0100
0000
1000
0100
0010
0100
1000
0001
1000
0100
,
0010
0100
1000
0000
0001
0100
0010
0000
0100
0001
1000
0000
0000
1000
0100
0000
,
0010
0001
1000
0000
0000
0000
1100
0000
0101
0000
1001
0000
0000
0000
0011
0000
,
1010
0000
0110
0000
0000
0000
1000
0000
0010
0000
0100
0001
0010
0100
1000
0010
,
0100
0000
0110
0000
0010
1000
0100
0010
0001
0100
0010
0000
0010
1000
0100
0000
,
0110
0000
0110
0011
1001
0000
0001
0010
,
0100
0000
1100
0000
0000
0000
1001
0000
0000
0000
0001
0100
0001
0010
0001
0100
,
0001
0000
0000
0000
0000
0000
0000
0000
0000
0000
0000
0000
0010
0000
0000
0000
0000
0000
0000
0000
0000
0000
0000
0000
0100
0000
0000
0000
0000
0000
0000
0000
0000
0000
0000
0000
1000
0000
0000
0000
0000
0000
0000
0000
0000
0000
0000
0000
0010
0000
0000
0000
0000
0000
0000
0000
0000
0000
0000
0000
1000
0000
0000
0000
0000
0000
0000
0000
0000
0000
0000
0000
0100
0000
0000
0000
0000
0000
0000
0000
0000
0000
0000
0000
1000
0000
0000
0000
0000
0000
0000
0000
0000
0000
0000
0000
0010
0000
0000
0000
0000
0000
0000
0000
0000
0000
0000
0000
0100
0000
0000
0000
0000
0000
0000
0000
0000
0000
0000
0000
0020
0030
0000
0000
0000
0000
0000
0000
0000
0000
0000
0000
0000
0000
0000
0000
0000
0000
0000
0000
0000
0000
0000
0000
0200
0300
0000
0000
0000
0000
0000
0000
0000
0000
0000
0000
0000
0000
0000
0000
0000
0000
0000
0000
0000
0000
0000
0000
0220
0330
0000
0000
0000
0000
0000
0000
0000
0000
0000
0000
0000
0000
0000
0000
0000
0000
0000
0000
0000
0000
0000
0000
,
0010
0000
0100
0001
0010
0000
0000
0010
0100
0000
0010
0000
1001
0000
0000
0000
,
0001
0000
1000
0010
0100
0000
0000
0100
0001
0000
0010
0000
1100
0000
0000
0000
,
1000
0000
0010
0000
0101
0000
0000
1010
0000
0000
1100
0000
0011
0000
0000
1100
,
0000
1000
0100
0001
1000
0010
0001
0100
,
1000
0001
0010
1000
0100
1000
0010
0100
,
0001
0000
0010
0000
0110
0000
0110
0000
1000
0001
1000
0001
1000
0000
0000
0000
,
0001
0010
0100
1000
0010
0000
0010
1000
0100
0000
0010
0001
0100
0000
0100
0001
,
0010
0000
0100
1000
0010
0000
0010
1000
0100
0000
0010
0000
0110
0000
0000
0000
,
1001
0000
0001
0000
1000
0000
0100
0010
0100
0000
0001
0000
0100
0000
1000
0000
,
0001
0000
0100
0000
1000
0000
0100
0001
1000
0000
1100
0000
0110
0000
0011
0000
,
0000
0000
1001
0000
0001
0010
0100
1000
0010
1000
0100
0010
0001
0000
0011
0000
,
0000
0000
1001
0000
0001
0100
0010
1000
0100
1000
0010
0100
0001
0010
0100
1000
,
0001
0010
0100
1000
0010
0000
0000
0010
0100
0000
0001
0000
0011
0000
0000
0010
,
0100
0000
1000
0000
1100
0000
0001
1000
0101
0000
1000
0001
1100
0000
0001
1000
,
0101
0000
0000
0000
1001
0000
1000
0010
0100
0000
1000
0100
0020
0000
0000
1030
,
0100
0000
0010
0000
0011
0000
0001
0100
0010
0000
0001
0010
0200
0000
0000
0301
,
0010
0000
0100
0000
1100
0000
1000
0100
1000
0000
0100
0000
1001
0000
0001
0100
,
0001
0000
0100
0000
0001
0010
0001
0100
0010
0100
0001
1000
0001
0010
0100
0010
,
0001
0100
0010
0100
1000
0000
1000
0100
0010
0000
1000
0100
0020
0000
0030
1000
,
0010
0001
0010
0100
0001
0000
0001
0100
0010
0000
0001
0100
0020
0000
0030
0001
,
0010
0100
1000
0100
0010
0000
0010
1000
0001
0000
0010
0000
0110
0000
0100
1000
,
0100
0000
0010
0000
0110
0000
0010
0001
0010
0000
0100
0000
1000
0100
0010
0001
,
0010
0100
1000
0001
0100
0000
0100
0010
0100
0001
0010
0100
0010
0001
0100
0010
,
0100
1000
0001
0010
0100
0000
0010
1000
0100
0000
0010
0001
0100
0000
0000
0000
,
1001
0000
0101
0100
0100
0100
0110
0010
,
0010
0000
0010
0000
0210
0000
0001
0000
1000
0000
0310
0000
1000
0001
0010
1000
,
0001
0100
0010
0001
1000
0000
0000
1000
0010
0000
0000
0000
1010
0000
0100
0000
,
0001
0000
0010
0000
1100
0000
0000
0010
0001
0000
0000
0000
0101
0000
0010
0000
,
1000
0000
0100
0000
0011
0000
0000
0100
1000
0000
0000
0000
0110
0000
1000
0000
,
0001
0000
1000
0000
0110
0000
0000
0001
0010
0000
0100
0000
1100
0000
0000
0000
,
1000
0100
0010
0001
1000
0000
0000
0010
0100
0000
0000
0000
0101
0000
0010
0000
,
1000
0000
0100
0000
0011
0000
0000
0100
1000
0000
0000
0000
1010
0000
0100
0000
,
0001
0000
0010
0000
1100
0000
0000
0010
0100
0000
0000
0000
1001
0000
0010
0000
,
0100
0000
0010
0000
1001
0000
0000
1000
0010
0000
0100
0000
0101
0000
0000
0000
,
0000
0000
0001
0100
1000
0000
0000
0000
0110
0000
0000
0000
1001
0000
0001
0010
,
0100
0010
0100
0010
0001
0000
1000
0000
0101
0000
0010
0000
1100
0000
0000
0000
;
