#TITLE:ヴァンパイア;
#SUBTITLE:;
#ARTIST:ナナヲアカリ;
#TITLETRANSLIT:Vampire;
#SUBTITLETRANSLIT:;
#ARTISTTRANSLIT:Nanawo Akari;
#GENRE:POP;
#CREDIT:;
#MUSIC:Vampire.ogg;
#BANNER:Vampire.png;
#BACKGROUND:Vampire-bg.png;
#CDTITLE:;
#SAMPLESTART:56.185;
#SAMPLELENGTH:12.988;
#SELECTABLE:YES;
#OFFSET:1.437;
#BPMS:0.000=164.000;
#STOPS:;
#LASTBEATHINT:1.194467;
#BGCHANGES:4.000=Vampire.avi=1.000=0=0=0=StretchNoLoop====,
99999.000=-nosongbg-=1.000=0=0=0=StretchNoLoop====
;
#FGCHANGES:;

//--------------- dance-single - ----------------
#NOTES:
     dance-single:
     :
     Hard:
     12:
     0,0,0,0,0:
0000
0000
0000
0000
,
0000
0000
0000
0000
,
0110
0000
0000
0000
1001
0000
0000
0000
0001
0000
0000
1000
0000
0000
0100
0000
,
0000
0000
0110
0000
0000
0000
0010
0000
0001
0000
0000
1000
0000
0000
1010
0000
,
0000
0000
1000
0000
0010
0000
0001
0000
0010
0000
0000
0110
0000
0000
0100
0000
,
0000
0001
0010
1000
0010
0001
0100
0010
,
1000
0000
1001
1000
0000
0001
0010
0100
,
0000
0100
1000
0001
0020
0000
0130
1000
,
0010
0101
0000
0001
0010
1100
0000
0100
,
0010
1001
0000
0010
0200
0000
0302
0000
,
0013
0100
0010
0001
1000
0010
0100
0000
,
0100
0001
0100
0010
0100
0001
1000
0000
,
0001
0010
0001
0010
0100
1000
0100
1000
,
0000
1000
0010
0100
0002
1000
1003
0000
,
0010
0100
0010
1000
0001
0010
0100
0000
,
0100
1000
0100
0010
0100
1000
0001
0000
,
1000
0010
1000
0010
0100
0001
0100
0001
,
0000
0001
0010
0100
2000
0001
3001
0000
,
1010
0000
0000
0000
0101
0000
0000
0000
1000
0000
0000
0001
0000
0000
0010
0000
,
0000
0100
1000
0100
0010
0100
0001
0100
,
0000
1000
0010
1000
0001
0100
0001
0010
,
0000
0100
1000
0010
0100
0001
1000
0000
,
0011
0000
0000
0000
1100
0000
0000
0000
0001
0000
0000
1000
0000
0000
0010
0000
,
0000
0100
0001
0100
0010
0100
1000
0100
,
0000
0001
0010
0001
1000
0100
1000
0010
,
0100
0001
1000
0100
1001
0000
1001
0001
,
0010
0010
0100
0100
1000
0001
0000
1001
,
1000
0010
0010
0100
0001
1000
0000
0001
,
0100
0001
0100
1000
0100
0010
0100
0010
,
1000
0100
0001
0100
1000
0000
1001
1000
,
0010
0010
0100
0100
0001
1000
0000
1001
,
0001
0010
0010
0100
1000
0001
0000
1000
,
0100
1000
0100
0001
0100
0010
0100
0010
,
0001
0100
1000
0100
0001
0000
0101
0000
,
1010
0000
0000
0010
0000
0000
1000
0000
0001
0000
0000
0000
0010
0000
0100
0000
,
1000
0000
0000
1000
0000
0000
0001
0000
0100
0000
0000
0000
0010
0000
1000
0000
,
0100
0000
0000
0100
0000
0000
0010
0000
0001
0000
1000
0000
0100
0000
0010
0000
,
0100
1000
0001
0100
0110
0000
1010
0000
,
0101
0000
0011
0000
1100
1001
0000
0002
,
0000
0013
0100
1000
0001
0000
0000
0000
,
0110
0000
0000
0000
1001
0000
0000
0000
1000
0000
0000
1100
0000
0000
0001
0000
,
0000
0000
0101
0000
0000
0000
0001
0000
0100
0000
0000
0110
0000
0000
0010
0000
,
0000
0000
0100
0010
0100
0000
0010
0100
0010
0000
0000
1000
0000
0000
0200
0000
,
0000
0310
0001
1000
0010
0100
0010
0001
,
0010
0000
1001
0100
0000
0010
1000
0002
,
0000
0013
0100
0010
1000
0000
1000
0010
,
0001
0000
0011
0000
1000
0001
0100
1000
,
0100
0010
0100
0001
1000
0100
0011
0000
,
1100
0000
0000
0000
1001
0000
0000
0000
0001
0000
0000
0101
0000
0000
1000
0000
,
0000
0000
1100
0000
0000
0000
1000
0000
0100
0000
0000
0110
0000
0000
0010
0000
,
0000
0000
0100
0010
0100
0000
0010
0100
0010
0000
0000
0001
0000
0000
0200
0000
,
0000
0310
1000
0001
0010
0100
0010
1000
,
0010
0000
1001
0100
0000
0010
0001
2000
,
0000
3010
0100
0010
0001
0000
0001
0010
,
1000
0000
1010
0000
0001
1000
0100
0001
,
0100
0010
0100
1000
0001
0100
1010
0000
,
1000
0000
0100
1000
0000
0000
1000
0000
0001
0000
0100
0001
0000
0000
0001
0000
,
0010
0100
0010
0100
0110
0000
0010
0001
,
0100
0010
0100
0001
0000
0001
0010
0100
,
1000
0100
0010
0001
1000
0010
1100
0000
,
0101
0000
1001
0010
0000
0010
1000
0001
,
0000
0001
0100
0010
1000
0100
0001
0100
,
1000
0000
1010
0000
0100
0001
0010
0100
,
0001
0100
1000
0001
0010
1000
0010
0001
,
0101
0000
1010
0000
1000
0010
0100
0001
,
0000
0001
0010
0100
2000
0000
0000
0000
,
3002
0000
0203
0000
0302
2003
0000
3200
,
0000
0302
2003
3002
0203
0000
2300
0000
,
3002
0000
0023
0000
0032
2003
0000
3020
,
0000
0032
2003
3002
0023
0000
2030
0000
,
3002
0000
0023
0000
0230
2300
0000
3002
,
0000
0203
2300
3200
0302
0000
0023
0000
,
0130
0000
0110
0000
0001
0010
0100
1000
,
0010
0001
1000
0100
0001
0000
1001
0000
;

//--------------- dance-single - ----------------
#NOTES:
     dance-single:
     :
     Challenge:
     16:
     0.375827,0.302108,0,0,0,289,289,0,0,0,0,0.375827,0.302108,0,0,0,289,289,0,0,0,0:
0000
0000
0000
0000
,
0000
0000
0000
0000
,
0001
0000
1000
0000
0100
0000
0000
0000
0011
0000
0000
1001
0000
0000
1100
0000
,
0000
0000
1000
0010
0100
0000
0010
0000
0200
0000
0000
0301
0000
0000
1001
0000
,
0000
0000
0001
0100
0001
0000
1000
0100
1000
0000
0000
0110
0000
0000
0200
0000
,
0000
0301
0010
0100
0010
0100
1000
0001
,
1000
0000
1001
1000
0010
1000
0001
0020
,
0000
0130
1000
0001
0020
0000
0130
0010
,
0100
1000
0100
1000
0001
0010
0100
1000
0001
0100
0001
0100
0010
1000
0100
0010
,
0001
0011
0000
0010
0200
0000
2300
0000
,
3010
0000
1000
0000
0001
0000
0010
0000
0001
0000
1000
0100
1000
0000
0001
0000
,
1000
0010
0100
0010
1000
0001
0100
0001
,
1000
0101
0001
1100
1000
0011
0001
1200
,
0000
0000
1300
0100
0010
0000
0100
0000
1000
0000
1010
0000
0101
0000
0000
0000
,
0010
0000
0001
0000
1000
0000
0010
0000
1000
0000
0010
0100
0010
0000
1000
0000
,
0001
0010
0100
0010
0001
1000
0001
0100
,
0001
1010
0010
1100
0100
0011
0010
0201
,
0000
0000
0301
0100
0010
0000
0100
0000
0001
0000
0011
0000
1100
0000
0000
0000
,
1010
0000
0100
0000
0110
0000
0000
1000
0001
0000
0000
0011
0000
0000
1100
0000
,
0000
0001
1000
0000
0010
0000
0100
0000
0010
0000
0100
0000
0001
0000
0101
0000
,
0000
1010
0010
0100
0001
1000
0001
0010
,
0100
0000
1000
0001
0100
0000
0010
0000
0100
0000
1000
0000
0100
0000
0001
0000
,
0010
0110
0000
0100
1000
1010
0000
0100
,
0001
0101
0000
1000
0010
0100
0010
1000
,
0001
0011
0000
0001
0100
0110
0000
1000
,
0001
0000
1010
0000
0100
0000
0010
0000
1001
0000
0000
0000
1001
0000
0100
0010
,
0001
0000
0010
0000
0100
0000
1000
0000
0001
0000
1100
0000
0000
0000
1000
0010
,
0100
0000
0010
0000
1000
0000
0001
0000
0100
0000
1010
0000
0000
0000
0010
1000
,
0100
0000
0100
1000
0020
0000
1000
0000
0130
0000
0100
0001
0020
0000
0001
0000
,
0130
0000
0100
0010
0001
0000
0001
0010
0100
0000
0100
0000
1000
0010
0100
0010
,
1000
0000
0010
0000
0100
0000
0001
0000
1000
0000
0101
0000
0000
0000
0001
0010
,
0100
0000
0010
0000
0001
0000
1000
0000
0100
0000
0011
0000
0000
0000
0010
0001
,
0100
0000
0100
0001
0020
0000
0001
0000
0130
0000
0100
1000
0020
0000
1000
0000
,
0130
0000
0100
0010
1000
0000
1000
0010
0100
0000
0100
0000
0001
0010
0100
1000
,
0001
0000
0000
0011
0000
0000
0100
0000
0010
0000
0000
0000
0110
0000
0100
1000
,
0001
0000
0000
0101
0000
0000
0100
0010
1000
0000
1001
0000
0001
0010
0100
0010
,
0001
0000
0000
0011
0000
0000
0010
0100
1000
0000
0010
0000
0001
0000
0010
0000
,
0100
0000
0001
0000
1000
0000
0001
0010
0100
0000
0010
0100
1000
0000
0010
0000
,
1010
0000
0110
1000
0101
0011
0000
1000
,
0000
0001
0010
0100
1000
0000
0000
0000
,
0110
0000
0000
0000
1001
0000
0000
0100
0002
0000
0000
0013
0100
0000
2000
0000
,
0000
0000
3001
0100
0010
0000
0100
0000
2000
0000
0000
3100
0001
0000
0020
0000
,
0000
0000
0130
1000
0020
0000
0130
0001
0020
0000
0000
0130
1000
0010
0200
0000
,
0000
0000
0310
1000
0010
0100
1000
0100
0010
0000
0100
0001
0010
0100
0001
0100
,
0010
0000
1001
0010
0000
0010
1000
0002
,
0000
0000
0013
0100
0010
0000
0100
1000
0001
0000
1000
0010
1000
0010
0100
0001
,
0010
0000
0100
1000
0001
0000
0100
0000
1000
0000
0001
0010
0100
0000
1000
0000
,
0100
0000
0010
1000
0100
0000
0010
0001
0100
0000
0010
0000
1000
0100
0010
0000
,
0110
0000
0000
0000
1001
0000
0000
0100
2000
0000
0000
3010
0100
0000
0002
0000
,
0000
0000
1003
0100
0010
0000
0100
0000
0002
0000
0000
0103
1000
0000
0020
0000
,
0000
0000
0130
0001
0020
0000
0130
1000
0020
0000
0000
0130
0001
0010
0200
0000
,
0000
0000
0310
0001
0010
0100
0001
0100
0010
0000
0100
1000
0010
0100
1000
0100
,
0010
0000
1001
0010
0000
0010
0001
2000
,
0000
0000
3010
0100
0010
0000
0100
0001
1000
0000
0001
0010
0001
0010
0100
1000
,
0010
0000
0100
0001
1000
0000
0100
0000
0001
0000
1000
0010
0100
0000
0001
0000
,
0100
0000
0010
0001
0100
0000
0010
1000
0100
0010
0100
1000
0001
0100
0001
0100
,
0010
1000
0100
0010
0000
0010
0100
1000
0001
0100
0010
1000
0000
1000
0100
0001
,
0100
1000
0001
0100
0110
0000
0010
1000
,
0010
0000
0100
0001
0100
0000
0100
1000
0100
0000
0001
0000
0010
0000
0100
0000
,
1000
0001
1000
0001
0100
0010
0101
0000
,
1100
0000
1001
1000
0001
0010
0001
1000
,
0100
1000
0001
0100
1000
0100
0001
1000
,
0010
0001
0010
0001
1000
0100
0010
1000
0001
0010
0001
0010
0100
1000
0001
0100
,
0010
0100
1000
0100
0001
0010
0100
0010
,
1100
0010
0101
0000
0001
1000
0001
0010
,
0000
0010
0100
0010
1001
0000
0000
0000
,
0002
1000
0023
0001
0230
2300
0010
3002
,
0010
0203
0320
0230
0320
0000
0001
0000
,
2030
0001
3020
1000
0230
0302
0010
2003
,
0010
3200
0320
0230
0320
0000
1000
0000
,
0032
0100
2003
0010
3002
0203
1000
0320
,
0001
2030
3002
2003
3002
0000
0013
0100
,
1000
0100
1000
0100
0010
0001
0100
1000
0001
0010
0001
0010
1000
0100
0001
1000
,
0010
0001
0100
0010
1000
0001
1001
0000
;
