#TITLE:うっせぇわ;
#SUBTITLE:;
#ARTIST:Ado;
#TITLETRANSLIT:Usseewa;
#SUBTITLETRANSLIT:;
#ARTISTTRANSLIT:Ado;
#GENRE:POP;
#CREDIT:;
#MUSIC:Usseewa.ogg;
#BANNER:Usseewa.png;
#BACKGROUND:Usseewa-bg.png;
#CDTITLE:;
#SAMPLESTART:52.584;
#SAMPLELENGTH:10.787;
#SELECTABLE:YES;
#OFFSET:-0.026;
#BPMS:0.000=178.000
,153.500=89.000
,154.500=178.000
,280.500=89.000
,281.500=178.000
;
#STOPS:81.500=0.169
,214.500=0.337
,215.500=0.337
,281.500=0.337
,342.500=0.337
,343.500=0.337
,350.500=0.337
;
#BGCHANGES:2.500=Usseewa.avi=1.000=0=0=0=StretchNoLoop====,
99999.000=-nosongbg-=1.000=0=0=0=StretchNoLoop====
;
#FGCHANGES:;

//--------------- dance-single - ----------------
#NOTES:
     dance-single:
     :
     Medium:
     13:
     0.773941,0.800965,0.733708,0.266803,0.137107,731,632,99,36,0,0,0.773941,0.800965,0.733708,0.266803,0.137107,731,632,99,36,0,0:
0000
0000
0000
0000
,
0101
0000
0000
1001
0000
0000
1000
0100
1000
0001
0100
0001
,
1000
0000
0000
1001
0000
0000
0001
0100
0001
1000
0100
1000
,
0001
0000
0000
1001
0000
0000
0001
0100
0010
0100
0001
1000
,
0100
0100
0100
0100
1002
0000
2003
0000
,
3100
0010
0001
0001
1000
0010
0100
0100
,
0001
1000
0001
0001
0100
1000
0100
0100
,
0001
1000
0100
0100
0010
0100
1000
1000
,
0010
0000
0100
0000
0001
0000
0001
0000
0100
0000
0010
0000
1000
0000
1000
0100
,
1000
0010
0001
0010
0100
1000
0100
0010
,
1000
0100
0010
0100
0010
1000
0001
1000
,
0010
0100
0010
0100
1000
0001
1000
0010
,
0100
0001
1000
1000
0010
0100
0100
0100
,
0001
0010
0100
1000
0100
0010
0001
1000
,
1010
1001
0101
1001
,
0001
0100
0010
1000
0010
0100
0001
1000
,
0010
0000
0100
0001
0020
0100
0130
0000
,
0100
0010
0100
0001
0100
0010
0100
1000
,
0010
0100
0010
1000
0010
0000
0110
0020
,
2030
3020
0230
0302
0203
0300
1001
0002
,
0023
0230
2300
3002
0100
0100
0103
1001
,
0001
0010
0100
1000
0000
1001
1000
0010
,
0100
0001
0010
0100
0000
1000
0100
1100
,
0000
0001
0101
0000
1001
0001
1000
0200
,
0320
0000
0230
0000
2300
0000
3020
0000
0100
0000
0130
0000
0001
0100
0001
0000
,
0100
1000
0001
0010
0100
0001
1000
0200
,
0000
0320
0000
0130
1000
0010
0000
0100
,
0000
0110
0000
0010
1000
0010
1000
0001
,
0010
0001
0010
0100
1000
0100
1000
0001
,
0000
0001
0000
0000
0001
0000
1000
0000
0000
1000
0000
0000
1000
0000
0001
0000
,
0000
0001
0000
0000
0001
0000
1000
0000
0000
0001
0000
0000
1000
0000
0010
0000
,
0000
0010
0000
0000
0010
0000
0100
0000
0000
0100
0000
0000
0100
0000
0010
0000
,
0000
0010
0000
0000
0010
0000
0100
0000
0001
1000
0001
0000
0010
0000
0100
0000
,
0000
1000
0000
0000
1100
0000
0001
0000
0000
0100
0000
0000
0101
0000
0010
0000
,
0000
1000
0000
0000
1010
0000
0100
0000
0000
0000
0011
0000
0100
0000
1000
0000
,
0010
1000
0100
0010
0001
0100
0001
0020
,
0000
0032
0000
2003
0000
3001
0000
0011
,
0000
0011
0000
1100
0000
1100
0000
1001
,
0000
1001
0000
0020
0000
1030
0000
1010
,
0000
0001
0000
0011
0000
0100
0000
0110
,
0000
1001
0000
1001
0100
0010
1000
0001
,
0010
0100
1000
0001
1000
0110
0000
1001
,
0000
0110
0000
1000
0001
0010
0001
0100
,
0000
0010
1000
0100
0000
0010
0001
0100
,
0000
0110
0000
0110
0000
0010
1000
0010
,
0001
0010
0100
0010
1000
0100
0000
0100
,
0010
0000
0100
0000
0010
0001
2000
0000
0000
0000
3001
0000
0000
0000
0001
0000
,
0010
0001
0010
0100
1000
0001
0000
0100
,
0010
0100
1000
0100
0001
0010
0000
0010
,
0100
0000
1001
0000
0100
1000
0000
0010
,
0000
1010
1001
0101
0000
0001
0000
0101
,
0000
1000
0000
1100
0000
0010
0000
0110
,
0000
1001
0000
2001
0000
3001
0100
0010
,
1000
0001
1000
0100
0010
0011
0011
0110
,
1100
0000
1100
0000
1001
1001
0000
0110
,
0000
1000
0001
0010
0001
1000
0001
0010
,
0001
1000
0001
0010
0100
1000
0001
1000
,
0010
0100
0010
0000
0000
0000
0110
0000
0000
0000
0001
0000
0000
0000
1001
0000
,
0000
0000
0001
0000
0100
0000
0001
1000
0001
1000
0001
0000
0010
0000
0100
0000
,
1000
0001
0100
0010
0100
0010
1000
0100
,
2000
0000
0001
3001
0010
0100
0010
0100
,
1000
0002
0000
2003
0000
3002
0000
2003
,
0000
3010
0100
0010
0100
0010
0000
0110
,
0000
0100
0000
1001
0000
0100
0000
1001
,
0000
0100
0000
1001
0000
0110
0000
1001
,
0000
1000
0100
0001
0000
0001
0100
1000
,
0000
1000
0100
0001
0100
2000
0001
3001
,
0000
0010
0000
1001
0000
0010
0000
1001
,
0000
0010
0000
1001
0000
0110
0000
1000
,
0000
0000
0001
0000
1000
0000
0010
0100
0010
0100
0010
0100
0010
0100
0010
0100
,
0010
0100
0010
0000
0110
0000
1001
0000
0000
0000
0001
0000
0000
0000
1010
0000
,
0000
1000
0000
0011
0000
0100
0000
1010
,
0000
1001
0000
0011
0000
0100
1000
0001
,
0100
0001
1000
0100
1000
0011
0010
0011
,
0001
0011
0000
1001
0000
0001
0100
0001
,
0000
1000
0100
1000
0000
0001
0010
0001
,
1000
1001
0000
1010
0000
1000
0100
0100
,
0001
1000
0100
0100
0001
0010
0000
0011
,
1100
0011
0000
1001
0000
1001
0000
2000
,
0000
3001
1000
0100
1000
0200
0000
0000
,
0310
0001
0010
0100
0010
0001
0000
0001
,
0200
0000
0010
0000
0310
1000
0000
0010
,
0000
0000
0100
0000
0010
0000
0100
0000
0001
1000
0001
0000
0010
0000
0011
0000
,
0000
1000
0010
1010
0000
0100
0001
1001
,
0010
0110
0000
1001
0000
0001
0010
0001
,
0010
0100
1000
0100
1000
1100
1100
1001
,
0101
0000
0101
0000
0110
0001
1000
0001
,
1001
0000
1010
0010
0100
0101
0000
0100
,
0010
1000
1000
0001
0010
0100
0100
1000
,
0001
1000
1000
0100
0001
0100
0100
1000
,
0001
0100
0100
1000
0100
0001
0001
0010
,
0100
0000
1000
0000
1000
0000
0100
0000
0010
0000
0001
0000
0001
0100
0001
0000
,
0010
1000
0010
0100
0010
0100
1000
0001
,
0100
0010
0100
0010
0001
1000
0001
0010
,
0100
0001
0010
0100
1000
0100
0001
0100
,
1000
0001
0001
0010
0100
0100
0100
0000
,
0000
1001
0000
0000
0000
0000
0000
0000
;

//--------------- dance-single - ----------------
#NOTES:
     dance-single:
     :
     Hard:
     17:
     1.00157,1.201447,0.592896,0.251981,0.818937,946,866,80,34,0,0,1.00157,1.201447,0.592896,0.251981,0.818937,946,866,80,34,0,0:
0000
0000
0000
0000
,
0110
0000
0000
1001
0000
0000
0001
0100
0001
1000
0100
0010
,
1001
0000
0000
1001
0000
0000
1000
0100
1000
0001
0100
0010
,
1001
0000
0000
1001
0000
0000
0001
0010
0001
1000
0010
0100
,
0110
0000
0000
0110
0000
0000
0110
0000
0000
0110
0000
0000
1001
0000
0000
0001
0010
0100
2000
0000
0000
0000
0000
0000
,
3010
0000
0100
0001
0100
0000
0010
0000
1000
0000
0100
0010
0100
0000
0010
0000
,
0001
0000
1000
0100
1000
0000
0010
0000
0100
0001
0100
0000
0010
0100
0010
0000
,
1000
0000
0001
0100
0001
0000
1000
0000
0100
0000
0010
0100
0010
0000
0001
0000
,
1000
0000
0001
0100
0001
0000
0010
0000
0100
1000
0100
0000
1000
0100
0010
0001
,
1000
0000
0010
0100
0001
0000
0010
0000
0100
0000
1000
0100
0010
0000
0001
0000
,
1000
0000
0010
0100
0001
0000
0010
0000
0001
0010
0100
0000
1000
0010
0100
0000
,
0001
0000
1000
0010
1000
0000
0010
0000
0100
0000
0001
0100
0001
0000
0010
0000
,
0100
0000
0000
0000
0000
0000
1000
0000
0000
0100
0000
0000
1000
0000
0000
0000
0000
0000
0100
0000
0010
0000
0001
0000
1000
0000
0000
0000
0000
0000
0100
0000
0000
0000
0000
0000
0100
0000
0000
0000
0000
0000
0100
0000
0000
0000
0000
0000
,
0010
0001
0010
0001
1000
0010
1000
0010
,
0101
0001
1100
1000
1001
0000
1001
0000
,
0001
0010
0100
0010
0100
1000
0001
1000
,
0001
0000
0100
0010
1000
0000
0010
0100
0001
0000
1000
0010
0100
0010
0100
0010
,
0001
0010
0100
0001
0010
0100
1000
0100
,
1000
0000
0001
0000
0100
0000
1000
0000
0100
0000
0001
0010
0100
0000
0020
0000
,
0032
0023
0230
2300
3200
0300
1001
2000
,
3020
0230
0302
2003
0010
0010
3010
1001
,
1000
0100
1000
0000
0100
0000
0010
0000
0100
1000
0100
0000
0010
0000
0001
0000
,
0100
0001
0100
0000
0010
0000
0100
0000
0001
0100
0001
0000
0010
0000
0110
0000
,
0000
0011
0100
0000
0110
1000
0001
0200
,
2300
0000
3200
0000
0302
0000
0023
0000
0100
0000
0130
0000
1000
0100
1000
0000
,
0001
0010
0001
0000
0010
0100
0010
0000
0001
0100
0001
0000
1000
0001
2000
0000
,
0000
3020
0000
0130
0001
0010
0100
0010
,
0100
1000
0001
0000
0100
0000
0010
0100
0001
0000
0010
0000
0100
1000
0001
0000
,
0010
0000
0100
0000
1000
0000
0100
1000
0100
1000
0100
0010
0001
1000
0100
0000
,
0000
0100
0000
0000
0100
0000
1000
0000
0000
1000
0000
0000
1000
0000
0001
0000
,
0000
0001
0000
0000
0001
0000
0100
0000
0000
0100
0000
0000
0100
0000
1000
0000
,
0000
1000
0000
0000
1000
0000
0100
0000
0000
0100
0000
0000
0100
0000
0001
0000
,
0000
0001
0000
0000
0001
0000
0010
0100
0010
0001
0010
0100
0010
0001
0100
0010
,
0100
0010
0100
0010
0100
0010
0100
1000
0100
1000
0100
1000
0100
1000
0100
0001
,
0100
0001
0100
0001
0100
0001
1000
0000
0100
0000
0010
0001
0010
0100
1000
0000
,
0010
0000
1000
0000
0100
0010
0100
0000
1000
0000
0001
0000
0100
0010
0200
0000
,
0000
0302
0000
2003
0000
3010
0000
1010
,
0000
1010
0000
0101
0000
0101
0000
1001
,
0000
0000
1001
0000
0000
0000
0200
0000
0000
0000
0301
0100
0001
0100
0001
0000
,
0000
0000
1000
0100
1000
0100
1000
0000
0000
0000
0100
0010
0100
0010
0100
0000
,
0000
0000
1001
0000
0000
0000
0110
0000
0000
0000
0100
0000
0001
0100
0001
0000
,
1000
0000
0001
0000
1000
0100
1000
0000
0010
0000
0100
0001
0100
0010
0100
0001
,
0010
0100
0010
0000
0010
0001
1000
0000
0010
0000
1010
0000
1000
0001
1000
0000
,
0000
0000
0011
0000
0001
1000
0001
0000
0000
0000
0110
0000
0100
0001
0010
0000
,
0000
0000
1001
0000
0000
0000
1001
0000
0000
0000
1000
0000
0001
0100
0010
0000
,
0001
0000
0010
0000
0100
0001
0010
0000
0100
0000
0110
0000
0000
0000
1100
0000
,
1000
0000
0000
0000
0000
0000
1001
0000
0000
0000
0000
0000
0001
0000
0100
0000
0001
0000
0200
0000
0000
0000
0000
0000
0000
0000
0000
0000
0000
0000
1300
0000
0000
0000
0000
0000
0100
0000
0000
0001
0000
0000
1000
0000
0000
0001
0000
0000
,
1000
0000
0100
0000
0010
0100
1000
0100
1000
0000
0001
0000
0100
0001
0100
0001
,
0010
0000
0100
0000
1000
0100
1000
0100
0010
0000
0001
0000
1000
0000
0100
0000
,
0001
1000
0010
0001
0100
1000
0001
0010
,
0000
0000
1010
0000
0110
0000
0100
0001
0010
0000
0100
1000
0100
1000
0010
0000
,
0000
0000
0100
0001
0100
0001
0010
0000
0000
0000
0100
1000
0100
1000
0010
0000
,
0000
0000
0110
0000
0000
0000
1001
0000
0000
0000
0101
0000
0100
0010
1000
0000
,
0100
0000
0010
0000
0001
0010
0100
1000
0100
0010
0100
0000
0110
0000
1100
0000
,
1010
0000
0000
0000
0000
0000
0101
0000
0000
0000
0000
0000
0110
0000
0000
1001
0000
0000
0010
0100
0010
0100
0000
0000
,
0000
0100
0001
0011
0010
0100
1000
1001
,
0001
0000
0010
0000
0100
0000
1000
0000
0010
0100
0010
0000
1000
0000
0001
0010
,
0100
1000
0002
0000
0010
0000
0010
0000
0013
0000
0200
0000
1000
0000
1000
0000
,
1300
0000
0001
0000
0100
0000
0010
0100
0001
0010
0100
0000
0100
1000
0001
0000
,
0010
0100
1000
1000
0010
0100
0001
0100
,
2000
0000
0100
3100
0001
0010
0001
1000
,
0100
0020
0000
0230
0000
2300
0000
3002
,
0000
0000
0000
0103
0000
0000
0010
0000
0000
0100
0000
0000
0010
0000
0000
0100
0000
0000
0010
0100
0010
0100
0000
0000
,
0001
0011
0000
1100
0000
0011
0000
1100
,
0000
0011
0000
1100
0000
1001
0000
1000
,
0000
0001
0100
1000
0000
1000
0100
0001
,
0000
0001
0100
1000
0100
0002
1000
1003
,
0000
0011
0000
1100
0000
0011
0000
1100
,
0000
0011
0000
1100
0000
1001
0000
1000
,
0000
0000
0010
0000
0100
0000
0001
0100
0001
0100
0010
1000
0100
1000
0100
0010
,
0001
0200
0010
0000
0310
0000
1001
0000
0000
0000
1000
0100
0010
0100
1000
0000
,
0000
0000
0001
0100
0010
0100
0001
0000
0000
0000
0010
0100
1000
0100
0010
0000
,
0001
0000
0011
0000
0000
0000
1100
0000
0000
0000
0100
0000
1000
0001
1000
0000
,
0010
0000
0100
0000
0001
1000
0001
0000
0010
0000
0100
1000
0010
0100
0010
1000
,
0010
0100
0010
0000
0010
1000
0100
0000
0010
0000
0110
0000
0100
1000
0001
0000
,
0101
0000
1010
0000
0100
0001
0010
0000
1100
0000
0011
0000
1000
0100
0010
0001
,
1000
0000
0101
0000
0001
0000
1001
0000
0000
0000
1000
0000
0100
0010
0100
0000
,
0001
0000
1000
0000
0010
0100
0010
0000
0001
0000
1000
0000
0000
0000
0011
0000
,
1100
0000
0000
0011
0000
0000
0001
0010
0100
1000
0000
0000
0000
0000
0000
0011
0000
0000
0000
0000
0000
0010
0000
0000
,
0100
1000
0001
0100
0001
0200
0000
0000
,
0310
1000
0010
0100
0010
1000
0000
1000
,
0200
0000
0010
0000
0310
0001
0000
0010
,
0000
0000
0100
0000
0010
0000
0100
1000
0100
1000
0001
0010
0100
1000
0001
0000
,
0100
0000
1000
0100
0010
0100
0001
0000
0010
0000
0100
0010
0001
0010
1000
0000
,
0010
0110
0000
1001
0000
1000
0010
1000
,
0010
0100
0001
0100
0001
0101
0011
0110
,
1100
0000
0000
0000
1100
0000
0000
0000
0011
0000
0001
0010
0100
1000
0010
0000
,
0110
0000
0000
0000
0000
0000
1010
0000
0000
0010
0000
0000
1000
0100
0010
0001
0000
0000
0000
0000
0000
0001
0000
0000
,
0100
0000
0001
0100
0001
0100
0010
0000
1000
0000
0100
0010
0100
0010
0001
0000
,
0010
0000
0100
1000
0100
1000
0001
0000
0100
0000
0010
0100
0010
0100
0001
0000
,
1000
0000
0100
0010
0001
0010
0100
0000
1000
0000
0010
0100
0001
0100
0010
0000
,
1000
0000
0100
0010
0001
0010
0100
0000
1000
0000
0001
0100
0010
1000
0001
0100
,
0001
0100
0010
1000
0010
1000
0001
0010
0001
0010
0100
1000
0100
1000
0001
0100
,
0010
1000
0001
0100
0010
1000
0001
0010
0100
1000
0001
0010
0100
1000
0001
0010
,
0001
0010
0100
1000
0001
1000
0010
0100
0010
0100
0001
1000
0010
0100
0001
0010
,
0001
0010
0100
1000
0010
1000
0001
0000
0100
0000
0010
0000
1000
0000
0000
0000
,
0000
1001
0000
0000
0000
0000
0000
0000
;

//--------------- dance-single - ----------------
#NOTES:
     dance-single:
     :
     Challenge:
     18:
     0,0,0,0,0:
0000
0000
0000
0000
,
0110
0000
0000
0000
0000
0000
1001
0000
0000
0000
0000
0000
1100
0000
1000
0000
0100
0010
0100
0010
0100
0000
1000
0000
,
1001
0000
0000
0000
0000
0000
1100
0000
0000
0000
0000
0000
0101
0000
0001
0000
0100
0010
0100
0010
0100
0000
0001
0000
,
1001
0000
0000
0000
0000
0000
0101
0000
0000
0000
0000
0000
1100
0000
1000
0000
0100
0010
0001
0010
0100
0000
1000
0000
,
1001
0000
0000
1001
0000
0000
1001
0000
0000
1001
0000
0000
0101
0000
0000
0001
0010
0100
1001
0000
0000
0000
0000
0000
,
0110
0000
0100
1000
0100
0010
0100
0000
1000
0001
0100
0001
0100
0000
1000
0000
,
0110
0000
0010
1000
0100
0010
1000
0000
0001
0100
1000
0000
0001
0010
1000
0000
,
0110
0000
0010
0001
0100
0010
0001
0000
0001
0010
0100
0001
0010
0000
0001
0000
,
0011
0000
0010
0100
1000
0100
1000
0000
1000
0010
0100
0000
1000
0100
0001
1000
,
0100
0000
0001
0100
1000
0010
0100
0000
0010
0100
0001
0100
0010
0000
1000
0000
,
1001
0000
0001
0010
0100
0010
1000
0000
1000
0010
0001
0000
1000
0100
0001
0000
,
0110
0000
0100
1000
0001
0100
0010
0000
0100
0001
0010
0100
0001
0000
0100
0000
,
1000
0000
0000
0010
0000
0000
0100
0000
0000
0010
0000
0000
1000
0000
0000
0000
0000
0000
0001
0000
0010
0000
0100
0000
1000
0000
0000
0000
0000
0000
0100
0000
0000
0000
0000
0000
0100
0000
0000
0000
0000
0000
0100
0000
0000
0000
0000
0000
,
0010
0000
0001
1000
0010
0000
0100
0001
0010
0000
0100
1000
0001
0000
0010
0001
,
0101
0000
0100
0000
0110
0000
0010
0000
1010
0000
0100
0010
1001
0000
0001
0000
,
0010
0000
0100
1000
0100
0000
0010
0000
0001
0000
1000
0100
1000
0000
0001
0000
,
1000
0100
0010
0100
1000
0100
0010
0001
0100
0000
1000
0100
0001
0010
0100
0010
,
1000
0000
0010
0001
0010
0000
0100
0000
1000
0000
0001
0100
0001
0000
1000
0000
,
0001
0100
0010
0100
0010
0000
1000
0000
0100
0000
0001
0100
1000
0000
0020
0000
,
0032
0000
2003
0000
3002
0000
0023
0000
2030
3000
0000
0000
1001
0000
2000
0000
,
3200
0302
0203
2300
0010
0010
3010
1001
,
1000
0100
1000
0000
0011
0000
1100
0000
0100
1000
0100
0000
0011
0000
0101
0000
,
0001
0100
0001
0000
1010
0000
0101
0000
0100
0001
0100
0000
1010
0000
0101
0000
,
0000
0000
0101
0000
0011
0000
0000
0000
0011
0000
1010
0000
1100
0000
0100
1000
,
0100
0010
0100
1000
0001
0100
0020
0000
0100
0000
0130
0000
0010
0100
0010
0000
,
1000
0010
1000
0000
0001
0100
0001
0000
1000
0100
1000
0001
0010
0100
2000
0000
,
0001
0000
3002
0000
0100
0000
0103
0000
1000
0000
0100
0000
0001
0000
0010
0001
,
0100
1000
0001
0000
0010
1000
0100
0001
1000
0000
0010
0001
0100
1000
0002
0000
,
0023
0000
0230
0000
2300
0000
3100
0001
0100
0001
0100
0010
1000
0100
0010
0000
,
0100
1000
0000
0100
0010
0001
1000
0000
0001
0100
0000
0001
1000
0010
0100
0000
,
0010
0001
0000
0010
1000
0100
0010
0000
0100
1000
0000
0100
0010
0001
1000
0000
,
0000
1010
0000
0000
0100
0001
0010
0000
0000
0110
0000
0000
0100
1000
0010
0000
,
0000
0110
0000
0000
0100
0001
0010
0100
1000
0100
0010
0100
1000
0001
0100
1000
,
0100
0001
0100
1000
0100
0010
0001
0010
1000
0010
0001
0010
1000
0100
0001
0100
,
1000
0100
0010
1000
0010
0001
0010
0000
0010
0100
1000
0000
0001
0100
0010
0000
,
1010
0000
0101
0000
0001
0010
0100
0000
1100
0000
1000
0010
0100
0001
2000
0000
,
3001
0010
2000
0000
3001
0100
2000
0000
3001
0010
2000
0000
3010
0001
0101
0000
,
0000
1010
0000
1100
0000
0011
0000
1001
,
0000
0000
0110
0000
0000
0000
2001
0000
0000
0000
3001
0100
0010
0100
0001
0000
,
1001
0000
0001
0010
0100
0010
0001
0000
1001
0000
0001
0100
0010
0100
0001
0010
,
0100
0010
0001
0000
1000
0000
1001
0000
0100
0000
0001
0100
0010
0100
0010
0100
,
0010
0100
0001
0010
0100
0010
0100
0010
0100
0010
0001
0100
0010
0100
0001
0010
,
0100
0010
0001
0000
0010
0100
1000
0000
1001
0000
0001
0010
0001
0100
0010
0000
,
1010
0000
1000
0100
0010
0100
0001
0000
0101
0000
0100
1000
0010
0100
0010
0000
,
0100
0000
1001
0000
0010
0000
1001
0000
0000
0000
1000
0000
0001
0010
0100
0010
,
0100
0000
0110
0000
1000
0010
0100
0010
0100
0000
0110
0000
0001
0000
1010
0000
,
1001
0000
0000
0000
0000
0000
0101
0000
0000
0000
0000
0000
0100
0000
0001
0000
0010
0000
0200
0000
0000
0000
0000
0000
0000
0000
0000
0000
0000
0000
1300
0000
0000
0000
0000
0000
0001
0000
0000
0100
0000
0000
0010
0000
0000
0001
0000
0000
,
0010
0000
0100
0001
0010
0100
0010
0000
0110
0000
1001
0000
1000
0100
0010
0100
,
1000
0100
0010
0000
0010
0001
0100
0010
0100
0000
1000
0000
1000
0100
0001
0000
,
0001
0010
0100
0000
0100
1000
0001
0000
0001
0010
1000
0000
1000
0010
0100
0000
,
1000
0000
1001
0000
0101
0000
1010
0010
1000
0000
1000
0100
0010
0100
1000
0000
,
1001
0000
1000
0010
0100
0010
1000
0000
1001
0000
1000
0100
0010
0100
1000
0010
,
0100
0010
1000
0000
0001
0000
1001
0000
1000
0000
0010
0001
0010
0100
0010
1000
,
0001
0100
0010
0100
1000
0001
0010
0100
0010
1000
0020
0000
1030
0000
1002
0000
,
0013
0000
0000
0000
0000
0000
0110
0000
0000
0000
0000
0000
1100
0000
0000
1001
0000
0000
1000
0010
0100
1001
0000
0000
,
0000
0001
0010
1001
0010
0100
0001
1001
,
1000
0000
0100
0000
0010
0000
1001
0000
0010
0000
0110
0000
1000
0000
0001
0100
,
0010
1000
0020
0000
0100
0000
1000
0000
0130
0000
0002
0000
0010
0000
1000
0000
,
0013
0000
0010
0001
0100
0010
0100
1000
0001
0010
0100
0000
1000
0100
0001
0000
,
0100
0000
0001
0000
0001
0010
0100
0010
0001
0100
0010
0100
1000
0100
0010
0100
,
0002
0000
0000
0000
0013
0001
0100
0000
0110
0000
0010
1000
0100
0010
0100
1000
,
0100
0010
0002
0000
0100
0000
2003
0000
0100
0000
3002
0000
0100
0000
2003
0000
,
3100
0000
0000
1010
0000
0000
0101
0000
0000
1010
0000
0000
0101
0000
0000
1010
0000
0000
1000
0010
0100
0001
0000
0000
,
0010
0110
0000
1001
0000
0110
0000
1001
,
0000
0110
0000
1001
0000
1001
0000
1000
,
0000
1000
0100
0002
0000
1003
0010
0001
,
0010
2000
0000
3020
0000
0032
1000
1003
,
0000
1010
0100
0101
0010
1010
0100
0101
,
0010
1010
0100
0101
0010
1001
0001
0010
,
0100
0000
1000
0000
0001
0100
0010
0100
0010
1000
0100
0010
0100
0010
0001
0100
,
0010
2000
0010
0000
3010
0000
1001
0000
0000
0000
1000
0100
0010
0100
1000
0000
,
1001
0000
1000
0010
0100
0010
1000
0000
1001
0000
1000
0100
0010
0100
1000
0010
,
0100
0010
1000
0000
0001
0000
1001
0000
0100
0000
1000
0100
0010
0100
0010
0100
,
0010
0100
1000
0010
0100
0010
0100
0010
0100
0010
1000
0100
0010
0100
1000
0010
,
0100
0010
1000
0000
0010
0100
0001
0000
1001
0000
1000
0010
1000
0100
0010
0000
,
0011
0000
0001
0100
0010
0100
1000
0000
1100
0000
0100
0001
0010
0100
0010
0000
,
0100
0000
1001
0000
0010
0000
1001
0000
0000
0000
0001
0000
1000
0010
0100
0010
,
0100
0000
0110
0000
0001
0010
0100
0010
0100
0000
0110
0000
1000
0000
0011
0000
,
1001
0000
0000
0000
0000
0000
1100
0000
0000
0000
0000
0000
0100
0000
1000
0000
0010
0000
0200
0000
0000
0000
0000
0000
0000
0000
0000
0000
0000
0000
0301
0000
0000
0000
0000
0000
1000
0000
0000
0100
0000
0000
0010
0000
0000
1000
0000
0000
,
0010
0000
0100
1000
0010
0100
0010
0000
0110
0000
1001
0000
0001
0100
0010
0100
,
0001
0100
0010
0000
0010
1000
0100
0010
0100
0000
0001
0000
0001
0100
1000
0000
,
1000
0010
0100
0000
0100
0001
1000
0000
1000
0010
0001
0000
0001
0010
0100
0000
,
0001
0000
1001
0000
1100
0000
0011
0010
0001
0000
0001
0100
0010
0100
0001
0000
,
1001
0000
0001
0010
0100
0010
0001
0000
1001
0000
0001
0100
0010
0100
0001
0010
,
0100
0010
0001
0000
1000
0000
1001
0000
0001
0000
0010
1000
0010
0100
0010
0001
,
1000
0100
0010
0100
0001
1000
0010
0100
0010
0001
0020
0000
0031
0000
2001
0000
,
3010
0000
0000
0000
0000
0000
0110
0000
0000
0000
0000
0000
0110
0000
0000
1001
0000
0000
1000
0010
0100
0001
0000
0000
,
0101
0000
0000
0000
0000
0000
0000
0000
0000
0000
0000
0000
0011
0000
0000
0000
0000
0000
0010
0000
0000
0000
0000
0000
0100
0000
1000
0000
0010
0000
1010
0000
0000
0000
0000
0000
0000
0000
0000
0000
0000
0000
0001
0000
0000
0100
0000
0000
,
0001
0100
0001
0010
0100
0010
0100
1000
0100
0010
0001
1000
0001
0010
0001
1000
,
0100
0010
0100
0010
0100
1000
0010
1000
0010
1000
0001
0010
0001
0100
0010
0100
,
0001
1000
0100
0010
0001
0100
0001
1000
0100
1000
0100
0010
0100
1000
0010
0100
,
0010
1000
0010
0100
0001
1000
0001
1000
0001
0010
0100
1000
0001
0010
0100
1000
,
0001
0100
1000
0100
0001
0010
0100
1000
0010
1000
0001
0010
0001
0100
1000
0100
,
0001
1000
0100
0010
0001
0010
0001
1000
0010
1000
0100
0010
1000
0010
0001
0010
,
0100
1000
0100
0010
0001
0100
0010
1000
0100
0010
0001
0100
0010
0001
0010
1000
,
0001
0100
1000
0100
0001
0010
1000
0000
0110
0000
0110
0000
1001
0000
0000
0000
,
0000
1001
0000
0000
0000
0000
0000
0000
;
