#TITLE:うっせぇわ -Full song-;
#SUBTITLE:;
#ARTIST:Ado;
#TITLETRANSLIT:Usseewa;
#SUBTITLETRANSLIT:;
#ARTISTTRANSLIT:Ado;
#GENRE:POP;
#CREDIT:;
#MUSIC:Usseewa -Full song-.ogg;
#BANNER:Usseewa -Full song-.png;
#BACKGROUND:Usseewa -Full song--bg.png;
#CDTITLE:;
#SAMPLESTART:51.814;
#SAMPLELENGTH:10.787;
#SELECTABLE:YES;
#OFFSET:0.746;
#BPMS:0.000=178.000
,153.500=89.000
,154.500=178.000
,354.000=89.000
,355.000=178.000
,483.000=89.000
,484.000=178.000
;
#STOPS:81.500=0.169
,214.500=0.337
,215.500=0.337
,282.000=0.169
,484.000=0.337
,545.000=0.337
,546.000=0.337
,553.000=0.337
;
#BGCHANGES:2.000=Usseewa -Full song-.avi=1.000=0=0=0=StretchNoLoop====,
99999.000=-nosongbg-=1.000=0=0=0=StretchNoLoop====
;
#FGCHANGES:;

//--------------- dance-single - ----------------
#NOTES:
     dance-single:
     :
     Challenge:
     18:
     1.289565,1.302277,1.010664,0.320454,1.338513,1831,1626,205,65,0,0,1.289565,1.302277,1.010664,0.320454,1.338513,1831,1626,205,65,0,0:
0000
0000
0000
0000
,
0110
0000
0000
0000
0000
0000
1001
0000
0000
0000
0000
0000
1100
0000
1000
0000
0100
0010
0100
0010
0100
0000
1000
0000
,
1001
0000
0000
0000
0000
0000
1100
0000
0000
0000
0000
0000
0101
0000
0001
0000
0100
0010
0100
0010
0100
0000
0001
0000
,
1001
0000
0000
0000
0000
0000
0101
0000
0000
0000
0000
0000
1100
0000
1000
0000
0100
0010
0001
0010
0100
0000
1000
0000
,
1001
0000
0000
1001
0000
0000
1001
0000
0000
1001
0000
0000
0101
0000
0000
0001
0010
0100
1001
0000
0000
0000
0000
0000
,
0110
0000
0100
1000
0100
0010
0100
0000
1000
0001
0100
0001
0100
0000
1000
0000
,
0110
0000
0010
1000
0100
0010
1000
0000
0001
0100
1000
0000
0001
0010
1000
0000
,
0110
0000
0010
0001
0100
0010
0001
0000
0001
0010
0100
0001
0010
0000
0001
0000
,
0011
0000
0010
0100
1000
0100
1000
0000
1000
0010
0100
0000
1000
0100
0001
1000
,
0100
0000
0001
0100
1000
0010
0100
0000
0010
0100
0001
0100
0010
0000
1000
0000
,
1001
0000
0001
0010
0100
0010
1000
0000
1000
0010
0001
0000
1000
0100
0001
0000
,
0110
0000
0100
1000
0001
0100
0010
0000
0100
0001
0010
0100
0001
0000
0100
0000
,
1000
0000
0000
0010
0000
0000
0100
0000
0000
0010
0000
0000
1000
0000
0000
0000
0000
0000
0001
0000
0010
0000
0100
0000
1000
0000
0000
0000
0000
0000
0100
0000
0000
0000
0000
0000
0100
0000
0000
0000
0000
0000
0100
0000
0000
0000
0000
0000
,
0010
0000
0001
1000
0010
0000
0100
0001
0010
0000
0100
1000
0001
0000
0010
0001
,
0101
0000
0100
0000
0110
0000
0010
0000
1010
0000
0100
0010
1001
0000
0001
0000
,
0010
0000
0100
1000
0100
0000
0010
0000
0001
0000
1000
0100
1000
0000
0001
0000
,
1000
0100
0010
0100
1000
0100
0010
0001
0100
0000
1000
0100
0001
0010
0100
0010
,
1000
0000
0010
0001
0010
0000
0100
0000
1000
0000
0001
0100
0001
0000
1000
0000
,
0001
0100
0010
0100
0010
0000
1000
0000
0100
0000
0001
0100
1000
0000
0020
0000
,
0032
0000
2003
0000
3002
0000
0023
0000
2030
3000
0000
0000
1001
0000
2000
0000
,
3200
0302
0203
2300
0010
0010
3010
1001
,
1000
0100
1000
0000
0011
0000
1100
0000
0100
1000
0100
0000
0011
0000
0101
0000
,
0001
0100
0001
0000
1010
0000
0101
0000
0100
0001
0100
0000
1010
0000
0101
0000
,
0000
0000
0101
0000
0011
0000
0000
0000
0011
0000
1010
0000
1100
0000
0100
1000
,
0100
0010
0100
1000
0001
0100
0020
0000
0100
0000
0130
0000
0010
0100
0010
0000
,
1000
0010
1000
0000
0001
0100
0001
0000
1000
0100
1000
0001
0010
0100
2000
0000
,
0001
0000
3002
0000
0100
0000
0103
0000
1000
0000
0100
0000
0001
0000
0010
0001
,
0100
1000
0001
0000
0010
1000
0100
0001
1000
0000
0010
0001
0100
1000
0002
0000
,
0023
0000
0230
0000
2300
0000
3100
0001
0100
0001
0100
0010
1000
0100
0010
0000
,
0100
1000
0000
0100
0010
0001
1000
0000
0001
0100
0000
0001
1000
0010
0100
0000
,
0010
0001
0000
0010
1000
0100
0010
0000
0100
1000
0000
0100
0010
0001
1000
0000
,
0000
1010
0000
0000
0100
0001
0010
0000
0000
0110
0000
0000
0100
1000
0010
0000
,
0000
0110
0000
0000
0100
0001
0010
0100
1000
0100
0010
0100
1000
0001
0100
1000
,
0100
0001
0100
1000
0100
0010
0001
0010
1000
0010
0001
0010
1000
0100
0001
0100
,
1000
0100
0010
1000
0010
0001
0010
0000
0010
0100
1000
0000
0001
0100
0010
0000
,
1010
0000
0101
0000
0001
0010
0100
0000
1100
0000
1000
0010
0100
0001
2000
0000
,
3001
0010
2000
0000
3001
0100
2000
0000
3001
0010
2000
0000
3010
0001
0101
0000
,
0000
1010
0000
1100
0000
0011
0000
1001
,
0000
0000
0110
0000
0000
0000
2002
0000
3003
0000
0001
0100
0010
0100
0001
0000
,
1001
0000
0001
0010
0100
0010
0001
0000
1001
0000
0001
0100
0010
0100
0001
0010
,
0100
0010
0001
0000
1000
0000
1001
0000
0100
0000
0001
0100
0010
0100
0010
0100
,
0010
0100
0001
0010
0100
0010
0100
0010
0100
0010
0001
0100
0010
0100
0001
0010
,
0100
0010
0001
0000
0010
0100
1000
0000
1001
0000
0001
0010
0001
0100
0010
0000
,
1010
0000
1000
0100
0010
0100
0001
0000
0101
0000
0100
1000
0010
0100
0010
0000
,
0100
0000
1001
0000
0010
0000
1001
0000
0000
0000
1000
0000
0001
0010
0100
0010
,
0100
0000
0110
0000
1000
0010
0100
0010
0100
0000
0110
0000
0001
0000
1010
0000
,
1001
0000
0000
0000
0000
0000
0101
0000
0000
0000
0000
0000
0100
0000
0001
0000
0010
0000
0200
0000
0000
0000
0000
0000
0000
0000
0000
0000
0000
0000
1300
0000
0000
0000
0000
0000
0001
0000
0000
0100
0000
0000
0010
0000
0000
0001
0000
0000
,
0010
0000
0100
0001
0010
0100
0010
0000
0110
0000
1001
0000
1000
0100
0010
0100
,
1000
0100
0010
0000
0010
0001
0100
0010
0100
0000
1000
0000
1000
0100
0001
0000
,
0001
0010
0100
0000
0100
1000
0001
0000
0001
0010
1000
0000
1000
0010
0100
0000
,
1000
0000
1001
0000
0101
0000
1010
0010
1000
0000
1000
0100
0010
0100
1000
0000
,
1001
0000
1000
0010
0100
0010
1000
0000
1001
0000
1000
0100
0010
0100
1000
0010
,
0100
0010
1000
0000
0001
0000
1001
0000
1000
0000
0010
0001
0010
0100
0010
1000
,
0001
0100
0010
0100
1000
0001
0010
0100
0010
1000
0020
0000
1030
0000
1002
0000
,
0013
0000
0000
0000
0000
0000
0110
0000
0000
0000
0000
0000
1100
0000
0000
1001
0000
0000
1000
0010
0100
1001
0000
0000
,
0000
0000
1001
0000
1000
0010
0100
0000
1000
0000
0100
0001
0010
0100
1000
0000
,
0001
0000
0011
0000
0010
0100
1000
0000
0010
0000
0100
0001
0100
1000
0100
0001
,
0010
0000
0110
0000
0100
1000
0100
0000
0010
0000
0100
1000
0001
1000
0100
0000
,
0010
0000
0001
0000
0100
0001
0100
0000
1000
0000
0100
0001
0100
0000
0001
0100
,
0010
1000
0001
0000
0010
0100
1000
0001
0100
0000
1000
0100
0001
0100
0010
0000
,
1000
0000
0100
0000
0010
0001
0100
0000
0010
0000
0100
0001
0010
0001
0100
1000
,
0100
0001
0010
0000
1000
0010
1000
0000
0010
0000
0001
1000
0001
0010
0100
0000
,
0001
0000
0000
0000
0000
0000
0100
0000
0000
1000
0000
0000
0001
0000
0000
0100
0000
0000
0010
0000
0000
0000
0000
0000
1000
0000
0010
0000
0100
0000
0001
0000
0000
0000
0000
0000
0010
0000
0000
0000
0000
0000
0010
0000
0000
0000
0000
0000
,
0010
0110
0100
1000
0010
0110
0100
0001
,
1000
1010
0100
0101
0010
1002
0010
0013
,
0100
1100
0010
0100
0010
0011
1000
0001
,
1000
0000
0101
0000
0001
0000
1100
0000
1000
0000
1001
0000
1000
0010
0100
0000
,
0001
1001
0010
0100
1000
1100
0100
0010
,
0001
0101
1000
1010
1000
2001
0001
3001
,
0020
0032
0203
2300
3200
0320
1000
1030
,
2000
3200
0302
0203
2300
0001
0001
3001
,
1001
0000
1000
0100
0010
0000
0100
0000
1000
0100
0010
0001
0100
0000
0010
0000
,
0100
0000
0001
0100
0010
0000
0100
0000
0001
0100
0010
1000
0001
0000
0010
0000
,
1100
0000
1100
1010
0000
1010
0011
0101
,
0200
0000
0302
0000
0023
0000
0230
0000
2300
0000
0010
0000
3010
0000
0100
0001
,
0010
0000
0100
1000
0010
0000
0100
0001
0010
0000
0100
1000
0010
0001
0010
0100
,
2000
0100
3200
0001
0302
0010
0023
0130
,
1000
0001
0100
1000
0001
0000
1000
0100
0001
1000
0100
0000
0010
0001
0100
1000
,
0100
0000
0100
0001
0010
0000
0100
0000
1000
0100
1000
0100
0010
0001
0010
0100
,
1000
0000
0010
0000
0100
0000
0001
0000
1000
0100
0010
0100
1000
0000
0001
0000
0100
0000
0001
0000
0010
0000
0100
0000
,
1000
0000
0010
0000
0001
0000
0010
0000
1000
0000
0100
0010
0100
0000
0001
0000
0100
0000
1000
0010
1000
0010
0100
0001
,
0100
0000
0010
0000
1000
0000
0010
0000
0100
0001
0100
0010
1000
0000
0010
0000
0100
0000
0001
0000
0010
0000
1000
0000
,
0010
0000
0001
0000
0100
0000
0010
0000
0100
0000
1000
0100
0001
0000
0000
0000
0000
0000
0001
0010
0001
0010
0100
1000
,
0001
0000
0100
0001
0000
0001
0010
0000
0010
0100
1000
0000
1000
0010
0100
0001
,
0010
0000
0010
1000
0000
1000
0010
0001
1001
0000
0000
0100
0001
0100
0001
0010
,
0100
0000
1100
0000
1100
0000
0100
0010
0001
0000
0011
0000
0011
0000
0001
0100
,
0110
0010
1010
1000
1100
0100
0101
0001
,
0011
0010
0100
1100
0000
0000
1010
0010
0100
0101
0000
0000
,
0011
0000
0000
0000
0001
0000
0000
0000
0010
0000
0000
0000
1000
0000
0000
0000
0001
0000
0000
0000
0100
0000
0000
0000
1100
0000
0000
0000
0000
0000
0000
0000
0000
0000
0000
0000
1000
0000
0000
0010
0000
0000
0100
0000
0000
0010
0000
0000
,
1000
0000
1001
0000
1000
0100
0010
0100
1000
0000
1001
0000
1000
0010
0100
0010
,
1000
0100
0010
0100
1000
0000
0001
0000
1001
0000
0010
0000
1000
0010
0100
0010
,
0100
0010
0100
0010
1000
0100
0010
0100
0010
0100
0010
0100
1000
0010
0100
0010
,
1000
0100
0010
0100
1000
0000
0100
0010
0001
0000
1001
0000
1000
0100
1000
0010
,
0100
0000
0101
0000
0001
0010
0100
0010
1000
0000
1010
0000
0010
0001
0100
0010
,
0100
0000
0010
0000
1001
0000
0100
0000
1001
0000
0000
0000
0001
0000
1000
0100
,
0010
0100
0010
0000
0110
0000
0001
0100
0010
0100
0010
0000
0110
0000
1000
0000
,
0101
0000
0000
0000
0000
0000
1001
0000
0000
0000
0000
0000
1010
0000
0000
0000
0000
0000
0010
0000
1000
0000
0100
0000
0020
0000
0000
0000
0000
0000
0000
0000
0000
0000
0000
0000
0031
0000
0000
0000
0000
0000
1000
0000
0000
0010
0000
0000
,
0100
1000
0100
0000
0010
1000
0100
0010
0100
0000
0110
0000
1001
0000
0001
0010
,
0100
0010
0001
0010
0100
0000
0100
1000
0010
0100
0010
0000
0001
0000
0001
0010
,
1000
0000
1000
0100
0010
0000
0010
0001
1000
0000
1000
0100
0001
0000
0001
0100
,
0010
0000
0001
0000
1001
0000
1010
0000
0101
0100
0001
0000
0001
0010
0100
0010
,
0001
0000
1001
0000
0001
0100
0010
0100
0001
0000
1001
0000
0001
0010
0100
0010
,
0001
0100
0010
0100
0001
0000
1000
0000
1001
0000
0001
0000
0100
1000
0100
0010
,
0100
0001
1000
0010
0100
0010
0001
1000
0100
0010
0100
0001
0101
0000
0000
0000
,
0100
0000
0011
0000
1001
0000
0000
0000
0100
0010
0110
0000
0000
0000
0110
0000
,
0000
0000
0000
0000
0000
0000
0011
0000
0000
0000
0000
0000
1001
0000
0000
0000
0000
0000
1000
0000
0100
0000
0010
0000
0001
0000
0000
0100
0000
0000
0010
0000
0000
1000
0000
0000
0001
0000
0000
0000
0000
0000
0010
0000
0000
0000
0000
0000
,
1001
0010
0100
0001
1001
1000
0100
0010
,
1001
0000
0010
0000
0110
0000
1000
0000
0001
0100
0010
1000
0020
0000
0100
0000
,
1000
0000
0130
0000
0002
0000
0010
0000
1000
0000
0013
0000
0010
0001
0100
0010
,
0100
1000
0001
0010
0100
0000
1000
0100
0001
0000
0100
0000
0001
0000
0001
0010
,
0100
0010
0001
0100
0010
0100
1000
0100
0010
0100
0002
0000
0000
0000
0013
0001
,
0100
0000
0110
0000
0010
1000
0100
0010
0100
1000
0100
0010
0002
0000
0100
0000
,
2003
0100
3002
0100
2003
3100
1010
0101
,
1010
0000
0000
0101
0000
0000
1010
0000
0000
1000
0010
0100
0001
0000
0000
0010
0000
0000
0110
0000
0000
0000
0000
0000
,
1001
0110
1001
0110
,
1001
0000
1001
0000
1000
0000
1000
0100
,
0002
0000
1003
0010
0001
0010
2000
0000
,
3020
0000
0032
1000
1003
0000
1010
0100
,
0101
0010
1010
0100
0101
0010
1010
0100
,
0101
0000
0010
0000
1001
0000
0001
0000
0010
0000
0100
0000
1000
0000
0001
0100
,
0010
0100
0010
1000
0100
0010
0100
0010
0001
0100
0010
2000
0010
0000
3010
0000
,
1001
0000
0000
0000
0001
0100
0010
0100
0001
0000
1001
0000
1000
0100
0010
0100
,
1000
0000
1001
0000
0001
0100
0010
0100
0001
1000
0100
1000
0010
0000
0100
0000
,
1001
0000
0100
0000
0001
0100
0010
0100
0001
0100
0010
0100
0001
1000
0100
0010
,
0100
1000
0100
0010
0100
1000
0010
0100
0001
0010
0100
1000
0001
0100
0010
0100
,
0001
0000
0101
0000
0001
0010
0100
0001
0100
0000
1010
0000
1000
0010
0100
1000
,
0100
0000
0101
0000
0001
0100
1000
0100
0010
0000
0100
0000
1001
0000
0010
0000
,
1001
0000
0000
0000
1000
0000
0001
0010
0100
1000
0100
0000
0110
0000
1000
0010
,
0100
0000
0000
0001
0000
0000
0100
0000
0000
0000
0000
0000
0110
0000
0000
0000
0000
0000
0001
0000
0000
0000
0000
0000
0011
0000
0000
0000
0000
0000
1001
0000
0000
0000
0000
0000
1100
0000
0000
0000
0000
0000
0100
0000
1000
0000
0010
0000
,
0200
0000
0000
0000
1300
0000
0100
0001
0010
1000
0010
0000
0100
1000
0010
0001
,
0010
0000
0110
0000
1001
0000
1000
0100
0001
0100
1000
0100
0001
0000
0001
0100
,
1000
0010
0100
0000
0110
0000
0100
0001
0010
0000
0010
0100
1000
0000
1000
0010
,
0001
0000
0001
0010
0100
0000
0100
0001
1000
0000
0001
0000
0011
0000
0101
0000
,
0110
0100
0001
0000
1000
0010
0100
0010
1000
0000
1001
0000
0001
0010
0100
0010
,
0001
0000
1001
0000
1000
0100
0010
0100
1000
0001
0010
0001
1000
0000
0001
0000
,
1001
0000
1000
0000
0010
0001
0010
0100
0010
1000
0100
0010
0100
1000
0010
0001
,
0010
0100
0010
1000
0020
0000
1030
0000
1002
0000
0013
0000
0000
0000
0110
0000
,
0000
0000
0000
0110
0000
0000
1001
0000
0000
0001
0010
0100
1000
0000
0000
1100
0000
0000
0000
0000
0000
0011
0000
0000
,
0010
0000
0000
0000
0000
0000
0100
0000
1000
0000
0010
0000
1010
0000
0000
0000
0000
0000
0000
0000
0000
0000
0000
0000
0001
0000
0000
0100
0000
0000
0001
0000
0000
0100
0000
0000
0001
0000
0000
0010
0000
0000
0100
0000
0000
0010
0000
0000
,
0100
1000
0100
0010
0001
1000
0001
0010
0001
1000
0100
0010
0100
0010
0100
1000
,
0010
1000
0010
1000
0001
0010
0001
0100
0010
0100
0001
1000
0100
0010
0001
0100
,
0001
1000
0100
1000
0100
0010
0100
1000
0010
0100
0010
1000
0010
0100
0001
1000
,
0001
1000
0001
0010
0100
1000
0001
0010
0100
1000
0001
0100
1000
0100
0001
0010
,
0100
1000
0010
1000
0001
0010
0001
0100
1000
0100
0001
1000
0100
0010
0001
0010
,
0001
1000
0010
1000
0100
0010
1000
0010
0001
0010
0100
1000
0100
0010
0001
0100
,
0010
1000
0100
0010
0001
0100
0010
0001
0010
1000
0001
0100
1000
0100
0001
0010
,
1000
0110
0110
1001
0000
0000
1001
0000
;
