#TITLE:4小節ごとにジャンルが変わるUnwelcome School.Remix;
#SUBTITLE:;
#ARTIST:Se-U-Ra;
#TITLETRANSLIT:Unwelcome School (Se-U-Ra Remix);
#SUBTITLETRANSLIT:;
#ARTISTTRANSLIT:Se-U-Ra;
#GENRE:POP;
#CREDIT:;
#MUSIC:Unwelcome School (Se-U-Ra Remix).ogg;
#BANNER:Unwelcome School (Se-U-Ra Remix).png;
#BACKGROUND:Unwelcome School (Se-U-Ra Remix)-bg.png;
#CDTITLE:;
#SAMPLESTART:10.661;
#SAMPLELENGTH:9.505;
#SELECTABLE:YES;
#OFFSET:1.220;
#BPMS:0.000=202.000;
#STOPS:;
#LASTBEATHINT:0.679999;
#BGCHANGES:4.000=Unwelcome School (Se-U-Ra Remix).avi=1.000=0=0=0=StretchNoLoop====,
99999.000=-nosongbg-=1.000=0=0=0=StretchNoLoop====
;
#FGCHANGES:;

//--------------- dance-single - ----------------
#NOTES:
     dance-single:
     :
     Medium:
     13:
     0,0,0,0,0:
0000
0000
0000
0000
,
0000
0000
0000
0000
,
0000
0000
0000
0000
,
0000
0000
0000
0000
,
0000
0000
0000
0000
,
0000
0000
0000
0000
,
0000
0000
0000
0000
,
0000
0000
0000
0000
,
0000
0000
0000
0000
,
0000
0000
0000
0000
,
0001
0000
0000
0000
1000
0000
0000
0000
0010
0000
0000
0100
0000
0000
0100
0000
,
0001
0010
0100
1000
0001
1000
0000
0000
,
0001
0100
0010
0000
1000
0100
0010
0001
,
0000
0001
0010
0100
2000
0000
3002
0000
,
0203
0000
0000
0301
2000
0000
3001
0000
,
0010
0100
0000
0100
0020
0000
0032
0000
,
1003
1100
0001
0101
,
1000
1100
0001
0101
,
1000
0000
0001
0000
1000
0000
0000
0000
0010
0000
0000
0100
0000
0000
0100
0000
,
0001
1000
0100
0010
0100
0000
0100
0000
,
1000
0001
1000
0000
0010
1000
0010
0002
,
0000
0013
0100
0000
0001
0000
1001
0000
,
1000
0000
0000
0000
0100
0000
0000
0000
0001
0000
0000
0100
0000
0000
1000
0000
,
0010
0001
0010
0000
0010
1000
0001
0000
,
0001
0010
0100
0000
0100
1000
0001
0000
,
0001
0100
1000
0100
0001
0100
0010
0000
,
0100
0000
1001
0000
0001
0010
0100
1000
,
0010
0000
1001
0000
1000
0010
0100
0001
,
0010
1100
0010
0101
,
0010
1100
0010
0101
,
0001
0010
0100
0000
1000
0100
0010
0000
,
0001
0100
0010
0000
1000
0010
0100
0000
,
0002
0000
0023
0000
0100
0130
1000
1000
,
0001
0000
1001
0000
0100
0100
0010
0000
,
0010
1000
0100
1000
0100
0000
1000
0000
,
0010
0100
0001
0100
0001
0000
0001
0000
,
0020
0230
2300
3020
,
0230
0000
0302
0000
1003
0001
0100
0000
,
0010
0000
0000
0100
0000
0000
0001
0000
1000
0000
0100
0000
0001
0000
0100
0000
,
1000
0000
0000
0001
0000
0000
0100
0000
1000
0000
0100
0000
0001
0000
1000
0000
,
0200
0000
0310
0001
0010
0100
1000
0010
,
1000
0100
0010
0001
0000
0001
1000
0010
,
0200
0000
0000
0301
1000
0000
1000
0000
,
0010
0000
0100
0001
0020
0000
0230
0000
,
2300
0000
0000
3002
0000
2003
0000
3010
,
0200
0302
2003
3200
,
0320
0000
0031
1000
0100
0000
0100
0000
,
1000
0001
0100
0010
1000
0000
1000
0000
,
0001
0000
0001
0010
0100
0000
1000
0010
,
0100
0100
0100
1001
,
0001
0000
0000
0000
1000
0000
0000
0000
0100
0000
0000
0100
0000
0000
0100
0000
,
1000
0000
0001
0000
1000
0000
0010
0000
0100
0000
0001
1000
0000
0000
0000
0000
,
0001
0010
1000
0000
1000
0010
0000
0010
,
0000
0010
0001
1000
0010
0000
0100
0000
,
0100
0000
0001
0100
0000
1000
0100
0000
,
0001
0010
0000
1000
0010
0000
0110
0000
,
0001
0000
1000
0010
0000
0100
0001
0000
,
0001
0010
0001
0010
1000
0000
0010
0000
,
0001
0000
0000
1000
0010
0000
0100
0000
0001
0000
0010
0000
0100
0000
0000
0000
,
0010
0000
0000
0001
0100
0000
0010
0000
1000
0000
0100
0000
0010
0000
0000
0000
,
0002
0023
0230
2300
,
3002
0023
0230
2300
,
3001
0000
0000
0100
0010
0000
1000
0000
0100
0000
0010
0000
0001
0000
0000
0000
,
1000
0000
0000
0010
0100
0000
0001
0000
1000
0000
0010
0000
0100
0000
0000
0000
,
0010
1001
0100
1001
,
0020
0000
0130
0110
,
0001
0010
0100
1000
0020
0000
0000
0000
,
1030
0010
0100
0001
0020
0000
0000
0000
,
0130
1000
0002
0100
,
1003
0010
0100
0001
,
1000
0100
1000
0100
1000
0000
1001
0000
,
0001
0100
0001
0100
0001
0000
1001
0000
,
0100
0000
0100
0010
1000
0010
0100
0010
,
0001
0010
0100
0010
0000
1000
0001
1000
,
0002
0000
0010
1000
,
0100
0000
0000
0203
0010
0000
1000
0000
,
0302
1000
0000
1003
0100
0010
0100
1000
,
0002
0000
0000
1003
0100
0000
0010
0000
,
1002
0000
0000
1000
0000
0000
2003
0000
,
3020
0000
0000
0130
0002
0000
0000
1003
,
0200
0000
0000
1000
0000
0000
0000
0310
,
0002
0000
0000
1003
0100
0000
0010
0000
,
0001
0000
0000
0000
0001
0000
0000
0000
1000
0000
0000
0001
0000
0000
1000
0000
,
0010
0000
0100
0000
0001
0000
1000
0000
0001
0000
0010
0100
0000
0000
0000
0000
,
1000
0100
0010
0000
0001
0010
0100
1000
,
0000
1000
0100
0010
0001
0000
1000
0000
,
0002
0103
2000
3100
,
0002
0103
2000
3100
,
0001
1000
0001
1000
0001
0100
0001
0100
,
0001
0010
0100
1000
0001
1000
0020
0000
,
0130
0001
0010
0001
0100
0001
0010
0100
,
1000
0010
1000
0100
1000
0010
0100
0001
,
1000
0000
0000
0000
1000
0000
0000
0000
0001
0000
0000
0100
0000
0000
0100
0000
,
0010
0000
1000
0000
0100
0000
0010
0000
0100
0000
1000
0001
0000
0000
0000
0000
,
1000
0100
0001
0100
1000
0100
0001
0100
,
1000
0010
0001
0010
1000
0010
0001
0010
,
1000
0010
0100
0001
0010
0100
0010
0001
,
1000
0100
0010
0100
1000
0001
1000
0000
,
0001
0100
0000
0101
0000
1100
0000
0101
,
0000
0011
0000
1010
0000
0011
0000
1000
,
0001
1100
0011
1100
,
0101
1010
0101
1010
,
0001
0100
0100
1000
0001
0100
0100
1000
,
0001
1000
0100
0100
0001
1000
0100
0100
,
0001
0010
0100
0100
0001
1000
0010
0100
,
0100
1000
0001
0010
1000
0000
0000
0000
,
0010
0000
0000
0001
1000
0000
0010
0000
0100
0000
0100
0000
0100
0000
0001
0000
,
1000
0000
0000
1000
0001
0000
0010
0000
0100
0000
0100
0000
0100
0000
1000
0000
,
0001
0110
1000
0110
,
0001
0110
1000
0110
,
0001
0010
1000
0001
0100
1000
0001
0000
,
1000
0010
0001
1000
0100
0001
1000
0000
,
0010
1002
0103
2001
,
3010
1000
0100
0001
1000
0010
0001
0000
,
1000
0100
1000
0100
0001
0100
1000
0000
,
0001
0100
0001
0100
1000
0100
0001
0000
,
0001
0010
1000
0000
0001
0100
1000
0000
,
0001
0100
1000
0000
0001
0010
1000
0000
,
0001
0010
0100
1000
1100
0000
0000
0000
,
1000
0010
0100
0001
0101
0000
0000
0000
,
0001
0000
0001
0100
1000
0100
0010
0001
,
0010
1000
0100
0002
0000
0000
0000
0000
,
0103
0000
0100
1000
0100
0001
0100
0010
,
1000
0010
0001
0100
0000
0000
0000
0000
;

//--------------- dance-single - ----------------
#NOTES:
     dance-single:
     :
     Hard:
     16:
     0,0,0,0,0:
0000
0000
0000
0000
,
0000
0000
0000
0000
,
0000
0000
0000
0000
,
0000
0000
0000
0000
,
0000
0000
0000
0000
,
0000
0000
0000
0000
,
0000
0000
0000
0000
,
0000
0000
0000
0000
,
0000
0000
0000
0000
,
0000
0000
0000
0000
,
0001
0000
0000
0000
1000
0000
0000
0000
0100
0000
0000
0010
0000
0000
0010
0000
,
0001
0000
0010
0000
0100
0000
1000
0000
0001
0000
1000
0020
0000
0000
0000
0000
,
1030
0001
0010
0100
1000
0001
0100
0010
,
0000
0010
1000
0001
0010
0100
1000
0000
,
2100
0000
0000
3001
0200
0000
0310
1000
,
0001
0000
1000
0000
0100
0000
0010
0000
0100
0000
1000
0001
2000
0000
0000
0000
,
3010
0100
0101
0000
0001
1000
1100
0000
,
1000
0001
0101
0000
0001
1000
0110
0000
,
1000
0000
0001
0000
1000
0000
0001
0000
1000
0000
0010
0100
0001
0000
0010
0000
,
0100
0000
0010
0000
0100
0000
0010
0000
0100
0000
1000
0001
0100
0000
0000
0000
,
0010
1000
0001
1000
0100
0010
0100
2000
,
0000
3001
0100
0010
1000
0001
0011
0000
,
0010
0000
0000
0000
0010
0000
0000
0000
0100
0000
0000
0100
0000
0000
1000
0000
,
0001
0000
0001
0000
1000
0000
1000
0000
0010
0000
0010
0100
0000
0000
0000
0000
,
0010
1000
0001
0100
0001
0010
0100
0010
,
0001
0001
1000
1000
0010
0010
0100
0000
,
0100
0001
0101
0100
0010
1000
1100
0100
,
1000
0001
0101
0100
0001
0010
0110
0100
,
1000
1001
0100
1001
,
1000
0100
1100
1000
0001
0100
0101
0001
,
1000
0001
0010
1000
0001
1000
0010
0001
,
1000
0001
0100
1000
0001
1000
0100
0001
,
2000
0000
3200
0000
0010
0310
0001
0001
,
1000
0000
1000
0000
0010
0000
0010
0000
0100
0000
0100
0001
2000
0000
0000
0000
,
3001
0000
0010
0100
0010
0000
0001
0000
1000
0000
0100
0000
0001
0000
0100
0000
,
1000
0000
0010
0100
0010
0000
1000
0000
0001
0000
0100
0000
1000
0000
0100
0000
,
0002
0023
0230
2300
,
3002
0000
0023
0000
0130
1000
0001
0010
,
0100
0000
1000
0100
1000
0000
0100
0000
0010
0000
0100
0000
1000
0000
0001
0000
,
0100
0000
0001
0100
0001
0000
0100
0000
0010
0000
0100
0000
0001
0000
0010
0000
,
0100
0000
0100
1000
0010
0001
0010
0100
,
0001
0010
0100
1000
0000
1000
0100
0010
,
0002
0000
0000
0103
0010
0000
0010
0000
,
0110
0000
1000
0100
0020
0000
0032
0000
,
2003
0000
0000
3010
0100
0002
0000
1003
,
0200
1000
0320
0100
0032
1000
0203
0000
,
0320
0000
0031
1000
0200
0000
1300
0001
,
1000
0010
0100
0001
2000
0000
3002
0000
,
0103
0000
0000
0010
1000
0000
0001
0000
0010
0000
0100
0000
1000
0000
0010
0000
,
0100
0000
0000
0000
0100
0000
0000
0000
0100
0000
0000
0000
0001
1000
0001
1000
,
0001
0000
0100
0000
0010
0000
1000
0000
0001
0000
1000
0100
0000
0000
0010
0000
,
0001
0000
1000
0000
0001
0000
0010
0000
0100
0000
1000
0020
0000
0000
0000
0000
,
1030
0010
0100
0001
1000
0100
0010
0001
,
1000
0001
0010
0100
2000
0000
3002
0000
,
0103
0000
0001
0100
0000
0001
0010
0000
,
0100
1000
0000
0001
0100
0000
0110
0000
,
0100
0001
0100
0101
0000
0001
1001
0000
,
1000
0000
0001
0000
1000
0000
0001
0000
1000
0001
1000
0000
0001
1000
0001
0000
,
1000
0010
0000
0100
0001
0000
0010
0000
0100
0000
1000
0000
0001
0000
0100
0000
,
0001
0010
0000
0100
1000
0000
0010
0000
0100
0000
0001
0000
1000
0000
0100
0000
,
1000
0000
0000
0000
0001
0100
0000
0000
0001
1000
0000
0000
0100
0010
0000
0000
,
0100
1000
0000
0000
0010
0100
0000
0000
0010
1000
0000
0000
0001
0010
0000
0000
,
0001
0000
0000
1000
0100
0000
1000
0000
0010
0000
0100
0000
0010
0000
1000
0000
,
0001
0000
0000
0001
0010
0000
0100
0000
0010
0000
0001
0000
1000
0000
0010
0000
,
0100
1001
0100
1001
,
0011
0000
1100
0000
1000
0010
0100
0000
,
0001
0010
0100
1000
0010
0100
0010
0100
,
0001
0100
0010
1000
0100
0010
0100
0010
,
0110
0011
1100
1010
,
0101
0000
1001
0000
0001
1000
0100
1000
,
0001
0100
0001
0100
0001
0000
0010
0000
0100
0000
1000
0000
0001
0000
0010
0000
,
0100
1000
0100
1000
0100
0000
0010
0000
0001
0000
1000
0000
0100
0000
0010
0000
,
0001
0000
1000
0010
0001
0010
1000
0100
,
0001
0100
1000
0010
0000
1000
0100
0010
,
0002
0000
0023
0230
,
2300
0000
0000
3001
0200
0000
0320
0000
,
1030
0002
0000
0013
0100
1000
0001
0100
,
0010
0100
0000
0010
1000
0000
0001
0000
,
2100
0000
0000
0100
0000
0000
3002
0000
,
0203
0000
0000
0301
2000
0000
3010
0100
,
0020
1000
0000
0100
0000
1000
0000
0130
,
0002
0000
0000
0013
0100
1000
0010
0000
,
0100
0000
0000
0000
0100
0000
0000
0000
0001
0000
0000
1000
0000
0000
0001
0000
,
0100
0000
0001
0000
1000
0000
0100
0000
1000
0000
0010
0100
0000
0000
0000
0000
,
0100
0001
1000
0100
1000
0001
0100
0010
,
0100
0001
0010
0100
1000
0010
0100
0001
,
1000
0100
1000
0100
1000
0000
0010
0000
0100
0000
0000
0001
0000
0000
1000
0000
,
0001
0100
0001
0100
0001
0000
1000
0000
0100
0000
0000
0010
0000
0000
0001
0000
,
1000
0100
1000
0000
0010
0100
0010
0000
0100
0001
0100
0000
0001
1000
0001
0000
,
1000
0100
0010
0000
0001
0010
0100
0000
1000
0100
0010
0001
2000
0000
0000
0000
,
3001
0000
1000
0100
1000
0000
0001
0100
0001
0000
1000
0100
1000
0000
0001
0100
,
0001
0000
0010
0000
0100
0000
1000
0000
0010
0100
0010
0100
0010
0000
1000
0000
,
0100
0000
0010
0000
0001
0000
1000
0000
0001
0000
0000
0100
0000
0000
0001
0000
,
1000
0000
0010
0000
0100
0000
0001
0000
1000
0000
0100
0010
0000
0000
0001
0000
,
1000
0100
1000
0000
0001
1000
0001
0000
1000
0100
1000
0000
0001
1000
0001
0000
,
0100
0001
0100
0000
0001
1000
0001
0000
0100
0001
0100
0000
0001
1000
0001
0000
,
1000
0100
1000
0001
0100
0001
1000
0100
,
1000
0000
0001
0000
1000
0000
0100
0000
1000
0001
1000
0001
0100
0000
0000
0000
,
0010
0000
1000
0100
1000
0000
0100
0001
0100
0000
1000
0100
1000
0000
0001
0000
,
1000
0000
0001
0100
0001
0000
0100
1000
0100
0000
0001
0100
0001
0000
0100
0000
,
1000
0100
0001
0100
1000
0100
0001
0100
,
1000
0000
0100
0001
1000
0000
0100
0000
0010
0000
0001
1000
0001
1000
0001
1000
,
0001
0100
0100
1000
0001
0100
0100
1000
,
0001
0010
0010
1000
0001
0010
0010
1000
,
0001
0010
0100
0000
0010
0100
1000
0000
0001
0010
0100
0000
0010
0100
1000
0000
,
0001
0010
0100
1000
0001
0010
0100
1000
0001
0000
0000
0000
0000
0000
0000
0000
,
0001
0000
0000
1000
0100
0000
0010
0000
0100
0000
1000
0000
0001
0000
0100
0000
,
0001
0000
0000
0001
0100
0000
0010
0000
0100
0000
0001
0000
0010
0000
0100
0000
,
1000
0100
0101
0000
0001
0100
1100
0000
,
1000
0000
0010
0100
0010
0000
1000
0000
0001
0000
0010
0100
0010
0000
0001
0000
,
1000
0010
0001
1000
0100
0010
0100
1000
,
0001
0010
1000
0001
0010
0100
0010
0001
,
0010
0000
1000
0010
0001
0000
0010
0000
0100
0000
1000
0010
0001
0000
0010
0000
,
0100
0000
0001
0010
0100
0000
0010
0001
1000
0000
0010
0000
0100
0000
0000
0000
,
0100
0001
1100
0001
1000
0001
1100
1000
,
0001
1000
0101
1000
0001
1000
0101
0001
,
1000
0000
0001
0100
0001
0000
1000
0000
0001
0000
1000
0100
1000
0000
0001
0000
,
1000
0010
1000
0000
0010
0100
0010
0000
0100
0001
0100
0000
0001
1000
0001
0000
,
0010
0100
1000
0001
0110
1000
0010
0100
,
0001
0000
0100
0000
0010
0000
1000
0000
0110
0000
1000
0000
0001
0000
0010
0100
,
2000
0000
3001
0010
0100
1000
0010
0100
,
0010
1000
0001
0020
0100
0000
0100
0000
,
0230
0000
1300
0001
1000
0010
0100
0001
,
0010
0100
1000
0001
0000
0000
0000
0000
;

//--------------- dance-single - ----------------
#NOTES:
     dance-single:
     :
     Challenge:
     18:
     0.874906,0.87754,0.027069,0,0.033836,905,901,4,0,0,0,0.874906,0.87754,0.027069,0,0.033836,905,901,4,0,0,0:
0000
0000
0000
0000
,
0000
0000
0000
0000
,
0000
0000
0000
0000
,
0000
0000
0000
0000
,
0000
0000
0000
0000
,
0000
0000
0000
0000
,
0000
0000
0000
0000
,
0000
0000
0000
0000
,
0000
0000
0000
0000
,
0000
0000
0000
0000
,
0001
0000
0000
0000
1000
0000
0000
0000
0010
0000
0000
0100
0000
0000
0100
0000
,
0001
0000
0010
0000
0100
0000
1000
0000
0001
0000
1000
0200
0000
0000
0000
0000
,
1300
0001
0010
0100
1000
0010
0100
0001
,
0000
0000
0001
0000
0010
0000
0100
0000
1000
0001
1000
0001
0100
0000
0000
0000
,
0210
0000
0000
0301
2000
0000
3001
1000
,
0100
0000
1000
0000
0001
0000
0100
0000
0010
1000
0100
1000
0002
0000
0000
0000
,
0013
0100
1100
0000
1000
0001
0101
0000
,
0100
0000
0010
0000
0110
0000
0000
0000
0100
0001
1000
0001
1000
0000
0000
0000
,
1001
0000
0001
0000
1000
0000
0100
0000
0010
0001
0010
0001
1000
0000
0010
0000
,
0110
0000
0100
0000
0001
0000
1000
0000
0100
0010
0100
0010
0001
0000
1000
0000
,
1010
0010
0100
0001
0010
1000
0010
0002
,
0000
0000
1003
0010
0100
0001
1000
0000
0100
0000
0010
0000
0011
0000
0000
0000
,
0001
0000
0010
0000
0100
0000
0000
0000
1000
0000
0000
1000
0000
0000
0001
0100
,
0001
0000
0010
0000
0100
0000
1000
0000
0001
0000
0100
0010
0100
0000
0000
0000
,
0010
0000
1000
0000
0001
0010
0100
0010
0001
0000
0010
0000
0100
0010
0001
0010
,
0100
0000
1000
0000
0001
0010
0100
1000
0001
0000
0100
0000
0010
0000
0000
0000
,
0100
0000
0010
0000
1001
0000
0100
0000
0010
0000
1000
0001
1000
0000
0100
0000
,
0010
0000
0100
0000
1001
0000
0010
0000
0100
0000
0001
1000
0001
0000
0010
0000
,
1100
0000
0000
0000
0001
0100
0001
0100
0001
0000
1000
0010
0001
0000
0010
0000
,
1000
0000
0001
0000
1000
0100
1000
0100
1000
0000
0001
0010
1000
0000
0010
0001
,
1000
0001
0110
1000
0001
1000
0110
0001
,
0010
0100
1001
0010
0100
0010
1001
0100
,
0002
0000
0023
0000
0100
0130
1000
1000
,
0001
0000
0001
0000
0010
0000
0010
0000
0100
1000
0100
1000
0002
0000
0000
0000
,
1003
0000
0010
0100
0010
0000
1000
0000
0010
0100
0010
0000
1000
0000
1000
0000
,
0001
0000
0010
0100
0010
0000
0001
0000
0010
0100
0010
0000
0001
0000
0001
0000
,
2000
0000
3002
0010
0203
1000
0302
0010
,
0203
0000
1000
0000
0301
0000
1000
0100
1000
0000
0001
0100
0001
0000
1000
0000
,
0010
0000
1000
0100
1000
0000
1000
0010
0100
0000
0010
0000
0100
0000
0001
0000
,
1000
0000
0001
0100
0001
0000
0001
0010
0100
0000
1000
0000
0001
0000
1000
0000
,
1100
0000
0001
1000
0010
0001
0010
0100
,
0001
0000
0010
0100
0010
0000
1000
0000
0010
0000
0001
0000
1000
0000
0010
0000
,
0200
0000
0000
0000
0000
0000
0301
0000
1000
0000
0000
0000
0001
0100
0001
0100
,
0001
0000
1000
0100
0020
0000
0032
0000
,
2003
0000
0000
3010
0100
0002
0000
1003
,
0100
0000
1000
0000
0010
0000
0100
0000
0001
1000
0001
1000
0001
0000
0010
0100
,
0020
0000
0031
0010
0200
0000
1300
0001
,
1000
0010
1000
0000
0001
0000
0100
0000
0020
0000
0000
0000
0230
0000
0000
0000
,
0301
0000
0000
1000
0100
0000
1000
0000
0001
0000
0010
0000
0100
0000
0010
0002
,
1000
0000
0000
0000
1000
0000
0000
0000
1003
0000
0001
0000
1000
0100
0010
0001
,
1000
0000
0100
0000
1100
0000
1000
0000
0001
0000
1000
0010
0100
0000
0010
0000
,
1000
0000
0001
0000
0011
0000
0010
0000
0100
0000
1000
0001
0020
0000
0000
0000
,
0130
1000
1001
0001
0010
0100
1100
1000
,
0001
0100
0110
0010
1000
0001
0110
0000
,
0100
0000
0001
0101
0000
1000
1100
0000
,
0001
1001
0000
0100
0110
0000
0110
0000
,
1001
0001
1000
0101
0000
0001
1100
0000
,
1000
0000
0001
0000
1000
0000
0001
0000
1000
0100
0010
0001
1000
0100
0010
0001
,
1000
0010
0000
0010
0100
0000
0001
0000
1000
0100
1000
0000
0010
0000
0100
0000
,
0001
0010
0000
0010
0100
0000
1000
0000
0001
0100
0001
0000
0010
0000
0100
0000
,
1000
0000
0000
0000
1000
0010
0000
0000
0010
0100
0000
0000
0100
0001
0000
0000
,
0001
0010
0000
0000
0010
0100
0000
0000
0100
1000
0000
0000
1000
0001
0000
0000
,
0100
0000
0000
0001
0010
0000
1000
0000
0010
0000
0001
0000
0010
0000
0100
0000
,
1000
0000
0000
1000
0010
0000
0001
0000
0010
0000
1000
0000
0100
0000
0010
0000
,
0001
0011
1001
1100
,
0110
0000
0101
0000
0001
0010
0100
0000
,
1000
0001
1000
0010
0100
0100
0100
0100
,
0010
1000
0001
1000
0010
0010
0010
0010
,
0100
0101
1100
1010
,
0011
0000
0101
0000
0001
0010
0100
1000
,
0001
0100
0001
0100
1000
0000
0100
0000
0001
0000
0001
0000
1000
0000
1000
0000
,
0001
0010
0001
0010
1000
0000
0010
0000
0001
0000
0001
0000
1000
0000
1000
0000
,
0100
0000
0100
1000
0010
0001
0010
1000
,
0001
0010
1000
0010
0000
0010
0001
1000
,
0001
0000
0001
1000
,
0100
0000
0000
0100
1000
0000
0010
0000
,
0100
0001
0000
0001
0010
0100
0010
0001
,
1000
0010
0000
0010
0100
0000
0001
0000
,
0102
0000
0000
1000
0000
0000
2003
0000
,
3020
0000
0000
1030
0002
0000
0013
0100
,
0020
0001
0000
0100
0000
1000
0000
0130
,
0020
0000
0000
0031
0010
0100
1000
0000
,
0001
0000
0000
0000
0001
0000
0000
0000
1000
0000
0000
0100
1000
0000
0010
0000
,
0100
0000
0001
0000
0010
0000
0100
0000
1000
0000
0001
0100
0000
0000
0000
0000
,
0010
1000
0001
0010
0100
1000
0100
0010
,
0001
0010
0100
1000
0001
1000
0001
1000
,
0100
0100
0100
0100
0001
0000
1000
0000
0002
0000
0000
0000
1003
0000
0001
0000
,
0100
0100
0100
0100
1000
0000
0001
0000
2000
0000
0000
0000
3001
0000
1000
0000
,
0001
0100
0001
0100
0001
0100
0001
0100
0001
0010
0100
1000
0001
0010
0100
1000
,
0001
1000
0100
0010
0001
1000
0100
0010
0001
0000
1000
0010
0200
0000
0000
0000
,
0301
0010
0100
0010
0001
0010
0100
0010
0001
0100
0010
0100
0001
0100
0010
0100
,
0001
1000
0010
0100
0010
1000
0001
0010
0100
1000
0001
0010
0100
1000
0001
0010
,
0100
0000
1000
0000
0001
0000
0100
0000
0101
0000
0000
1010
0000
0000
0101
0000
,
0001
0000
0010
0000
0100
0000
1000
0000
0100
0000
1000
0001
0100
0000
0010
0000
,
1000
0100
0100
0001
1000
0100
0100
0001
1000
0100
0100
0001
1000
0001
0010
0100
,
1000
0001
0100
0100
1000
0001
0100
0100
1000
0001
0100
0100
1000
0001
0100
0010
,
1000
0001
0010
0000
0100
1000
0001
0000
0100
0001
0100
0000
0001
1000
0100
0000
,
0010
0000
0001
0000
1000
0000
0100
0000
0010
0001
0010
0001
1000
0010
1000
0010
,
0100
0001
0010
0001
1000
0000
1000
0010
0100
0000
0100
0001
0100
0001
1000
0100
,
0010
0000
0001
0010
0100
0000
0100
1000
0100
1000
0001
0100
0010
1000
0010
0100
,
0001
0000
0001
0010
0100
0000
0100
1000
0001
0000
0001
0100
0010
0000
0010
1000
,
0001
0000
0001
0010
0100
0000
0100
1000
0001
0000
0001
0010
0100
1000
0010
0100
,
0001
0010
1000
0010
0001
0010
1000
0010
,
0001
0100
1000
0100
0001
0100
1000
0100
,
0001
0010
0100
0010
0001
0010
0100
1000
0100
0010
0100
1000
0100
0010
0100
1000
,
0001
0010
1000
0010
0001
0010
1000
0010
0002
0000
0000
0000
0000
0000
0000
0000
,
1003
0000
0000
1000
0100
0000
1000
0001
1000
0000
0001
0010
0100
0000
1000
0000
,
0001
0000
0000
0001
0100
0000
0001
1000
0001
0000
1000
0010
0100
0000
0001
0000
,
0010
0000
0100
1000
0010
0000
0100
0001
1000
0000
0100
0010
1000
0000
0010
0001
,
1000
0000
0010
0100
0001
0000
0010
0100
0001
0000
0100
1000
0001
0000
0100
0000
,
0001
0000
1000
0000
0010
0000
0100
0001
1000
0000
0010
0000
0100
0000
0010
1000
,
0001
0000
0010
0000
0100
0000
0010
0001
1000
0000
0001
0000
0010
0000
0100
1000
,
0010
0000
0100
0010
0000
0000
0010
0000
0100
0000
0001
1000
0001
0000
0010
0000
,
0100
0000
1000
0100
1000
0000
0001
0100
0001
0000
1000
0100
0010
0001
1000
0001
,
0101
0100
0001
1000
1100
0100
0010
0001
,
0011
0010
0100
1000
1010
0010
0100
0001
,
1000
0000
0000
0001
0100
0001
0100
0000
0000
0001
0000
0000
0010
0000
0000
0100
1000
0100
1000
0000
0000
0001
0000
0000
,
0001
1000
0100
1000
0100
0010
0001
0010
0100
1000
0010
1000
0010
0100
0001
0010
,
0100
0000
1000
0000
0001
1000
0010
0000
0110
0000
0100
0000
0001
0000
1000
0000
,
0001
0000
0010
0000
0100
1000
0001
0000
1001
0000
1000
0000
0001
0010
0100
1000
,
0001
0000
0001
0100
0010
1000
0010
0001
,
0010
1000
0010
0200
0001
0000
0001
0000
,
0310
0000
0010
1000
0001
0010
1000
0001
,
0100
1000
0001
1000
0000
0000
0000
0000
;
