#TITLE:Unison;
#SUBTITLE:;
#ARTIST:宝鐘マリン;
#TITLETRANSLIT:;
#SUBTITLETRANSLIT:;
#ARTISTTRANSLIT:;
#GENRE:;
#CREDIT:;
#MUSIC:Unison.ogg;
#BANNER:Unison.png;
#BACKGROUND:Unison-bg.png;
#CDTITLE:;
#SAMPLESTART:84.772;
#SAMPLELENGTH:11.813;
#SELECTABLE:YES;
#OFFSET:1.478;
#BPMS:0.000=160.000;
#STOPS:;
#LASTBEATHINT:1.186173;
#BGCHANGES:5.000=Unison.avi=1.000=0=0=0=StretchNoLoop====,
99999.000=-nosongbg-=1.000=0=0=0=StretchNoLoop====
;
#FGCHANGES:;

//--------------- dance-single - ----------------
#NOTES:
     dance-single:
     :
     Medium:
     11:
     0,0,0,0,0:
0000
0000
0000
0000
,
0000
0000
0000
0000
,
0000
0000
0000
0000
,
0000
0000
0000
0000
,
0000
0000
0000
0000
,
0000
0000
0000
0000
,
0000
0000
0000
0000
,
0000
0000
0000
0000
,
0000
0000
0000
0000
,
0000
0000
0000
0000
,
0001
0000
0000
1000
0000
0010
0100
0000
,
0000
0001
0000
0001
0010
0000
0010
0100
,
0000
1000
0000
0101
0000
0000
0001
0000
,
0000
0010
0000
0010
0100
0000
0100
1000
,
0000
1000
0010
0000
0100
0000
0101
0000
,
0000
1000
0000
1000
0001
0000
0000
0001
,
0000
0010
0100
0000
1000
0000
1010
0000
,
0000
0010
0000
0100
0001
0000
0001
1000
,
0000
1000
0100
0000
0110
0000
0010
0001
,
1000
0000
1000
0010
0100
0000
0010
0000
,
1010
0000
0101
0000
0001
0010
0100
0000
,
1100
0000
0011
0000
0001
1000
0001
0000
,
0100
1001
0010
0100
,
1001
0000
1000
0000
0100
0000
0010
0001
,
1000
0000
1000
0010
0100
0000
0001
0000
,
1100
0000
0000
0000
1000
0000
0001
0100
,
0001
0000
1000
0100
0010
0100
1000
0001
,
0100
0000
0100
0001
1000
0001
0010
1000
,
0001
0000
0001
0100
1000
0010
0100
1000
,
0100
0000
0100
0001
1000
0100
0010
0001
,
1000
0000
0001
0100
1000
0000
0001
0010
,
1000
0000
0001
0010
1000
0001
0100
1000
,
0001
0000
1000
0010
0100
0001
1000
0010
,
0200
0302
0023
0230
,
0000
0000
1300
0000
0001
0100
0001
0000
,
0011
0000
0010
0100
1000
0000
1001
0000
,
1001
0000
0010
0000
0100
0010
0100
0000
,
0001
0000
0010
0000
0100
0000
1000
0100
,
1000
0011
1100
1000
,
0001
0100
0001
0000
1000
0010
1000
0000
,
0110
0000
1001
0000
0001
0000
1000
0010
,
0100
0002
2003
3010
,
0110
0000
0200
0000
0302
0000
0100
0100
,
0103
0000
0001
0000
0020
0000
0001
0001
,
0031
0000
0010
0000
0200
0000
0010
0010
,
0310
0000
0100
0000
2000
0000
0001
0001
,
3001
0000
1000
0000
0020
0000
0130
0001
,
0101
0000
0001
0000
0020
0000
0130
1000
,
1100
0000
0001
1000
0002
0000
0013
0100
,
0110
0000
1000
0001
2000
0000
3010
0100
,
0110
0000
0000
0100
0001
0000
0000
0001
,
1000
0000
0000
1000
0100
0000
0000
0001
,
0100
0000
0000
1000
0010
0000
0000
0000
,
0100
0001
0010
0100
,
1000
0001
0000
1000
,
0010
0100
0001
1000
,
0001
0000
0010
0000
,
0100
0000
0100
0000
0100
0010
0100
0010
,
0100
0000
0100
1000
0001
0000
0001
0100
,
0010
0000
0010
1000
0001
0000
0001
0020
,
0100
0001
0100
1000
,
0100
0000
0001
0000
0230
2300
3020
0230
,
0302
0000
1003
0100
0010
0000
0010
0001
,
1000
0000
1000
0010
0100
0000
0100
0002
,
1000
0100
0010
0100
,
1000
0000
0010
0000
0203
0320
2030
3200
,
0320
0000
0031
0010
0100
0000
0100
1000
,
0001
0000
0001
0100
1000
0000
1000
0200
,
0010
1000
0010
0001
,
0010
0000
1300
0200
0302
0023
0230
2300
,
3001
0000
0001
0100
0010
0000
0010
0100
,
0001
0000
1000
0100
0010
0000
0010
0100
,
1000
0000
0001
0010
0100
0000
0010
0100
,
1000
0000
0001
0100
0001
0100
0001
1000
,
0010
0000
0110
0000
0100
0001
0100
0010
,
0000
1000
0100
1000
0000
0001
0100
0000
,
0010
0000
0010
1000
0100
0001
0100
1000
,
0000
0001
0100
0010
0000
1000
0001
0000
,
1001
0000
0001
0010
0100
1000
0001
1000
,
0000
1000
0010
0100
0000
0100
0001
0000
,
0101
0000
0100
0001
0010
0100
1000
0001
,
0000
0001
0100
0010
0000
0010
0100
0000
,
0001
0010
0001
0010
1000
0010
0001
1000
,
0010
0100
0010
1000
0001
0100
1000
0000
,
1000
0100
1000
0100
0001
0100
0010
1000
,
0100
0010
0001
0010
1000
0010
0001
0000
,
0001
0010
0100
1000
0100
1000
0001
0100
,
1000
0100
0001
0010
0100
1000
0001
0000
,
0001
0100
1000
0001
0010
1000
0001
0010
,
0000
0010
0100
0010
0000
0100
1000
0000
,
0001
0100
0001
0100
,
0002
0023
0230
2300
,
3010
0000
0100
0000
0010
0100
0010
0100
,
0000
0100
0001
1000
0000
0100
1000
0000
,
0010
0000
0100
0001
1000
0000
0001
0000
,
0010
0000
0000
0000
0000
0010
0000
0000
0000
0000
0000
0000
0000
0000
0000
0000
,
0100
0000
0000
0000
0000
0100
0000
0000
0000
0000
0000
0000
0000
0000
0000
0000
,
1000
0000
0000
0000
0000
1000
0000
0000
0000
0000
0000
0000
0000
0000
0000
0000
,
0001
0000
0000
0000
;

//--------------- dance-single - ----------------
#NOTES:
     dance-single:
     :
     Hard:
     16:
     0,0,0,0,0:
0000
0000
0000
0000
,
0000
0000
0000
0000
,
0001
0100
0001
0100
,
0001
0010
0001
0010
,
0100
1000
0100
1000
,
0010
1000
0010
1000
,
0001
0100
0010
1000
,
0001
0010
0100
1000
,
0001
1000
0001
1000
,
0010
0100
0010
0100
,
0102
0000
1000
2003
0000
0010
3020
0000
,
0100
0230
0000
0301
2000
0000
3001
0020
,
0000
0230
0000
1300
0000
0000
2100
0000
,
0010
3020
0000
0130
0200
0000
0001
0302
,
0000
0013
0100
1000
0001
0000
0012
0000
,
0010
0023
0000
0100
0230
0000
1000
2300
,
0000
3010
0200
0000
0301
0000
1002
0000
,
0010
0023
0000
0100
0230
0000
1300
0002
,
0000
0000
0000
0000
0000
0000
0103
0000
0000
0010
0000
0000
0100
0000
0000
0000
0000
0000
0000
0000
0010
0000
0000
0000
1000
0000
0000
0000
0000
0000
0000
0000
0001
0000
0000
0000
0010
0000
0000
0000
0000
0000
0100
0000
0000
0000
0000
0000
,
0010
0000
0000
0011
0000
0001
1000
0000
0010
0100
0000
0001
,
0010
0000
0000
0000
0100
0000
1000
0000
0000
0001
0000
0000
0100
0000
0000
0010
0000
0000
1000
0000
0000
0000
0001
0000
,
0010
0000
0000
1001
0000
1000
0100
0000
0100
0010
0000
0000
,
0011
0000
1100
0000
1000
0010
0110
1000
,
1001
0000
0000
0011
0000
0010
0100
0000
0000
1100
0000
1000
,
0010
0000
0000
0100
0000
0001
1000
0000
1000
0001
0000
0001
,
0010
0000
0000
0100
0000
1000
0000
0001
0100
0010
0000
0100
0001
1000
0000
0100
,
0010
0000
0000
0000
0011
0000
0000
0001
0010
0000
0010
0100
1000
0000
0001
0000
,
0101
0000
0000
0000
1010
0000
1000
0010
0100
0000
0100
0001
0010
0000
0100
0000
,
1100
0000
0000
0000
1001
0000
1000
0010
0100
0000
0100
0001
1000
0000
0100
0000
,
0011
0000
0000
0000
0001
0010
0100
0000
1100
0000
1000
0010
0100
0000
0001
0000
,
0101
0000
0000
0000
0100
0001
0100
0001
1000
0000
0000
0000
1000
0100
0010
0000
,
0110
0000
0000
0000
0001
0010
0100
1000
0001
0000
1000
0010
0100
0000
0001
0000
,
0011
0000
0000
0000
0010
0100
0010
0100
0010
0000
0100
1000
0001
0000
0100
0000
,
0010
1000
0100
0010
0001
0010
1000
0000
0001
0100
0010
0002
0000
2000
0000
0000
,
3003
0000
0000
0000
0000
0000
0000
0000
0000
0001
0000
0000
2000
0000
0000
0000
0000
0000
0000
0000
0000
0000
0000
0000
3010
0000
0000
0000
0000
0000
0000
0000
0100
0000
0000
0000
0001
0000
0000
0000
0000
0000
0000
0000
0000
0011
0000
0000
,
0000
0000
0000
0000
0000
0000
0000
0000
0000
1100
0000
0000
0000
0000
0000
0000
0000
0000
0000
0000
1000
0000
0000
0000
0010
0000
0000
0000
0000
0000
0000
0000
0010
0000
0000
0000
0100
0000
0000
0000
0000
0000
0000
0000
0001
0000
0000
0000
,
1000
0000
0000
0000
0000
0000
0000
0000
1000
0000
0000
0000
0001
0000
0000
0000
0000
0000
0010
0000
0000
0100
0000
0000
0010
0000
0000
0000
0000
0000
0001
0000
0000
0000
0000
0000
1000
0000
0000
0000
0000
0000
0000
0000
0010
0000
0000
0000
,
0100
0000
0000
0000
0001
0000
0010
0000
0000
0000
0000
0000
0100
0000
0000
0000
1000
0000
0010
0000
0000
0100
0000
0000
,
0001
0000
0001
0100
0000
1000
0100
0000
0000
1001
0000
0001
,
0100
0000
0010
1000
0000
1000
0100
0000
0010
0001
0000
0000
,
0001
0000
1000
0100
0000
0000
1000
0000
0001
0100
0000
0010
,
0100
0000
0001
0000
0010
0000
0100
1000
0001
0000
0100
0000
0110
0000
0110
0000
,
0110
0000
0000
0000
0100
0001
1000
0000
0001
0010
0000
0010
0100
0000
1100
0000
,
1100
0000
0000
0000
1000
0001
0100
0000
0010
0100
0000
0100
0001
0000
0011
0000
,
0011
0000
0000
0000
0010
0100
1000
0000
0001
0100
0000
0100
0010
0000
1010
0000
,
1010
0000
0000
0000
0010
0100
0001
0000
1000
0100
0000
0100
0010
0000
0011
0000
,
1001
0000
0000
0000
0001
0010
0100
0000
1000
0010
0000
0010
0100
0000
0101
0000
,
1001
0000
0000
0000
0001
0010
0100
0000
1000
0001
0000
0000
0101
0000
1001
0000
,
1010
0000
0000
0000
1000
0010
0100
0000
0001
1000
0000
0000
1100
0000
1001
0000
,
0011
0000
0000
0000
0101
0000
0100
0001
0010
0000
0100
0000
1000
0010
0100
0000
,
0210
0000
0000
0310
2000
0000
0000
3001
,
0020
0000
0000
0130
2000
0000
0000
3001
,
0200
0000
0000
0301
0020
0000
0000
0000
,
0230
2300
3002
0203
,
2300
3200
0001
0302
,
0023
0230
2300
3020
,
0032
0000
0023
0000
,
2030
0000
0000
0000
0100
0000
0000
0000
3100
0000
0100
0000
0100
0010
0100
0010
,
0100
0000
1000
0001
0100
0000
0010
1000
0010
0000
0100
0001
1000
0000
0100
1000
,
0100
0000
0010
0001
1000
0000
0001
0100
0001
0000
0100
0001
1000
0000
0100
0010
,
0100
0000
1000
0010
1000
0000
0010
0100
0010
0000
0100
0001
0100
0000
0001
0010
,
0100
0000
0010
0100
1000
0000
0001
0100
0020
0000
2030
0000
3200
0000
0320
0000
,
0032
0000
0103
0010
1000
0000
0001
0010
0001
0000
0010
0100
1000
0000
0001
0100
,
0001
0000
1000
0001
0010
0000
0100
1000
0100
0000
0010
0001
0100
0000
0010
1000
,
0010
0000
0100
0010
0100
0000
0001
0100
0001
0000
1000
0001
1000
0000
0001
0010
,
0100
0000
0010
0100
1000
0000
0001
0010
0100
1000
0001
0100
0010
1000
0100
0010
,
0001
0000
0001
0010
0100
0000
1000
0001
1000
0000
1000
0010
0100
0000
0001
1000
,
0001
0000
0001
0010
0100
0000
1000
0001
1000
0000
1000
0010
0100
0000
0010
0100
,
0010
0000
0010
1000
0001
0000
0010
0100
0010
0000
0010
0001
1000
0000
0010
0100
,
0010
0000
0010
1000
0001
0000
0020
0000
0230
0000
2300
0000
3002
0000
0023
0000
,
0230
0000
1300
0010
0001
0000
1000
0100
0010
0000
0100
0001
1000
0000
0100
0000
,
0010
0000
0001
0010
1000
0000
0001
0100
0010
0000
0100
1000
0001
0000
0100
0000
,
0010
0000
0100
0010
1000
0000
0001
0010
0100
0000
0001
0100
0010
0000
0100
1000
,
0001
0000
1000
0000
0010
0000
0100
0000
0010
1000
0100
0010
0001
1000
0100
0010
,
0001
0000
0000
0001
0100
0000
0010
1000
0000
0001
0010
0100
1000
0000
0010
0000
,
0000
0010
0100
0000
0001
0000
0010
0000
0100
1000
0001
0000
0100
0010
0100
0001
,
1000
0000
0000
1000
0010
0000
0100
0001
2000
0000
0001
0000
0100
0000
0001
0000
,
3100
0000
0010
0000
0001
0010
0100
1000
0000
1000
0010
0000
0100
0000
0010
1000
,
0001
0000
0000
0001
1000
0000
0010
0100
0000
0000
0010
1000
0001
0000
0020
0000
,
0100
0000
0130
1000
0001
0000
0100
0000
0010
1000
0100
0000
0010
0000
0100
1000
,
0010
0000
0000
0010
0100
0000
0001
0010
0000
0000
0100
1000
0001
0000
0200
0000
,
0010
0000
0310
1000
0001
0000
0010
0000
0100
1000
0001
0000
0100
0000
0010
1000
,
0001
0000
0000
0001
0010
0000
0010
0100
0000
0000
1000
0010
0001
0000
0020
0000
,
0100
0000
0130
0001
0010
0100
1000
0000
0001
0000
0100
0010
0100
0000
0010
1000
,
0001
0000
0000
0001
0010
0100
0000
0010
0000
0100
1000
0000
0001
0000
1000
0100
,
0000
0100
0001
0000
0001
0100
0010
0000
0001
0000
1000
0000
0010
0100
0010
0100
,
0001
0000
0000
0001
1000
0000
1000
0010
0000
0000
0100
0001
0010
0000
0200
0000
,
0010
0000
0310
0001
1000
0000
0010
0000
0100
0001
0010
1000
0001
0000
0100
1000
,
0001
0000
0000
0001
0100
0000
0100
0010
0000
1000
0001
0000
0010
0000
0200
0000
,
0000
0000
1300
0001
1000
0000
0100
0000
0100
0000
0100
0000
0100
0000
0100
0000
,
1000
0001
1000
0100
1000
0001
1000
0100
,
1000
0010
0000
0010
0100
0001
0000
0001
0010
0100
0000
0100
0010
0001
0000
0001
,
1000
0010
0000
0000
1000
0000
0001
0000
1000
0000
0010
0000
1000
0000
0001
0000
,
1000
0100
1000
0001
0000
0001
0010
0100
,
1000
0000
0000
0000
1000
0000
0001
0000
0100
0000
0000
0100
0010
0000
0000
0000
,
1000
0000
0000
0000
0000
0001
0000
0000
0001
0000
0000
0000
0000
0000
0000
0000
,
0010
0000
0000
0000
0000
0100
0000
0000
0100
0000
0000
0000
0000
0000
0000
0000
,
1000
0000
0000
0000
0000
0010
0000
0000
0010
0000
0000
0000
0000
0000
0000
0000
,
0200
0000
0000
0000
,
0000
0000
0000
0000
,
0300
0000
0000
0000
;

//--------------- dance-single - ----------------
#NOTES:
     dance-single:
     :
     Challenge:
     18:
     1.055517,1.187024,0.329729,0,1.174238,1098,1049,49,0,0,0,1.055517,1.187024,0.329729,0,1.174238,1098,1049,49,0,0,0:
0000
0000
0000
0000
,
0000
0000
0000
0000
,
0100
0100
0100
0100
,
0100
0100
0100
0100
,
0100
0010
0100
0000
0100
0000
0100
0000
,
0100
0100
0100
0100
,
0210
0000
0000
0000
0000
0000
0000
0001
0000
0000
0000
0000
0000
0010
0000
0000
,
0000
0000
0000
1000
0000
0000
0000
0000
0000
0000
0010
0000
0000
0000
0000
0000
,
0001
0000
0000
0000
0000
0000
1000
0000
0000
0000
0000
0000
0000
0010
0000
0000
,
0000
0000
0000
0001
0000
0000
0000
0000
0000
0001
0000
0000
0000
0000
0000
0000
,
0310
0000
0100
0000
0010
0000
1000
0000
0001
0010
0100
0000
0010
0000
0001
0000
,
1000
0000
0010
0000
0001
0000
0010
0000
1000
0100
0010
0000
0100
0000
0010
0100
,
1000
0000
0001
0000
0100
0000
0010
0000
0100
0001
1000
0000
0100
0000
0001
0000
,
0100
0000
1000
0000
0001
0000
0100
0000
0010
1000
0001
0000
0010
0000
0100
1000
,
0001
0000
0100
0000
1000
0000
0100
0000
0001
1000
0010
0000
0100
0000
0001
0000
,
0010
0000
0100
1000
0001
0000
0100
0000
0001
0100
0001
0000
1000
0100
1000
0000
,
0001
0100
0001
1000
0100
0000
0010
0001
0100
0001
0010
0001
1000
0000
0010
0100
,
0010
0000
1000
0000
0001
0000
0100
0000
0010
1000
0100
0010
0001
0000
0010
0000
,
0100
0000
0010
0000
0001
0000
1000
0000
0001
0010
0100
0000
0010
0100
0010
0000
,
0100
1000
0001
0000
1000
0010
0100
0010
1000
0001
0010
0000
0100
1000
0001
0000
,
0100
0000
1000
0000
0100
0000
0001
1000
0100
1000
0001
0000
1000
0010
0100
0000
,
0010
0000
0001
0000
0010
0000
1000
0001
0010
0001
1000
0000
0001
0010
0100
0000
,
0001
0000
0100
0000
1000
0000
0001
0100
0001
0100
0010
0000
0100
0001
1000
0001
,
0100
0001
1000
0100
0010
0000
0100
1000
0001
0010
0100
0000
0010
0001
1000
0000
,
0010
0000
0001
0000
0010
0000
1000
0100
1000
0100
0010
0000
0100
1000
0001
0000
,
1001
0000
0000
0001
0000
0100
0000
0001
0010
0100
1000
0001
0010
0100
1000
0000
,
0001
0100
0010
1000
0100
0010
0001
1000
0010
0100
0010
0100
0001
0010
0100
1000
,
0001
0000
0100
0000
0010
0000
1000
0001
0010
0100
1000
0000
0001
0100
0010
1000
,
0001
0000
1000
0000
0010
0000
0100
0001
0010
0001
0100
0000
0010
1000
0100
0000
,
0010
0000
0001
0000
1000
0000
0001
0100
0001
0100
0010
0000
1000
0100
1000
0100
,
0010
0000
0001
0000
1000
0000
0001
0010
0100
0010
0001
0000
1000
0010
0100
0010
,
1000
0000
0001
0000
1000
0000
0010
0100
0001
0010
1000
0000
0001
0100
0010
0100
,
1000
0001
0100
0000
0010
0000
0100
0001
0010
0100
0010
0000
0100
1000
0010
0100
,
0010
1000
0001
0000
0010
0000
0100
1000
0100
0010
0001
0000
1000
0001
0100
0000
,
0001
0010
0100
1000
0001
0010
0100
1000
0001
0000
1000
0010
0100
0010
1000
0010
,
0100
0001
0010
0100
0010
0001
0010
0100
1000
0000
0001
0100
0010
0000
0100
0001
,
0010
0100
0000
0000
1000
0100
0010
0100
1000
0000
0001
0100
0010
0100
0001
0000
,
1000
0010
0100
0001
0000
1000
0100
0010
0001
1000
0010
0100
0010
0000
0100
0001
,
1000
0100
0010
0001
1000
0010
0100
0000
0001
0010
0100
0000
1000
0010
0100
0001
,
1000
0100
1000
0100
0010
0000
0001
1000
0100
1000
0010
0100
0001
0010
0001
0100
,
0010
1000
0001
0000
0010
0100
0010
0001
0010
0100
1000
0001
1000
0000
0010
0100
,
0010
0000
0100
0001
0010
0100
1000
0001
0010
0100
1000
0001
0101
0000
0101
0000
,
0101
0000
1000
0010
0100
0001
1000
0010
0100
0000
0001
1000
1100
0000
1100
0000
,
1100
0000
0001
0010
0100
0010
0001
1000
0100
0010
0100
1000
1100
0000
1001
0000
,
1100
0000
1000
0010
0100
0010
1000
0001
0010
0100
1000
0001
0101
0000
1001
0000
,
0101
0000
1000
0010
0100
0010
1000
0001
0010
0100
1000
0001
0101
0000
0101
0000
,
1001
0000
1000
0010
0100
0000
0110
0000
0010
1000
0001
0010
0011
0000
0110
0000
,
1100
0000
1000
0100
0010
0000
0011
0000
0001
1000
0000
0000
1100
0000
0011
0000
,
1100
0000
1000
0001
0100
0010
1000
0000
0010
0200
0000
0000
0010
0000
0010
0000
,
0310
0000
0000
0000
1000
0010
0100
0000
0001
0010
0000
0200
1000
0000
1000
0000
,
1300
0000
0000
0000
0001
0100
0010
0000
0010
0100
0000
0100
0001
0000
1000
0000
,
1100
0000
0000
0000
1000
0100
0010
0000
0010
0100
0000
0100
1000
0000
0001
0000
,
0101
0000
0000
0000
0001
0100
1000
0000
1000
0100
0000
0100
0001
0000
0010
0000
,
0110
0000
0000
0000
1000
0100
0001
0000
0001
0100
0000
0100
1000
0000
0010
0000
,
0110
0000
0000
0000
0001
0010
0001
0010
0100
1000
0001
1000
0100
1000
0100
0010
,
0001
0100
0001
0100
0010
1000
0001
1000
0010
1000
0010
0100
0001
1000
0001
0010
,
0100
1000
0100
1000
0010
0100
0010
0100
0001
0010
0001
0010
0100
1000
0100
1000
,
0001
0010
0100
1000
2001
0000
0000
0000
0001
0000
0001
0000
3001
0010
0100
1000
,
0001
0010
0100
0010
0001
0010
0100
0010
0001
0100
0010
0100
0001
0100
0010
0100
,
0001
0100
1000
0100
0001
0100
1000
0100
0001
0010
1000
0010
0001
0010
1000
0010
,
0001
0100
0010
0100
1000
0100
0010
0100
0001
0010
0100
0010
1000
0010
0100
0010
,
0001
0100
0010
0100
1000
0100
0010
0100
0001
0010
0100
1000
0001
0010
0100
1000
,
1000
0010
0100
0010
1000
0010
0100
0010
1000
0100
0010
0100
1000
0100
0010
0100
,
1000
0100
0001
0100
1000
0100
0001
0100
1000
0010
0001
0010
1000
0010
0001
0010
,
1000
0100
0010
0100
0001
0100
0010
0100
1000
0010
0100
0010
0001
0010
0100
0010
,
1000
0100
0010
0100
0001
0100
0010
0100
2000
0000
3020
0000
0230
0000
0301
0010
,
0001
1000
0001
0100
0110
0000
1000
0010
1000
0001
1000
0100
0110
0000
0010
0001
,
0010
0100
0010
0001
0011
0000
0010
0100
1000
0010
0100
0010
0110
0000
0100
0001
,
0010
0100
1000
0001
0101
0000
0100
0010
1000
0100
0010
0100
1100
0000
1000
0010
,
0100
0001
0010
0100
0110
0000
1001
0000
0110
0000
0001
0100
0010
0000
0010
1000
,
0100
0001
1000
0010
0001
0100
0010
1000
0001
0100
1000
0001
0010
1000
0100
0010
,
0001
1000
0100
0001
1000
0010
0001
0100
0010
1000
0001
0100
1000
0001
0010
1000
,
0001
0010
1000
0010
0100
1000
0010
1000
0001
0100
1000
0100
0001
0010
0100
0010
,
1000
0010
0001
1000
0001
0100
1000
0001
0010
1000
0100
0001
0100
1000
0010
0001
,
1000
0000
1000
0100
0010
0000
0100
0001
0010
0100
2000
0000
0001
0000
3200
0000
,
0010
0000
2300
0000
3020
0000
0130
0001
0010
0100
2000
0000
0010
0000
0001
0000
,
3200
0000
0010
0000
2300
0000
3001
0100
0010
0100
2000
0000
3200
0000
0302
0000
,
0010
0000
0203
0000
0010
0000
0310
1000
0002
0000
0010
0000
1003
0000
0100
0000
,
2001
0000
0010
0000
3200
0000
1300
0010
0001
0010
2000
0000
3002
0000
0023
0000
,
0100
0000
0032
0000
2003
0000
3010
0100
0001
0010
2000
0000
0001
0000
3010
0000
,
0210
0000
2300
0000
3002
0000
0103
0010
1000
0010
0002
0000
0023
0000
0230
0000
,
0001
0000
0302
0000
0023
0000
0130
1000
0001
0100
0010
0000
0110
0000
0100
0001
,
1000
0000
0100
0000
0110
0000
0010
0001
1000
0010
0100
0000
0102
0000
0013
0000
,
0210
0000
2300
0000
3020
0000
0130
0001
0010
0100
1000
0000
2100
0000
3010
0000
,
0120
0000
1000
0000
0230
0000
0301
1000
0001
0010
2000
0000
3020
0000
0130
0000
,
0210
0000
1300
0001
0010
0001
0100
0010
0001
1000
0100
0010
1000
0100
0010
0000
,
1002
0000
1000
0000
0203
0000
0310
1000
0100
0010
0001
0000
1001
0000
2000
0000
,
0010
0000
3020
0000
0100
0000
0130
0001
0010
0000
0100
0000
1100
0000
1000
0000
,
0002
0000
0000
0000
0203
0000
0310
0200
0000
0000
0320
0000
2030
0000
3002
0000
,
1003
0000
0010
0100
0010
1000
0100
0010
0001
0100
0010
0100
0001
0010
0100
1000
,
0001
0100
1000
0100
0001
0100
1000
0100
,
0001
0010
0000
0010
0100
1000
0000
1000
0010
0001
0000
0001
0010
0100
0000
0100
,
0001
1000
0000
0000
1000
0000
0100
0000
0001
0000
0200
0000
2300
0000
3002
0000
,
0100
0000
0203
0000
0320
0000
2030
0000
0100
0000
3200
0000
0010
0000
0310
0001
,
1000
0000
0000
0000
0002
0000
0100
0000
0103
0000
0000
0100
0010
0000
1000
0000
,
0001
0000
0000
0000
0000
0002
1000
0000
1003
0000
0010
0000
0000
0000
0100
0000
,
0001
0000
0000
0000
0000
2000
0010
0000
3010
0000
0000
0000
0000
0020
0100
0000
,
0130
0000
0000
0000
0000
0200
0001
0000
0301
0000
0000
0000
0000
0000
0000
0000
,
2000
0000
0000
0000
,
0000
0000
0000
0000
,
3000
0000
0000
0000
;
