#TITLE:海の幽霊;
#SUBTITLE:;
#ARTIST:米津玄師;
#TITLETRANSLIT:Umi no Yuurei;
#SUBTITLETRANSLIT:;
#ARTISTTRANSLIT:Yonezu Kenshi;
#GENRE:ANIME;
#CREDIT:;
#MUSIC:Umi no Yuurei.ogg;
#BANNER:Umi no Yuurei.png;
#BACKGROUND:Umi no Yuurei-bg.png;
#CDTITLE:;
#SAMPLESTART:0.259;
#SAMPLELENGTH:21.292;
#SELECTABLE:YES;
#OFFSET:2.421;
#BPMS:0.000=90.000;
#STOPS:;
#LASTBEATHINT:2.196631;
#BGCHANGES:3.750=Umi no Yuurei.avi=1.000=0=0=0=StretchNoLoop====,
99999.000=-nosongbg-=1.000=0=0=0=StretchNoLoop====
;
#FGCHANGES:;

//--------------- dance-single - ----------------
#NOTES:
     dance-single:
     :
     Hard:
     12:
     0.355663,0.479994,0.15191,0.810188,0.278502,295,277,18,96,0,0,0.355663,0.479994,0.15191,0.810188,0.278502,295,277,18,96,0,0:
0000
0000
0000
0000
,
0000
0000
1000
0001
0100
0010
1000
0002
,
0200
0000
0000
0000
0303
0000
0010
0000
1000
0000
1000
0000
0001
0000
0002
0200
,
0000
0000
0303
0001
0010
0100
1000
0002
,
0000
0000
0000
2000
0000
0000
0000
3003
,
0011
0000
0001
0001
1000
0010
0100
0002
,
0020
0000
0000
0000
0033
0000
0100
0000
1000
0000
0010
0000
0002
0000
0000
0020
,
0000
0000
0033
1000
0001
0010
0001
0002
,
0000
0000
2000
0000
0000
0000
0000
0000
0000
0000
0003
0000
3001
0002
0000
0000
,
0103
0200
0000
0000
0310
0020
0000
0000
1030
2000
0000
0000
3001
0002
0000
0000
,
2003
0000
0000
0000
3001
0000
0001
0010
0200
0000
0001
0000
0010
0000
2300
0000
,
0000
0000
3001
0100
0020
0000
0000
0031
0010
2000
0000
0000
0001
0000
3001
0010
,
0200
0000
2000
0000
0000
0000
0000
0000
0000
0000
0000
3300
1000
2000
0000
0000
,
3010
0020
0000
0000
0130
0200
0000
0000
0301
0002
0000
0000
1000
0000
0100
0000
,
1003
2000
0000
0000
0000
0000
3001
0010
0002
0000
0203
0000
0320
0000
0001
0000
,
2030
0000
0000
0000
0000
0000
0000
0000
0000
0000
0000
0000
0001
0000
0000
0002
,
0000
0000
0000
0000
,
0000
0000
0000
0000
0000
0000
3003
0000
1010
1000
2001
0000
0000
0000
3001
0100
,
0020
0000
0001
0000
0000
0000
0031
0010
2000
0000
3200
0000
1300
0010
0002
0000
,
0010
0000
0013
1000
0100
0001
0000
0001
0200
0000
0010
0000
0310
0001
2000
0000
,
0100
0000
3100
0010
0002
0000
1000
0000
1003
0001
0200
0000
1000
0000
0310
0200
,
0000
0000
1000
0000
0002
0000
0000
0003
0301
0010
2000
0000
0010
0000
3010
0001
,
0200
0000
1000
0000
0000
0000
1300
0100
0002
0000
1000
0000
1003
0100
0002
0000
,
0100
0000
0103
1000
0010
0200
0000
0000
0010
0000
0000
0000
0301
0010
0200
0000
,
0001
0000
1300
0010
0002
0000
0010
0000
1003
0100
0002
0000
0010
0003
0010
0200
,
0000
0000
0010
0000
0010
0000
0000
0000
0310
0001
0021
0000
0100
0000
0031
1000
,
2010
0000
0010
0000
0000
0000
3010
0100
0120
0000
0001
0000
0031
0010
2010
0000
,
0100
0000
3100
0010
0001
2001
0000
0000
0100
0000
0000
0000
3100
0010
0012
0000
,
0100
0000
0103
0001
0021
0000
0100
0000
1030
0010
0012
0000
1000
0000
1003
0010
,
0120
0000
1000
0000
1000
0000
0000
0000
0130
0001
0021
0000
0001
0000
0031
0010
,
2000
0000
0010
0000
0010
0000
3010
0001
1002
0000
0100
0000
0103
0001
1020
0000
,
0001
0000
0031
0010
1000
0200
0000
0000
0001
0000
0000
0000
0301
0100
2100
0000
,
0010
0000
3001
0100
0120
0000
0100
0000
0130
0001
0021
0000
0100
0000
0130
2000
,
0000
3002
0023
0230
2300
0000
3002
0000
,
2003
0000
0000
0000
3020
0000
0130
0001
2000
0000
0000
0000
0000
0000
3200
0000
,
0320
0000
0000
0000
0031
0000
0001
0100
0002
0000
0000
0000
1003
0000
2000
0000
,
0000
0000
0000
3001
0002
0000
0103
0200
,
0000
0000
0000
0302
,
2003
0000
0000
0000
3200
0000
0310
0001
0200
0000
0000
0000
0000
0000
0310
0000
,
0020
0000
0000
0000
0230
0300
0100
0001
0020
0000
0000
0000
0000
0000
0000
0000
,
0000
0000
0000
0000
0000
0000
0000
0000
0000
0000
0000
0000
0031
0000
0000
0002
,
0000
0000
0000
0000
0000
0000
1003
0000
2000
0000
0000
0000
3000
0000
0010
0020
,
0000
0000
0000
0000
,
0000
0000
0000
0030
;

//--------------- dance-single - ----------------
#NOTES:
     dance-single:
     :
     Challenge:
     16:
     0.637782,0.97845,0.118152,0.253184,1.164645,529,515,14,30,0,0,0.637782,0.97845,0.118152,0.253184,1.164645,529,515,14,30,0,0:
0000
0000
0000
0000
,
0000
0000
1000
0001
0110
0010
1000
0001
,
0210
0000
0000
0000
0000
0000
0310
0000
1000
0000
1000
0000
0001
0000
0001
0100
,
0210
0000
0000
0301
0110
0100
1000
0001
,
1002
0000
0000
2000
0000
0000
0000
3003
,
0011
0000
0100
0001
1010
0010
0100
0001
,
0120
0000
0000
0000
0000
0000
0130
0000
0001
0000
1000
0000
0001
0000
0000
0100
,
0120
0000
0000
1030
0101
0010
0001
0001
,
0110
0000
2000
0000
0000
0000
0000
0000
0000
0000
0000
0000
3001
0010
0000
0000
,
1001
0000
0100
0000
0000
0000
0000
0000
0010
0000
0100
0000
0000
0000
0000
0000
1000
0000
0001
0000
0000
0000
0000
0000
0001
0000
0010
0000
0100
1000
0100
1000
,
0100
0000
0000
0000
0010
0000
0001
0000
0000
0000
0000
0000
0001
0000
0010
0000
0100
0000
0000
0000
1000
0000
0000
0000
0100
0000
0010
0000
0001
0100
0001
0100
,
0001
0000
0000
0000
0001
0000
0010
0000
0100
0000
0000
0000
0000
0000
1000
0000
0100
0000
1000
0000
0000
0000
0000
0000
1000
0000
0010
0000
1000
0001
0100
0001
,
1000
0000
0000
0000
1000
0000
0100
0000
0000
0000
0000
0000
0000
0000
0000
0000
0000
0000
0000
0000
0000
0000
0000
0000
0001
0010
0100
0010
0100
1000
0000
0000
,
1000
0000
0100
0000
0000
0000
0000
0000
0010
0000
0001
0000
0000
0000
0000
0000
0001
0000
0010
0000
0000
0000
0000
0000
0001
0000
1000
0000
0010
0100
0010
0100
,
0001
0000
0000
0000
0001
0000
0010
0000
0000
0000
0000
0000
0001
0000
0010
0000
0100
0000
0000
0000
1000
0000
0000
0000
0100
0000
0010
0000
0001
1000
0001
0100
,
0010
0000
0000
0000
0010
0000
1000
0000
0000
0000
0000
0000
0000
0000
1000
0000
1100
0000
0000
0000
0000
0000
0000
0000
0100
0000
0010
0000
0001
0010
0100
1000
,
2002
0000
0000
0000
,
0000
0000
0000
0000
0000
0000
3003
0000
0010
0010
0010
0000
0000
0000
0001
0010
,
0100
0010
0100
1000
0010
1000
0001
1000
0010
0100
1000
0100
0001
0100
0001
0010
0100
1000
0100
0001
0100
1000
0001
0010
,
0100
1000
0001
1000
0010
0100
0010
0100
0001
1000
0001
0100
0010
0000
0000
1000
0000
0000
0001
1000
0010
0001
0010
0100
,
0010
1000
0001
0010
0001
1000
0100
1000
0010
0001
0010
0100
0001
1000
0100
0010
1000
0010
0001
0100
0010
1000
0001
0100
,
1000
0000
0100
0000
0001
0000
1000
0000
0001
0000
1000
0000
0010
0000
1000
0000
0001
0000
0100
0000
0001
0000
1000
0000
0010
0000
0000
0010
0000
0000
0010
0000
0000
0000
0000
0000
0100
0000
0000
0000
0000
0000
0001
0000
0000
0010
0000
0000
,
0001
1000
0010
1000
0100
0010
1000
0010
0001
0100
0010
0100
1000
0100
0001
0100
0010
1000
0001
1000
0001
0010
0100
0010
,
1000
0000
0010
0000
0100
0000
1000
0000
0010
0000
0100
0000
1000
0000
0100
0000
0001
0000
0100
0000
0010
0000
1000
0000
0100
0000
0000
0100
0000
0000
0100
0000
0000
0100
0000
0000
0100
0000
0000
0100
0000
0000
0100
0000
0000
1000
0000
0000
,
0001
0010
0100
1000
0001
1000
0100
0010
0100
1000
0001
0010
0100
1000
0001
0010
0100
1000
0001
0010
0001
0010
1000
0010
,
0001
0000
0000
0000
0100
0000
0000
0000
0001
0000
0000
0000
0100
0000
0000
0000
0010
0000
0000
0000
1000
0000
0000
0000
0010
0000
0000
0000
0100
0000
0000
0000
0001
0000
0000
0000
1000
0000
0000
0000
0010
0000
0000
0000
1000
0000
0000
0000
0001
0000
0000
0100
0000
0000
0001
0000
0000
0100
0000
0000
0001
0000
0000
0100
0000
0000
0001
0000
0000
0100
0000
0000
0001
0000
0000
0100
0000
0000
0001
0000
0000
0100
0000
0000
0001
0000
0000
0100
0000
0000
0001
0000
0000
0100
0000
0000
,
0010
1000
0010
1000
0001
0100
1000
0001
0010
0100
0001
1000
0001
0010
1000
0001
1000
0010
0001
0100
1000
0100
0001
1000
,
0100
0000
0010
0000
1000
0000
0010
0000
0100
0000
1000
0000
0010
0000
0100
0000
0010
0000
1000
0000
0100
0000
1000
0000
0100
0000
0000
0010
0000
0000
0001
0000
0000
0010
0000
0000
0100
0000
0000
1000
0000
0000
0100
0000
0000
0010
0000
0000
,
0001
0100
0001
1000
0100
0010
1000
0010
0100
0001
0100
1000
0001
0010
1000
0001
1000
0010
1000
0010
0100
0001
0100
0001
,
0100
0000
1000
0000
0001
0000
1000
0000
0001
0000
0100
0000
1000
0000
0100
0000
0001
0000
0010
0000
0001
0000
0100
0000
0010
0000
0000
1000
0000
0000
0010
0000
0000
0000
0000
0000
0010
0000
0000
0000
0000
0000
0010
0000
0000
1000
0000
0000
,
0010
1000
0001
0010
0100
1000
0001
0010
1000
0010
0001
1000
0100
0001
0100
1000
0010
0001
1000
0001
0010
0100
1000
0100
,
0001
0000
1000
0000
0100
0000
0010
0000
0001
0000
1000
0000
0001
0000
0010
0000
0100
0000
1000
0000
0001
0000
1000
0000
0100
0000
0000
0000
0000
0000
0010
0000
0000
0000
0000
0000
0100
0000
0000
0100
0000
0000
0100
0000
0000
0000
0000
0000
,
1000
0010
1000
0001
0010
0100
0001
1000
0010
0100
0001
0100
1000
0001
1000
0100
0001
1000
0001
0100
1000
0001
0010
1000
,
0010
0001
0010
0100
1000
0001
0010
1000
0010
0001
1000
0100
2000
0000
0000
0000
0000
0000
3002
0000
0000
0000
0000
0000
,
2003
0000
0000
0000
3020
0000
0130
0001
2000
0000
0000
0000
0000
0000
3200
0000
,
0320
0000
0000
0000
0031
0000
0001
0100
0002
0000
0000
0000
1003
0000
2000
0000
,
0000
0000
0000
3001
0002
0000
0103
0200
,
0000
0000
0000
0302
,
2003
0000
0000
0000
3200
0000
0310
0001
0200
0000
0000
0000
0000
0000
0310
0000
,
0020
0000
0000
0000
0230
0300
0100
0001
0020
0000
0000
0000
0000
0000
0000
0000
,
0000
0000
0000
0000
0000
0000
0000
0000
0000
0000
0000
0000
0031
0000
0000
0002
,
0000
0000
0000
0000
0000
0000
1003
0000
2000
0000
0000
0000
3000
0000
0010
0020
,
0000
0000
0000
0000
,
0000
0000
0000
0030
;
