#TITLE:うい麦畑でつかまえて;
#SUBTITLE:;
#ARTIST:しぐれうい;
#TITLETRANSLIT:Ui Mugibatake de Tsukamaete;
#SUBTITLETRANSLIT:;
#ARTISTTRANSLIT:Shigure Ui;
#GENRE:POP;
#CREDIT:;
#MUSIC:Ui Mugibatake de Tsukamaete.ogg;
#BANNER:Ui Mugibatake de Tsukamaete.png;
#BACKGROUND:Ui Mugibatake de Tsukamaete-bg.png;
#CDTITLE:;
#SAMPLESTART:52.882;
#SAMPLELENGTH:11.429;
#SELECTABLE:YES;
#OFFSET:1.404;
#BPMS:0.000=168.000;
#STOPS:;
#LASTBEATHINT:1.080744;
#BGCHANGES:6.750=Ui Mugibatake de Tsukamaete.avi=1.000=0=0=0=StretchNoLoop====,
99999.000=-nosongbg-=1.000=0=0=0=StretchNoLoop====
;
#FGCHANGES:;

//--------------- dance-single - ----------------
#NOTES:
     dance-single:
     :
     Medium:
     13:
     0.730823,0.587427,0,0,0,607,607,0,0,0,0,0.730823,0.587427,0,0,0,607,607,0,0,0,0:
0000
0000
0000
0000
,
0000
0000
0000
0000
,
0000
0000
0000
0000
,
0000
0000
0000
0000
,
0000
0000
0000
0000
,
0000
0000
0000
0000
,
0001
0000
1000
0000
0001
0000
1000
0100
0000
1000
0100
0000
1000
0000
0001
0000
,
0000
0000
1000
0000
0001
0000
0100
0000
0010
0000
0000
1000
0000
0000
0010
0000
,
1000
0000
0001
0000
1000
0000
0001
0100
0000
0001
0100
0000
0001
0000
1000
0000
,
0000
0001
0010
0100
1000
0001
1000
0001
,
0100
0000
0010
0000
0100
0000
0001
1000
0000
0001
1000
0000
0010
0000
0100
0000
,
0000
0000
0010
0000
1000
0000
0001
0000
0010
0000
0000
0100
0000
0000
1000
0000
,
0001
0010
0100
1000
0001
1000
0100
0010
,
0001
0000
0000
1001
,
0010
0000
0000
0100
0001
1000
0001
0010
,
0100
0000
0000
1000
0001
1000
0001
0000
,
0100
0000
0000
0001
1000
0000
0000
0000
,
1100
0000
0000
1000
0100
0010
0001
0010
,
0100
0000
0100
0000
1000
0000
1000
0001
,
0100
0000
0100
0001
1000
0001
0000
0010
,
0100
0000
1000
0001
1000
0000
0010
0100
,
0001
0010
0100
1000
0001
0000
1001
0000
,
0011
0000
1100
0000
1000
0100
0001
0100
,
0000
0100
1000
0010
0001
0010
1000
0001
,
0101
0000
1010
0000
1000
0010
0001
0010
,
0000
0010
1000
0100
0001
0100
1000
0001
,
0011
0000
1100
0000
1000
0010
0001
0010
,
0000
0010
1000
0000
0001
0000
0010
0000
,
0100
1000
0010
0100
0010
1000
0001
0010
,
0000
0001
1000
0001
1000
0000
0010
0000
,
1000
0100
0000
1000
0100
0000
0010
0000
0100
0000
1000
0000
0001
0000
0000
0000
,
1000
0010
0100
0001
0100
0010
1000
0000
,
0001
0100
0000
0001
0100
0000
0010
0000
1000
0000
0001
0000
0010
0000
0000
0000
,
0100
1000
0000
0000
0220
0000
0330
0000
,
1001
0000
1001
0000
0001
0100
1000
0100
,
0001
1000
0000
1000
0100
0010
0001
0000
,
0011
0000
1100
1000
0100
0010
0001
0010
,
0100
0000
0100
0000
0100
1000
0001
0000
,
1100
0000
1001
0000
0101
0000
0001
1000
,
0100
1000
0001
0100
0001
0000
1000
0000
,
0002
0103
2000
3100
,
0002
0103
2000
3100
,
1010
0000
1001
0000
0101
0000
0001
1000
,
0100
0010
0001
0100
1000
0000
1000
0100
,
0010
0100
0001
1000
0001
0000
0010
0100
,
0000
0010
0001
1000
0001
0010
0200
0000
,
0302
2003
3002
2003
,
3001
0000
0100
0000
1000
0000
0001
0000
0200
0000
0000
0001
0000
0000
0010
0000
,
2300
3002
2003
3002
,
1003
0110
0000
0110
0001
1000
0001
1000
,
0100
0000
0100
1000
0001
1000
0001
0100
,
0110
0000
0000
1001
0000
0000
0110
0000
0000
0000
1000
0000
0010
0000
0100
0000
,
0001
0010
0100
0000
0100
0000
0100
1000
,
0000
1000
0010
1000
0100
0010
0001
1000
,
1100
0000
0000
1000
0010
0100
0001
0000
,
0101
0000
0000
1100
0000
0000
1001
0000
0000
0000
0010
0000
0100
0000
0000
0000
,
0001
0000
1000
0100
1000
0000
0010
0000
0100
0000
0001
0000
1000
0000
0000
0000
,
0001
0000
0010
0100
0010
0000
0001
0000
1000
0000
0010
0000
1000
0000
0000
0000
,
1000
0000
0001
0100
0001
0000
0010
0000
0100
0000
1000
0000
0001
0000
0000
0000
,
1000
0000
0010
0100
0010
0000
1000
0000
0100
0000
0010
0000
0001
0000
0000
0000
,
1000
0000
0001
0100
0001
0000
1000
0000
0001
0000
1000
0100
1000
0000
0000
0000
,
0001
0000
1000
0100
1000
0000
0001
0000
1000
0000
0001
0100
0001
0000
0000
0000
,
0100
1000
0100
0010
1000
0100
0001
0000
,
0001
0100
1000
0010
0100
0010
0110
0000
,
1100
0000
1001
0000
0101
0000
0001
1000
,
0100
1000
0001
0100
0001
0000
1000
0000
,
0002
0103
2000
3100
,
0002
0103
2000
3100
,
1010
0000
1001
0000
0101
0000
0001
1000
,
0100
0010
0001
0100
1000
0000
1000
0100
,
0010
0100
0001
1000
0001
0000
0100
0010
,
0000
0100
0001
1000
0001
0010
0200
0000
,
1300
0000
0001
0000
0010
0000
0100
1000
0000
0100
1000
0000
0001
0000
1000
0000
,
0000
0000
1000
0000
0001
0000
0100
0000
1000
0000
0000
0100
0000
0000
0001
0000
,
0010
0000
0100
0000
1000
0000
0001
0010
0000
0001
0010
0000
0100
0000
1000
0000
,
0000
1001
0000
0001
1000
0100
0001
0100
,
1000
0000
0001
0000
0010
0000
0100
1000
0000
0001
1000
0000
0010
0000
0100
0000
,
0000
0000
0010
0000
0010
0000
1000
0000
0001
0000
0000
0010
0000
0000
0100
0000
,
1200
0000
0010
0000
1300
0010
0100
0001
,
0000
0001
0010
0100
1000
0001
1000
0010
,
0110
0000
0000
0001
1000
0001
1000
0000
,
1100
0000
0000
0101
0000
0000
0110
0000
0000
0000
1000
0000
0001
0000
0000
0000
;

//--------------- dance-single - ----------------
#NOTES:
     dance-single:
     :
     Hard:
     15:
     0,0,0,0,0:
0000
0000
0000
0000
,
0000
0000
0000
0000
,
0000
0000
0000
0000
,
0000
0000
0000
0000
,
0000
0000
0000
0000
,
0000
0000
0000
0000
,
0001
0000
1000
0000
0100
0000
1000
0010
0000
0100
0001
0000
1000
0000
0200
0000
,
0000
0000
1300
0000
0001
0000
0010
0000
0200
0000
0000
0001
0000
0000
1300
0000
,
0010
0000
0100
0000
0001
0000
0100
0010
0000
1000
0001
0000
0010
0000
0200
0000
,
0000
0310
0000
1001
0100
0010
0100
0010
,
1000
0000
0001
0000
0010
0000
0001
0100
0000
0010
1000
0000
0001
0000
0020
0000
,
0000
0000
0130
1000
0001
0000
0100
0000
0020
0000
0000
1000
0000
0000
0130
0000
,
0001
0010
0000
0010
0100
0000
0100
1000
0000
1000
0001
0000
0100
0000
1000
0000
,
0100
0000
0001
0010
0100
0000
0010
0001
1000
0000
0010
0100
0010
0000
0000
0000
,
0110
0000
0000
0100
0001
0010
0100
1000
,
0001
0000
0000
1000
0010
0100
0010
0000
,
1000
0000
0000
0001
0010
0000
0000
0000
,
1100
0000
0000
1000
0001
0100
0001
0010
,
0100
0000
0000
1000
0100
0000
0010
0000
0001
0000
1000
0100
1000
0000
0001
0000
,
0010
0000
0000
0001
0100
0000
0010
0000
1000
0000
0001
0100
0001
0000
0010
0000
,
0100
0000
1000
0010
1000
0000
0001
0100
0001
0000
1000
0100
0010
0000
0100
0000
,
1000
0001
0100
0000
0010
1000
0001
0000
1000
0100
0010
0001
1000
0000
0000
0000
,
0011
0000
0000
0000
1100
0000
0000
0000
1000
0000
0010
0100
0010
0000
0002
0000
,
0000
0000
0013
0000
1000
0000
0100
0000
0010
0000
0001
1000
0001
0000
0100
0000
,
1010
0000
0000
0000
0101
0000
0000
0000
0001
0000
0010
0100
0010
0000
2000
0000
,
0000
0000
3010
0000
0001
0000
0100
0000
1000
0000
0100
0001
1000
0000
0100
0000
,
0011
0000
0000
0000
1100
0000
0000
0000
1000
0000
0100
0010
0100
0000
0002
0000
,
0000
0000
0103
0000
1000
0000
0010
0100
0001
0000
0010
0100
1000
0000
0000
0000
,
0001
0000
0100
0000
1000
0000
0100
0001
1000
0000
0100
0000
0001
0000
0100
0000
,
0000
1000
0001
1000
0002
0000
0103
0000
,
0010
1000
0000
0001
0100
0001
0100
0000
0001
1000
0100
0000
0110
0000
0000
0000
,
0200
2300
3002
0203
2300
3002
0023
0000
,
0130
0000
0001
1000
0001
0000
1000
0100
1000
0100
0010
0001
1000
0000
0000
0000
,
0001
0000
0100
0010
0000
0000
0000
0000
0220
0000
0000
0000
0330
0000
0000
0000
,
1001
0000
1001
0000
0001
0010
0100
0010
,
0001
1000
0000
1000
0010
0100
0001
0000
,
1000
0000
0001
0100
0001
0000
1000
0100
1000
0000
0001
0010
0001
0000
1000
0010
,
0100
0000
0000
0000
0100
0000
0000
0000
0100
0001
1000
0001
1000
0000
0000
0000
,
0101
0000
0000
0000
1001
0000
0000
0000
1100
0000
0000
0000
1000
0000
0001
0010
,
0100
0000
1000
0000
0001
0000
1000
0100
0010
0000
0000
0000
0001
0000
1000
0010
,
0100
0000
0001
0000
0100
0000
0010
1000
0001
0000
1000
0000
0100
0000
1100
0000
,
0000
0000
1100
0000
1000
0000
0001
0000
0100
0000
0010
1000
0001
0000
0010
0000
,
0011
0000
1001
0000
1100
0000
1000
0100
,
0001
0000
0100
1000
0001
0000
1000
0010
0100
0000
0000
0000
0010
0000
0100
1000
,
0100
0000
0001
0000
0010
0000
0100
0001
0100
0000
1000
0000
0001
0000
0200
0000
,
0000
0310
1000
0001
1000
0000
1001
0000
,
0001
0000
0010
0100
0010
0000
0001
0100
0000
0001
1000
0000
0010
0000
0200
0000
,
0000
0000
0301
0000
1000
0000
0100
0000
0020
0000
0000
0001
0000
0000
0130
0000
,
1000
0000
0001
0010
0100
0000
1000
0100
0000
1000
0010
0000
0100
0000
0002
0000
,
0000
0013
0000
1001
0010
0100
0010
0100
,
0110
0000
0000
0000
0001
0000
1000
0100
0010
0000
0001
0000
1000
0010
0100
0002
,
1000
0000
0000
1000
0000
0000
0203
0000
0000
0000
0310
1000
0001
0000
0010
0100
,
0010
0000
0001
1000
0001
0000
0100
0000
0010
1000
0010
1000
0010
1000
0002
0000
,
0000
0000
0013
0000
0100
0000
1000
0000
0001
0000
0100
0000
0001
1000
0001
1000
,
0100
0000
0000
1000
0010
0100
0001
0000
,
0101
0000
0000
1100
0000
0000
1001
0000
0000
0000
0001
0100
0010
0000
0000
0000
,
1000
0000
0000
0001
0100
0000
0010
0000
0100
0001
0100
0001
0010
0000
0100
0000
,
1000
0000
0000
0100
1000
0000
0001
0000
1000
0100
1000
0100
0010
0000
0001
0000
,
1000
0000
0010
0100
0010
0000
1000
0000
0001
0010
0001
0010
0100
0000
1000
0000
,
0001
0000
1000
0010
0000
0000
0100
0000
0001
1000
0001
1000
0100
0000
0010
0000
,
0001
0000
1000
0100
1000
0000
0001
0000
0010
0100
0000
0100
0010
0000
0001
0000
,
1000
0000
0001
0100
0001
0000
1000
0000
0010
0100
0000
0100
0010
0000
1000
0000
,
0001
0000
1000
0000
0100
0000
0010
0000
0100
1000
0100
1000
0001
0000
0100
0000
,
1000
0000
0100
0001
0010
0000
0100
0000
1000
0000
0001
0000
0110
0000
0000
0000
,
1010
0000
0000
0000
1001
0000
0000
0000
0101
0000
0000
0000
0001
0000
0010
0100
,
0010
0000
1000
0000
0001
0000
0100
0010
0100
0000
1000
0000
0001
0000
0100
0010
,
0100
0000
1000
0000
0001
0000
0010
0100
0010
0000
1000
0000
0001
0000
0020
0000
,
0000
0130
1000
0001
0100
1000
0100
0001
,
0101
0000
0000
0000
1001
0000
0000
0000
1010
0000
0000
0000
1000
0000
0001
0100
,
0001
0000
0100
1000
0100
0000
0001
0000
0020
0000
0000
0000
0130
0000
1000
0100
,
1000
0000
0100
0001
0100
0000
1000
0000
0010
0000
0100
0000
0001
0000
2000
0000
,
0000
3010
0100
0001
0010
0000
0110
0000
,
1000
0000
0001
0100
0001
0000
0010
0100
0000
0001
0100
0000
0010
0000
0001
0000
,
0100
0000
0010
1000
0001
0000
0100
0002
1000
0000
0000
1000
0000
0000
0103
0000
,
0001
0000
1000
0100
1000
0000
0010
0100
0000
1000
0100
0000
0001
0000
0010
0000
,
0000
1001
0000
0001
0100
0010
0100
0010
,
0110
0000
0100
0001
1000
0000
0100
0010
0000
0100
1000
0000
0001
0000
1000
0000
,
0010
0000
0100
0010
0100
0000
0010
2000
0001
0000
0000
0100
0000
0000
3001
0000
,
1000
0000
0010
0100
0010
0000
0100
0001
0010
0100
1000
0001
1000
0100
0020
0000
,
0000
0130
0100
1000
0001
0001
1000
0010
,
0110
0000
0000
0001
0010
0100
1000
0000
,
1100
0000
0000
0101
0000
0000
1001
0000
0000
0000
0001
0010
0200
0000
0000
0000
,
0300
0000
0000
0000
;

//--------------- dance-single - ----------------
#NOTES:
     dance-single:
     :
     Challenge:
     17:
     0,0,0,0,0:
0000
0000
0000
0000
,
0000
0000
0000
0000
,
0000
0000
0000
0000
,
0000
0000
0000
0000
,
0000
0000
0000
0000
,
0000
0000
0000
0000
0000
0000
0000
0000
0000
0000
0001
1000
0100
0000
0000
0000
,
1000
0000
0001
0000
1000
0000
0010
0100
0010
0100
0001
0000
1000
0000
1200
0000
,
0000
0000
0310
0000
0001
0000
1000
0000
1010
0000
0000
1001
0000
0000
0101
0000
,
0001
0000
1000
0000
0001
0000
0100
0010
0100
0010
1000
0000
0001
0000
0021
0000
,
0000
0230
0000
1300
1100
0101
1100
0101
,
1000
0000
0010
0000
0100
0000
0001
1000
0001
1000
0010
0000
0100
0000
0001
0010
,
0100
0001
0100
0010
0001
0000
1000
0010
0100
1000
0100
0010
1000
0000
1001
0000
,
0001
1000
0010
1000
0100
0010
0001
0100
0001
0010
0100
1000
0010
0100
0010
1000
,
0001
0010
0100
1000
0001
0010
0100
1000
0001
0010
0100
1000
0001
0000
0000
0000
,
0110
0000
0010
1000
0001
1000
0001
0010
,
0100
1000
0100
0000
0010
0000
0001
0000
1000
0000
0001
0000
0101
0000
0000
0000
,
0100
0010
1000
0001
1000
0100
0010
0100
,
1000
0001
1000
0000
0010
0000
0100
0000
0001
0000
1000
0000
0010
0000
0100
0001
,
1000
0000
0000
1000
0100
0000
0010
0000
0001
0100
0001
0000
1000
0010
1000
0000
,
0010
0000
0000
0010
0100
0000
0001
0000
0010
0100
0010
0100
1000
0000
0001
1000
,
0001
0000
0000
0001
0100
0000
1000
0000
0100
0001
0100
0001
0010
0000
0100
1000
,
0001
0000
0000
0010
0000
0000
0100
0000
0000
1000
0000
0000
0001
0000
0000
1000
0000
0000
0100
0000
0000
0010
0000
0000
0001
0000
1000
0000
0010
0000
0100
0000
0001
0000
0010
0000
0100
0000
0000
0000
0000
0000
0000
0000
0000
0000
0000
0000
,
0110
0000
0000
0000
0000
0000
1000
0000
0000
0000
0000
0000
0110
0000
0000
0000
0000
0000
0001
0000
0100
0000
0001
0000
0100
0000
0000
0000
0000
0000
0010
0000
0000
1000
0000
0000
0001
0000
0000
0000
0000
0000
0020
0000
0000
0000
0000
0000
,
0000
0000
0000
0130
0000
0000
1000
0000
0000
0001
0000
0000
0100
0000
0000
0001
1000
0001
1000
0000
0000
0100
0000
0000
,
0110
0000
0000
0000
0000
0000
0001
0000
0000
0000
0000
0000
0110
0000
0000
0000
0000
0000
1000
0000
0010
0000
1000
0000
0010
0000
0000
0000
0000
0000
0100
0000
0000
0001
0000
0000
1000
0000
0000
0000
0000
0000
0200
0000
0000
0000
0000
0000
,
0000
0000
0310
0001
1000
0000
0010
0000
0001
0000
0010
1000
0001
0000
0010
0000
,
1001
0000
0000
0000
0000
0000
0100
0000
0000
0000
0000
0000
1001
0000
0000
0000
0000
0000
0001
0000
0100
0000
0001
0000
0100
0000
0000
0000
0000
0000
0001
0000
0000
0010
0000
0000
0100
0000
0000
0000
0000
0000
2000
0000
0000
0000
0000
0000
,
0000
0000
3010
0000
0100
0000
0001
1000
0001
0000
1000
0100
0001
0000
0100
1000
,
0010
0000
0001
0000
0010
0000
1000
0100
0010
0000
1000
0000
0010
0000
0001
0000
,
0000
0011
1001
1100
0110
0000
1001
0000
,
0001
0010
0000
0100
1000
0010
0100
0000
0010
1000
0001
0000
0101
0000
0000
0000
,
0002
0023
2030
3002
0203
2300
3002
0000
,
1003
0100
1000
0001
0100
0000
0010
1000
0001
0010
0100
1000
0010
0000
0000
0000
,
0100
0001
1000
0001
0000
0000
0000
0000
0220
0000
0000
0000
0330
0000
0000
0000
,
0011
0100
1010
0100
0001
0010
0100
0010
,
0001
0101
0000
1010
1000
0010
0101
0000
,
0001
0000
0000
0010
0000
0000
0100
0000
0000
0010
0000
0000
0001
0000
0000
0010
0000
0000
0100
0000
0000
1000
0000
0000
0001
0000
0010
0000
0100
0000
0010
0000
0001
0000
0010
0000
0100
0000
1000
0000
0100
0000
0010
0000
0100
0000
1000
0000
,
0001
0000
0100
0010
0100
0000
0010
1000
0001
1000
0001
1000
0100
0000
0000
0000
,
2100
0000
3010
0000
0102
0000
0013
0000
2100
0000
3010
0000
0100
0000
0001
0100
,
0010
0000
0100
0001
0010
0000
0001
0100
0010
0000
0100
0000
0001
0000
1000
0100
,
0010
0000
0100
1000
0010
0000
1000
0100
0010
0000
0100
0000
1000
0000
1100
0000
,
0000
0000
1100
0000
1000
0000
0001
0000
0100
0000
0001
1000
0010
0000
0100
0000
,
0102
0000
0013
0000
2100
0000
3010
0000
0102
0000
0013
0000
0100
0000
1000
0100
,
0010
0000
0100
1000
0001
0000
1000
0010
0100
0000
0000
0000
0010
0000
1000
0001
,
1000
0000
0100
0000
0010
0000
0001
1000
0001
0000
0100
0000
0001
0000
0101
0000
,
0000
1001
0010
0100
1001
0000
0110
0000
,
1001
0000
0001
0010
0100
0000
0001
0100
0000
0010
0100
0000
1000
0000
1100
0000
,
0000
0000
1000
0001
0100
0000
0001
0000
0210
0000
0000
1000
0000
0000
0301
0000
,
1001
0000
1000
0010
0100
0000
1000
0100
0000
0010
0100
0000
0001
0000
0101
0000
,
0000
1001
0000
1001
0011
1100
1010
0101
,
1001
0000
0000
0000
0001
0100
1000
0100
0010
0100
1000
0001
0010
0100
0001
0020
,
1000
0000
0000
0001
0000
0000
0130
0000
1000
0100
0010
0001
1000
0000
0001
0010
,
0100
1000
0010
1000
0100
0010
0001
0100
0001
0010
0100
1000
0010
1000
0002
0000
,
0000
0000
0000
0000
0000
0000
1003
0000
0100
0000
1000
0000
0100
0000
1000
0000
0100
0000
1000
0000
0000
0000
0000
0000
0001
0000
0000
0000
0000
0000
0010
0000
0000
0100
0000
0000
1000
0000
0000
0001
0000
0000
1000
0000
0000
0010
0000
0000
,
0100
0000
0000
0000
0000
0000
0000
0000
0000
0000
0000
0000
0110
0000
0000
0000
0000
0000
0001
0000
0000
1000
0000
0000
0001
0000
0000
1000
0000
0000
0001
0000
0000
0000
0000
0000
0100
0000
0000
0000
0000
0000
0001
0000
0010
0000
0100
0000
,
1000
0000
0000
1100
0000
0000
0101
0000
0000
0000
0001
0010
1000
0000
0000
0000
,
0110
0000
1000
0100
1000
0000
0010
0000
0100
0001
0010
1000
0001
0000
0100
0000
,
1000
0000
0001
0100
0001
0000
0010
0000
0100
1000
0010
0001
1000
0000
0100
0000
,
0001
0010
0100
1000
0001
0000
0100
0000
1000
0100
0001
1000
0100
0000
0010
0000
,
0001
0000
0010
0100
0000
0000
1001
0000
0001
0010
1000
0001
0100
0000
1000
0000
,
0001
0100
1000
0100
0010
0100
1000
0000
1000
0100
0001
0010
0100
0000
1000
0000
,
0100
0010
0001
0100
0001
0010
1000
0000
1000
0010
0001
0100
0010
0000
0100
0000
,
0110
0000
1001
0000
0001
0000
0010
0100
1000
0001
1000
0010
0100
0000
1000
0000
,
0100
0000
0001
1000
0001
0000
1000
0100
0010
0001
0010
0100
1000
0000
0001
0000
,
2010
0000
3100
0000
0012
0000
0103
0000
2010
0000
3100
0000
1000
0000
0001
0100
,
1000
0000
0100
0001
0010
0000
0001
0100
1000
0000
0100
0000
0001
0000
1000
0100
,
0001
0000
0100
1000
0010
0000
1000
0100
0001
0000
0100
0000
1000
0000
0101
0000
,
0000
0000
0101
0000
0001
0000
0010
0000
0100
0000
1000
0001
1000
0010
0100
0000
,
0102
0000
0013
0000
2100
0000
3010
0000
0102
0000
0013
0000
0001
0000
1000
0010
,
0001
0000
0010
1000
0100
0000
1000
0010
0001
0000
0010
0000
1000
0000
0001
0100
,
1000
0100
0010
0001
1000
0100
0001
0010
1000
0000
0010
0000
0001
0000
0011
0000
,
0000
1010
0100
0010
0101
0000
1001
0000
,
0011
0000
0001
1000
0010
0000
0001
0010
0000
0100
0010
0000
1000
0000
1100
0000
,
0100
0000
0010
0100
1000
0001
0100
0020
0001
0000
0000
0100
0000
0000
1030
0000
,
1010
0000
1000
0001
0100
0000
1000
0100
0000
0010
0100
0000
0001
0000
0011
0000
,
0000
1001
0000
0001
0011
1100
1010
0101
,
1001
0000
1000
0010
0001
0000
0010
0100
0000
0001
0010
0000
0100
0000
1100
0000
,
1000
0100
0001
0100
0010
0100
1000
0020
0001
0000
0000
0100
0000
0000
1030
0000
,
0010
0100
0001
0010
0100
1000
0001
1000
0010
0100
0001
1000
0001
0010
0200
0000
,
0000
0000
0000
0310
0001
0010
0001
0000
0000
0010
0000
0000
0100
0000
0000
1000
0000
0000
0100
0000
0000
0010
0000
0000
,
0011
0000
0000
0001
1000
0001
1000
0000
,
1010
0000
0000
1001
0000
0000
0101
0000
0000
0000
0001
0010
2000
0000
0000
0000
,
3000
0000
0000
0000
;
