#TITLE:UNDER and OVER;
#SUBTITLE:;
#ARTIST:THE ORAL CIGARETTES;
#TITLETRANSLIT:UNDER and OVER;
#SUBTITLETRANSLIT:;
#ARTISTTRANSLIT:THE ORAL CIGARETTES;
#GENRE:ANIME;
#CREDIT:;
#MUSIC:UNDER and OVER.ogg;
#BANNER:UNDER and OVER.png;
#BACKGROUND:UNDER and OVER-bg.png;
#CDTITLE:;
#SAMPLESTART:51.255;
#SAMPLELENGTH:12.000;
#SELECTABLE:YES;
#OFFSET:0.490;
#BPMS:0.000=116.000;
#STOPS:;
#BGCHANGES:3.500=UNDER and OVER.avi=1.000=0=0=0=StretchNoLoop====,
99999.000=-nosongbg-=1.000=0=0=0=StretchNoLoop====
;
#FGCHANGES:;

//--------------- dance-single - ----------------
#NOTES:
     dance-single:
     :
     Hard:
     11:
     0,0,0,0,0:
0000
0000
0000
0000
,
0000
0000
0000
0000
0001
0000
0100
0000
0001
0000
0100
0000
0001
0000
0010
0100
,
0000
1000
0001
0000
1000
0000
0100
0000
1000
0000
0100
0000
1000
0010
0000
0100
,
0000
0010
1000
0000
0001
0000
0010
0000
0001
0000
0010
0000
0001
0100
0000
1000
,
0000
0100
0001
0000
1000
0000
0001
0000
1000
0010
0000
0010
0001
0000
0010
0000
,
0100
0000
0000
0000
1000
0000
0010
0000
1000
0000
0010
0000
1000
0000
0100
0010
,
0000
0001
1000
0000
0001
0000
0010
0000
0001
0000
0010
0000
0001
0100
0000
0010
,
0000
0100
0001
0000
1000
0000
0100
0000
1000
0000
0100
0000
1000
0010
0000
0001
,
0000
0010
1000
0000
0001
0000
1000
0000
0001
0010
0000
0010
1000
0000
0010
0000
,
0100
0000
0000
0000
1001
0000
0000
0000
0001
0000
0010
0000
0100
0000
1000
0010
,
0000
0100
0000
0001
0010
0000
0100
0000
0000
0100
0000
0000
1000
0000
0000
0001
,
0100
0000
0001
0000
1000
0000
0000
0000
0001
0000
1000
0000
0010
0000
0100
0001
,
0000
0010
0000
0001
1000
0000
0100
0000
0000
0100
0000
0000
0010
0001
0000
1000
,
0010
0000
0100
0000
0001
0000
0001
0000
1000
0000
0010
0000
0001
0000
0010
0100
,
0000
0001
0000
0010
0100
0000
1000
0000
0001
0000
1000
0000
0010
0000
0000
0000
,
0100
0001
0010
1000
0010
0001
1000
0000
,
1000
0000
0010
0000
0100
0000
0001
0000
0000
0001
0000
0000
1000
0100
0000
0010
,
0100
1000
0001
0100
0101
0000
1000
0100
,
1100
0000
0000
0000
0001
0000
0100
0000
0110
0000
0000
0000
0010
1000
0000
0001
,
0010
0100
1000
0001
0011
0000
1000
0010
,
1010
0000
0001
0100
0110
0000
0100
0001
,
1000
0200
0000
0001
0000
1300
0010
0000
0200
0001
0000
1000
0000
0301
0010
0000
,
0100
1000
1100
0000
0101
0000
1100
0000
,
0110
0001
1000
0000
0010
0000
0010
1000
,
0001
0020
0000
0100
0100
0100
0130
0000
,
1000
0000
0001
0100
0000
0001
0100
0000
0010
0000
1000
0100
0000
1000
0100
0000
,
0010
0000
0001
1000
0000
0000
0001
0000
0010
0000
0100
0000
1000
0000
0000
0000
,
0001
0100
0001
0100
0001
0000
0000
0000
1001
0000
0000
1000
0100
0000
0100
0001
,
0000
0100
0000
0000
1000
0000
0010
0000
0100
0000
0001
0000
1000
0000
0000
0000
,
0001
0000
1000
0010
0000
1000
0010
0000
0100
0000
0001
0010
0000
0001
0010
0000
,
0100
0000
1000
0001
0000
0000
0010
0000
0100
0000
1000
0000
0001
0000
0000
0000
,
1000
0000
0010
0000
0100
0000
0000
0001
1000
0000
0000
0010
0100
0000
0010
0000
,
1000
0000
0001
0010
0000
0100
0010
0000
0001
0000
1000
0010
0000
0100
0010
0000
,
1000
0000
0001
0010
0000
0100
1000
0000
0001
0000
0100
0000
2000
0000
0000
0000
,
3200
0000
0301
0010
1000
0001
0100
1000
,
0100
0001
1000
0010
0001
1000
0010
0100
,
0001
0000
1000
0100
0000
0010
0100
0000
1000
0000
0001
0100
0000
0010
0100
0000
,
0001
0000
1000
0100
0000
0010
0001
0000
1000
0000
0010
0000
0002
0000
0000
0000
,
0013
0000
1000
0000
0100
0000
0000
1000
0001
0000
0000
0001
1000
0000
0100
0000
,
0010
0000
0001
0000
1000
0000
0100
0000
1000
0000
0100
0000
1000
0000
0010
0100
,
0000
0001
1000
0000
0001
0000
0100
0000
0001
0000
0100
0000
0001
0010
0000
0100
,
0000
0010
0001
0000
1000
0000
0010
0000
1000
0000
0010
0000
1000
0100
0000
0001
,
0000
0100
1000
0000
0001
0000
1000
0000
0001
0100
0000
0100
1000
0000
0001
0000
,
0020
0000
0100
0130
0000
0000
0000
0000
;

//--------------- dance-single - ----------------
#NOTES:
     dance-single:
     :
     Challenge:
     15:
     0.857412,0.809075,0.60348,0,1.047861,547,492,55,0,0,0,0.857412,0.809075,0.60348,0,1.047861,547,492,55,0,0,0:
0000
0000
0000
0000
,
0000
0000
0000
0000
0001
0000
0101
0000
0001
0000
0101
0000
0001
0010
0100
1000
,
0000
0001
0010
0100
1000
0000
1100
0000
1000
0000
1100
0000
1000
0010
0000
0100
,
0001
0010
0100
1000
0010
0000
0110
0000
0010
0000
0110
0000
0010
1000
0000
0001
,
0010
0000
0100
0000
1000
0000
0100
0000
0010
0000
0001
0000
2000
0000
0000
0000
3001
0000
0010
0000
0000
0000
0100
0000
1000
0000
0001
0000
0100
0001
0100
0001
,
1000
0001
0010
0100
1000
0000
1010
0000
1000
0000
1010
0000
1000
0100
0010
0001
,
0000
1000
0100
0010
0001
0000
0011
0000
0001
0000
0011
0000
0001
0100
0000
0010
,
1000
0100
0010
0001
0100
0000
0110
0000
0100
0000
0110
0000
0100
0001
0000
1000
,
0100
0010
0001
0010
0100
1000
0002
0000
1003
0010
0000
0100
0001
1000
0001
1000
,
0001
1000
0001
0010
0100
0000
1100
0000
1000
0010
0000
0100
0010
0000
0100
0001
,
1000
0000
0001
0000
0010
0000
0100
0000
1000
0000
0000
0000
1001
0000
0000
0000
0001
0000
0100
0000
0000
0000
0010
0000
1000
0000
0100
0000
0010
0001
0010
0001
,
1000
0100
0010
0001
1000
0010
0100
0000
0001
1000
0000
0001
0100
0000
0010
1000
,
0001
0010
0100
1000
0001
0100
0010
0000
1000
0100
0000
0010
0001
1000
0000
0010
,
0100
0000
0001
0010
0100
0000
1000
0000
0001
0100
1000
0100
0001
0010
0100
1000
,
0001
0010
1000
0001
0200
0000
1000
0000
0001
0000
0310
0000
1001
0000
0000
0000
,
0001
0000
0100
0000
0010
0000
1010
0000
0100
0000
0101
0000
1000
0000
0001
0010
,
1000
0000
0010
0001
1000
0010
0100
0000
0010
0100
0000
0100
0010
0000
0100
0001
,
1000
0001
1000
0001
0010
0000
0011
0000
1010
0000
0010
1000
0100
0000
1100
0000
,
0101
0000
0100
0001
0010
0000
0011
0000
1010
0000
1000
0010
0000
0100
0001
0000
,
0001
0010
0100
1000
0001
0000
0101
0000
1100
0000
1000
0100
0001
0000
0100
0010
,
0000
0000
0100
0000
0000
0000
1000
0000
0001
0000
0000
0000
0101
0000
0000
0000
1010
0000
0000
0000
0010
0000
1000
0000
0100
0000
0010
0000
0001
1000
0100
0010
,
0001
1000
0000
1100
0000
1000
0010
0000
0100
0001
0010
0100
0000
0100
1000
0000
,
0001
0100
1000
0100
0002
0000
1003
0100
0002
0000
1003
0010
0001
0010
2000
0000
,
3001
0100
1000
0010
0002
0000
0000
1003
0200
0000
0000
0000
0301
0010
0100
1000
,
0001
0010
0200
0000
0000
0000
1000
0000
1000
0000
1000
0000
1300
0000
0000
1000
,
0001
0010
0100
2000
0000
0001
3002
0000
1003
0010
0100
0002
0000
1000
2003
0000
,
3001
0010
1000
0002
0000
0000
0203
0000
2300
0000
3020
0000
0130
0001
0020
0000
,
1030
0010
0001
0100
0010
0000
1010
0000
0101
0000
0000
0001
0010
0000
0100
1000
,
0000
0001
0000
0100
0010
0000
0101
0000
0010
0000
1100
0000
0001
0010
1000
0000
,
0010
0001
0100
0020
0000
1000
2030
0000
3010
0100
0001
0020
0000
0001
0032
0000
,
1003
0010
0001
2000
0000
0000
3200
0000
0302
0000
0023
0000
0130
1000
0001
0000
,
0001
0010
0100
1000
0010
0000
0100
0001
1000
0000
0001
0010
0100
0000
0010
0001
,
1000
0001
0100
2000
0000
3100
0001
0100
0010
1000
0100
0002
0000
0103
1000
0100
,
0010
0001
1000
0020
0100
0000
0001
0000
0100
0000
1030
0000
1000
0100
0010
0000
,
0001
0010
0001
0010
1000
0010
0001
0000
1000
0100
1000
0100
0001
0100
1000
0000
,
0001
0100
0001
0100
1000
0100
0001
1000
0100
1000
0100
0001
0100
1000
0001
0000
,
1000
0001
0100
2000
0000
3100
0010
0100
0001
1000
0100
0002
0000
0103
0010
0100
,
1000
0001
0200
1000
0000
0000
0010
0000
0001
0000
0310
0000
0010
1000
0001
0000
,
0001
0010
0100
1000
0001
0010
0001
0010
1000
0010
0001
1000
0010
1000
0010
0001
,
0010
1000
0100
0010
0001
0000
0101
0000
0001
0000
0101
0000
0001
0010
0100
1000
,
0000
0001
0010
0100
1000
0000
1100
0000
1000
0000
1100
0000
1000
0010
0000
0100
,
0001
0010
0100
1000
0010
0000
0110
0000
0010
0000
0110
0000
0010
1000
0000
0001
,
0010
0100
1000
0100
0010
0001
2000
0000
3001
0010
0100
1000
0001
0100
0001
0100
,
0020
2030
0001
3001
0000
0000
0000
0000
;
