#TITLE:UNDEAD;
#SUBTITLE:;
#ARTIST:YOASOBI;
#TITLETRANSLIT:UNDEAD;
#SUBTITLETRANSLIT:;
#ARTISTTRANSLIT:YOASOBI;
#GENRE:ANIME;
#CREDIT:;
#BANNER:UNDEAD.png;
#BACKGROUND:UNDEAD-bg.png;
#LYRICSPATH:;
#CDTITLE:;
#MUSIC:UNDEAD.ogg;
#OFFSET:2.286000;
#SAMPLESTART:60.214001;
#SAMPLELENGTH:14.167000;
#LASTBEATHINT:3.036847;
#SELECTABLE:YES;
#BPMS:0.000000=144.000000
;
#STOPS:
;
#BGCHANGES:5.000=UNDEAD.avi=1.000=0=0=0=====,
99999=-nosongbg-=1.000=0=0=0 // don't automatically add -songbackground-
;
#KEYSOUNDS:;
#ATTACKS:;

//---------------dance-single - ----------------
#NOTES:
     dance-single:
     :
     Hard:
     13:
     0.672321,0.686097,0.299690,0.266391,0.377388,424.000000,397.000000,27.000000,24.000000,0.000000,0.000000,0.672321,0.686097,0.299690,0.266391,0.377388,424.000000,397.000000,27.000000,24.000000,0.000000,0.000000:
0000
0000
0000
0000
,
0000
0000
0000
0000
,
0101
0000
0001
0000
0100
0000
0001
0000
1000
0010
0000
0200
0000
0000
0301
0000
,
1100
0000
1000
0000
0100
0000
1000
0000
0001
0100
0000
0020
0000
0000
0130
0000
,
1001
0000
0001
0000
1000
0000
0010
0000
0100
0001
0000
2000
0000
0000
3100
0000
,
0110
0000
0010
0000
0001
0000
1000
0000
0010
0000
0100
0002
0000
0000
1003
0000
,
0100
0000
0010
0000
0100
0000
0001
0000
0100
0000
1000
0001
0000
0000
0001
0000
,
0100
0000
0010
0000
0100
0000
1000
0000
0100
0000
0001
1000
0000
0000
1000
0000
,
0001
0000
0100
0010
0000
1000
0000
0002
0000
0000
1003
0000
0001
0000
1000
0000
,
0010
0100
0000
0001
0000
1000
0000
0100
0000
1000
0001
0000
0100
0000
0001
0000
,
0101
0000
0100
0000
0001
0000
0010
0000
0100
1000
0000
0001
0000
1000
0100
0000
,
1100
0000
1000
0000
0001
0000
0100
0000
0010
0100
0000
0001
0000
1000
0100
0000
,
0110
0000
0010
0000
0001
0000
1000
0000
0010
0100
0000
0001
0000
1000
0100
0000
,
2100
3001
0102
1003
2100
3020
0100
0130
,
1001
0000
0001
0000
0100
0000
0010
0000
1000
0100
0000
1000
0000
0001
0100
0000
,
0010
1000
0001
1000
0100
0010
0001
1000
,
0100
1000
0001
0100
0001
1000
0010
0100
,
0002
0000
0000
0000
0023
0100
0100
0130
,
0110
0000
0000
0000
1000
0000
0001
0000
0100
0000
0010
0100
0000
0000
0001
0100
,
0001
0000
1000
0100
1000
0000
0001
0100
0000
0001
0010
0000
0100
0000
1000
0000
,
0001
1000
0010
0001
1000
0100
0001
1000
,
0001
0000
1000
0010
0000
0100
0001
0000
1000
0100
0000
0010
0001
0000
1000
0000
,
1100
0000
0000
0000
0100
0000
1000
0000
0001
0000
0100
0010
0000
0000
1000
0000
,
0001
0000
0010
0100
0000
1000
0000
0001
0010
0000
0000
0100
0000
0000
1000
0000
,
0010
0100
0010
0001
0010
0100
0001
0010
,
0100
0010
1000
0010
0210
0000
2300
0000
,
3010
0000
0000
0000
0100
0000
0001
0000
1000
0000
0001
0020
0000
0000
0130
0000
,
1000
0000
0001
0000
1000
0000
0100
0000
1000
0000
0001
0200
0000
0000
0310
0000
,
1000
0010
0100
0010
0001
0010
1000
0100
,
0010
0100
0001
0100
2000
0000
3002
0000
,
0103
0000
0000
0000
0100
0000
1000
0000
0100
0000
0001
2000
0000
0000
3001
0000
,
0010
0000
1000
0000
0010
0001
0000
0010
0100
0000
0010
0002
0000
0000
1003
0000
,
0010
0100
0010
0001
0010
1000
0001
0010
,
0100
0000
0100
1000
0001
0100
0010
1000
,
0001
0000
1000
1000
0100
0000
0001
0001
,
0100
0000
1000
1000
0001
0100
0001
1000
,
0100
0000
0100
1000
0000
1000
0001
0100
,
0110
0001
1000
0001
0110
0000
1001
0000
,
0110
0000
0000
0000
1000
0000
0000
0000
0001
0000
1000
0200
0000
0000
0310
0000
,
0011
0000
0000
0000
1100
0000
0000
1000
0001
1000
0000
0020
0000
0000
0130
0000
,
0001
1000
0001
0100
0001
1000
0100
1000
,
0001
1000
0010
0100
0000
0101
0000
0001
,
0010
0000
0100
0000
1000
0000
0001
0000
0100
0000
0001
1000
0000
0000
1000
0000
,
0010
0000
0100
0000
0001
0000
1000
0000
0100
0000
1000
0001
0000
0000
0001
0000
,
1000
0000
0010
0100
0000
0001
0000
2000
0000
0000
3100
0000
0010
0000
0001
0000
,
0011
0000
1100
0000
0011
0000
0001
1000
,
0000
0000
0010
0000
0100
0000
0001
0000
1000
0000
0001
0200
0000
0000
0301
0000
,
0101
0000
1000
0000
1100
0000
0100
0000
1000
0000
0001
0100
0000
0000
0010
0000
,
1000
0001
0010
0100
0010
0001
1000
0100
,
0010
0100
1000
0001
0100
0000
1001
0000
,
1000
0000
0001
0000
1000
0000
0001
0000
1000
0000
0100
0010
0000
0000
0001
0000
,
1000
0000
0010
0000
0100
0000
0010
0000
1000
0000
0001
0010
0000
0000
0100
0000
,
1000
0000
0001
0000
1000
0000
0010
0000
0100
0001
0000
0020
0000
0000
0130
0000
,
1000
0000
0001
0100
0000
0010
0000
0100
0000
0001
1000
0000
0100
0000
0000
0000
;

//---------------dance-single - ----------------
#NOTES:
     dance-single:
     :
     Challenge:
     16:
     0.959326,1.073890,0.532783,0.821373,1.115514,605.000000,557.000000,48.000000,74.000000,0.000000,0.000000,0.959326,1.073890,0.532783,0.821373,1.115514,605.000000,557.000000,48.000000,74.000000,0.000000,0.000000:
// measure 0
0000
0000
0000
0000
,  // measure 1
0000
0000
0000
0000
,  // measure 2
0011
0000
1100
0000
1000
0010
0100
0010
1000
0010
0000
0100
0000
0000
0101
0000
,  // measure 3
1010
0000
0101
0000
0001
0010
0100
0010
0001
0010
0000
0100
0000
0000
1100
0000
,  // measure 4
0011
0000
1100
0000
1000
0010
0100
0010
1000
0010
0000
0100
0000
0000
0110
0000
,  // measure 5
1001
0000
0110
0000
0002
0000
0203
0000
2300
0000
3100
0010
0000
0000
0010
1000
,  // measure 6
0001
0000
0010
0000
0100
1000
0001
0000
0100
0000
0001
1000
0000
0000
0100
0000
,  // measure 7
0001
0000
0100
0000
1000
0000
0001
0100
0010
0000
1000
0001
0000
0000
0010
0000
,  // measure 8
0100
0000
1000
0100
0000
0010
0000
0002
0000
0000
1003
0000
0001
0000
1000
0000
,  // measure 9
0010
0100
0000
0001
0000
1000
0000
1010
0000
0101
1100
0000
0110
0000
0101
0000
,  // measure 10
1010
0000
0101
0000
0001
0010
0100
0000
1000
0100
0010
0001
0000
0100
0010
0000
,  // measure 11
0101
0000
1010
0000
1000
0000
0001
0000
0010
0100
0000
1000
0000
0001
0100
0000
,  // measure 12
0110
0000
1001
0000
0001
0010
0100
0000
0010
0001
0100
0010
0000
1000
0100
0000
,  // measure 13
0011
0000
1100
0000
1000
0010
0100
0000
0001
0010
0200
0000
0010
0000
0310
0000
,  // measure 14
1001
0000
0001
0000
0100
0010
0100
0000
1000
0100
0010
1000
0100
0010
0001
1000
,  // measure 15
0001
0010
0100
0000
0010
0001
1000
0010
0100
0010
1000
0001
0010
0100
1000
0001
,  // measure 16
0100
0000
0000
0010
0000
0000
1000
0000
0100
0000
1000
0000
0100
0000
0000
0010
0000
0000
0001
0000
0100
0000
0001
0000
0100
0000
0000
0010
0000
0000
1000
0000
0100
0000
1000
0000
0100
0000
0000
0010
0000
0000
0001
0000
1000
0000
0001
0000
,  // measure 17
2000
0000
0000
0000
3020
0100
0100
0130
,  // measure 18
0110
0000
0000
0000
0010
1000
0001
1000
0010
1000
0100
0010
0000
0000
0001
1000
,  // measure 19
0001
0000
0100
0010
0100
0000
0001
1000
0000
0010
1000
0100
0010
0000
0100
0000
,  // measure 20
1000
0000
0020
2030
3200
2300
3020
0230
0302
0023
0032
0203
0302
0000
1000
0000
,  // measure 21
1003
0100
0010
0001
0000
1000
0010
0000
0100
1000
0000
0100
0001
0000
0010
0000
,  // measure 22
2100
0000
0000
0000
3001
0000
0010
0100
1000
0001
0100
1000
0000
0100
0010
0000
,  // measure 23
1000
0001
0010
1000
0000
0010
0001
0100
0010
0000
1000
0001
0000
0000
0020
0000
,  // measure 24
0230
2300
3002
2003
3020
0032
2003
3200
,  // measure 25
0302
0000
0023
0000
0230
0000
2300
0000
3002
0000
0013
0100
0020
0000
0000
0000
,  // measure 26
0130
0000
1000
0000
0001
0000
0100
0010
0100
0010
1000
0002
0000
0000
0013
0000
,  // measure 27
1100
0000
1000
0000
0001
1000
0010
0000
0100
0001
0010
0200
0000
0000
1300
0000
,  // measure 28
0002
0023
2030
3020
0032
2003
3020
0032
,  // measure 29
2003
3200
0302
0023
0230
2300
3020
0000
,  // measure 30
0130
0000
0001
0000
0100
0001
0010
0100
0001
0000
0100
1000
0000
0000
1100
0000
,  // measure 31
0011
0000
1000
0000
0100
1000
0010
0100
1000
0000
0100
0001
0000
0000
0101
0000
,  // measure 32
0002
2003
3020
0032
0023
2030
3002
0023
,  // measure 33
0230
0000
2300
3002
0023
0230
2300
3002
,  // measure 34
1003
0100
0010
0002
1000
0000
1003
0000
0001
0010
0100
2000
0001
0000
3001
0000
,  // measure 35
1000
0000
0000
0010
0000
0000
0100
0000
0000
0002
0000
0000
1000
0000
0000
0000
0000
0000
1003
0000
0000
0000
0000
0000
0001
0000
0000
0100
0000
0000
0010
0000
0000
1000
0000
0000
0001
0000
1000
0000
0001
0000
1000
0000
0001
0000
1000
0000
,  // measure 36
0001
0010
0100
1000
0001
0010
0100
1000
0001
0010
0100
1000
0001
0010
0100
1000
,  // measure 37
0001
0000
0011
0000
1001
0000
1100
0000
0100
1000
0100
1000
0001
0100
0001
0100
,  // measure 38
0010
1000
0001
0000
0010
0000
0100
1000
0001
0000
0001
1000
0000
1000
0010
0000
,  // measure 39
0110
0000
0000
0000
1001
0000
0000
0001
0100
1000
0000
0100
0000
0010
1000
0000
,  // measure 40
0001
0010
1000
0010
0001
0010
0100
1000
0010
0001
0010
1000
0010
0100
0001
1000
,  // measure 41
0100
0000
0000
0010
0000
0000
0001
0000
0000
1000
0000
0000
0010
0000
0000
0100
0000
0000
0001
0000
0000
1000
0000
0000
0100
0000
0000
0000
0000
0000
0110
0000
0000
0000
0000
0000
0001
0000
0000
0000
0000
0000
1000
0000
0100
0000
0010
0000
,  // measure 42
0001
0000
1000
0001
1000
0010
0100
0001
1000
0000
0100
0010
0000
0000
0010
0100
,  // measure 43
1000
0001
0100
0000
0010
0100
1000
0100
0010
1000
0001
0010
0000
0000
0100
0000
,  // measure 44
1000
0000
0010
0100
0000
0001
1000
0200
0000
0000
0310
0000
0001
1000
0100
0010
,  // measure 45
0001
0000
0000
0000
0000
0000
0100
0000
0000
0010
0000
0000
0001
0000
0000
0000
0000
0000
1000
0000
0000
0100
0000
0000
0010
0000
0000
0000
0000
0000
0010
0000
0000
0100
0000
0000
0001
0000
1000
0000
0001
0000
1000
0000
0001
0000
1000
0000
,  // measure 46
0100
0000
0010
0000
0100
0000
1000
0000
0001
0000
0100
0020
0000
0000
0130
0000
,  // measure 47
2001
0000
3100
0000
1002
0000
0103
0000
1001
0000
0010
0100
0000
0001
1000
0000
,  // measure 48
0010
0000
0100
0001
0010
0000
0100
1000
0010
0000
0100
0001
0010
0000
0100
0000
,  // measure 49
1000
0100
0010
0001
0010
0100
1000
0010
0100
0000
0000
0000
1001
0000
0000
0000
,  // measure 50
0001
0100
1000
0100
0001
0010
0100
1000
0001
0000
1000
0100
0000
0001
0100
0000
,  // measure 51
1000
0010
0001
0010
1000
0100
0010
0001
1000
0000
0010
0100
0000
0000
0001
0100
,  // measure 52
0010
0000
0110
0000
1000
0000
0110
0000
0001
0100
0000
0020
0000
0000
1030
0000
,  // measure 53
0001
0010
0100
1000
0000
1100
0000
0011
0000
0101
1100
0000
0110
0000
0000
0000
;
