#TITLE:ういこうせん;
#SUBTITLE:;
#ARTIST:しぐれうい【にゃるら・Aiobahn +81】;
#TITLETRANSLIT:UI KOUSEN;
#SUBTITLETRANSLIT:;
#ARTISTTRANSLIT:Shigure Ui;
#GENRE:POP;
#CREDIT:;
#MUSIC:UI KOUSEN.ogg;
#BANNER:UI KOUSEN.png;
#BACKGROUND:UI KOUSEN-bg.png;
#CDTITLE:;
#SAMPLESTART:126.785;
#SAMPLELENGTH:11.831;
#SELECTABLE:YES;
#OFFSET:1.666;
#BPMS:0.000=142.000;
#STOPS:;
#LASTBEATHINT:1.527335;
#BGCHANGES:7.500=UI KOUSEN.avi=1.000=0=0=0=StretchNoLoop====,
99999.000=-nosongbg-=1.000=0=0=0=StretchNoLoop====
;
#FGCHANGES:;

//--------------- dance-single - ----------------
#NOTES:
     dance-single:
     :
     Medium:
     11:
     0,0,0,0,0:
0000
0000
0000
0000
,
0000
0000
0000
0000
,
0000
0000
0000
0000
,
1000
0100
0010
0001
0000
1000
0010
0100
,
0000
0001
0100
0010
1000
0001
0010
0100
,
0000
1000
0001
0100
0000
0001
1000
0100
,
0000
1000
0010
0100
0001
1000
0100
0010
,
0002
0000
1000
0000
0100
0000
0013
0100
,
0000
0100
1000
0001
0100
0010
1000
0001
,
0020
1000
0100
0032
,
0100
0100
0100
0103
,
0110
0000
1010
0000
0101
0000
0001
1000
,
0000
0001
0010
0100
1000
0010
0100
0001
,
0011
0000
1100
0000
1001
0000
1000
0010
,
0000
0100
0001
0010
0001
1000
0001
0100
,
0101
0000
1010
0000
1100
0000
0100
1000
,
0000
1000
0010
0100
0001
0010
0100
1000
,
1010
0101
1100
1001
,
0110
0110
0110
0110
,
2001
0000
0000
0000
,
3001
0100
1000
0100
0001
0010
0000
0010
,
0100
1000
0000
0001
0000
0001
0000
1000
,
0000
1000
0100
0001
0100
1000
0000
0010
,
0100
0010
0000
1000
0000
0001
0000
0100
,
0000
0010
1000
0001
0010
0100
0000
1000
,
0001
0100
0000
0010
0000
0100
0000
0010
,
1000
0000
0000
0001
0000
0000
1000
0000
,
0010
0000
0000
0100
0110
0000
0110
0000
,
1000
0001
0010
1000
0010
0001
0000
1000
,
0010
0100
0000
0001
0000
1000
0000
0010
,
0000
0010
1000
0100
0001
0100
0000
0100
,
1000
0001
0000
0100
0000
0001
0000
0110
,
0000
1000
0010
0100
0001
0010
0000
0010
,
1000
0010
0000
0001
0000
0100
0000
1000
,
0200
0000
0000
0302
0000
0000
1003
0000
,
0110
0000
0010
1000
1100
0000
0101
0000
,
1001
0000
0001
0100
0000
0010
0000
1000
,
0000
0000
0000
0001
0010
0100
1000
0001
,
0010
0000
0010
0001
0000
1000
0000
0010
,
0000
0000
0000
1000
0010
0100
0001
0010
,
0001
1000
0100
0010
0000
0100
0000
1000
,
0000
0000
0000
0001
0100
0001
0010
0100
,
1000
0010
1000
0001
0000
0100
0000
0010
,
0000
0000
0000
0000
,
0110
0000
0001
0100
0000
0001
0000
1000
,
1100
0000
0000
0100
1000
0001
1000
0010
,
0110
0000
0100
0001
0000
1000
0000
0001
,
0101
0000
0000
0100
0001
1000
0010
0100
,
0101
0001
1000
0100
0000
0010
0000
0001
,
1001
0000
0000
1000
0010
0100
0001
0010
,
0011
0001
1000
0010
0000
0100
0001
1000
,
1001
0000
0000
0000
0000
0000
0001
1000
,
1100
0000
0011
0000
1100
0000
1000
0001
,
0000
0100
0010
1000
0001
1000
0010
0100
,
0101
0000
1010
0000
0101
0000
0001
0010
,
0000
0100
1000
0001
1000
0010
0100
0010
,
0110
0000
1001
0000
0110
0000
0001
0010
,
0000
0100
1000
0010
0100
0010
1000
0001
,
0011
1100
1010
0101
,
1001
0000
0110
0010
,
1000
0000
0001
0000
0010
0000
0100
1000
,
0000
0001
1000
0010
0100
1000
0100
0001
,
0010
0000
0100
0000
1000
0000
0001
0010
,
0000
0100
1000
0010
0001
0010
1000
0100
,
1100
0011
1100
0011
,
0101
1010
0101
1010
,
1000
0100
0001
0100
1000
0010
0001
0010
,
2000
0001
3020
0130
,
0101
0000
1010
0000
0010
1000
0001
0010
,
0001
0000
1000
0100
1000
0000
0001
0000
0101
0000
0000
0000
0100
0000
0001
0000
,
1000
0000
0001
0010
0100
1000
0000
1000
,
0100
0000
0010
0000
0001
1000
0000
0000
0110
0000
0000
0000
1001
0000
0000
0000
,
1000
0000
0001
0100
0001
0000
0010
0000
1000
0000
0000
0000
1000
0000
0010
0000
,
0001
0000
1000
0100
1000
0000
0010
0000
0001
0000
0000
0000
0001
0000
0010
0000
,
1000
0000
0100
0000
1000
0000
0001
0000
1000
0000
0010
0100
0010
0000
0000
0000
,
0100
0001
1000
0001
0010
0100
0000
0000
,
1100
0000
0101
0000
1001
0000
0001
0010
,
0000
0100
1000
0001
1000
0010
0100
0001
,
0101
0000
1100
0000
0110
0000
0001
1000
,
0000
0010
0100
0001
0010
1000
0010
0001
,
0011
0000
1100
0000
1001
0000
0001
1000
,
0000
1000
0001
0010
1000
0010
0001
1000
,
1010
0000
0101
0000
0001
0010
0100
0000
,
1100
0101
0110
1001
,
0001
0100
0001
1000
0010
1000
0001
0100
,
0001
0010
0100
1000
0001
1000
0100
0010
,
0001
1000
0001
0100
0010
0100
0001
1000
,
0001
0100
0010
1000
0001
1000
0010
0100
,
0001
0010
1000
0010
0001
0100
1000
0100
,
0001
0010
0100
1000
0001
1000
0010
0100
,
0001
0010
1000
0010
0001
0100
0010
1000
,
1100
0001
0011
0100
0101
0010
1010
1000
,
1001
0000
0000
0000
;

//--------------- dance-single - ----------------
#NOTES:
     dance-single:
     :
     Hard:
     16:
     0,0,0,0,0:
0000
0000
0000
0000
,
0000
0000
0000
0000
,
0000
0000
0000
0000
,
0001
0010
0100
1000
0000
0001
0100
0010
,
0000
1000
0100
0010
0001
1000
0010
0100
,
0000
0100
0001
1000
0000
0100
1000
0001
,
0000
1000
0010
0100
0001
0010
0100
1000
,
0001
0100
0001
1000
0100
1000
0001
0010
0001
1000
0010
1000
0100
0010
0100
1000
,
0001
0010
0100
1000
0001
0010
0100
1000
0001
0100
0010
1000
0001
0100
0010
1000
,
0001
0100
0001
1000
0100
1000
0001
0010
0001
1000
0010
1000
0001
0100
0010
1000
,
0100
0000
1000
0001
0000
0100
0001
0000
1000
0010
0000
0100
0001
0000
1000
0000
0000
0100
0010
0000
0000
0100
0000
0000
,
2100
3000
1002
0003
0201
0300
1020
0230
,
0000
0302
0023
0230
2300
3020
0230
0301
,
0102
0003
2001
3000
1020
0030
1200
0320
,
0000
0000
0032
0000
2003
0000
3020
0000
0230
0000
0301
1000
0200
0000
0310
0000
,
0012
0003
2001
3100
1000
0010
0102
0023
,
0130
1000
0021
0130
1000
0001
1020
0130
,
1001
0010
0110
1000
1001
0100
0110
0001
,
1001
1001
1001
1001
,
0120
0000
0000
0000
0130
0000
0100
0001
0010
0000
0100
1000
0001
1000
0001
0100
,
0010
0000
0100
0001
1000
0000
0100
1000
0100
0000
1000
0001
0100
0000
0010
0000
,
0100
0000
0001
0010
0100
0000
1000
0001
1000
0000
0010
0100
0001
0000
1000
0000
,
0100
0000
0010
0001
1000
0000
0010
0100
0010
0000
0100
0001
1000
0000
0100
0000
,
0010
0000
0001
1000
0010
0000
0100
0001
1000
0000
0001
0010
0100
0000
1000
0000
,
1001
0000
0001
0100
0010
0000
0100
0001
0100
0000
0001
1000
0100
0000
0010
0000
,
0100
0000
1000
0001
0100
0000
0010
0100
0010
0000
1000
0001
0010
0000
0100
0000
,
2100
0000
0000
0000
3010
0000
0100
0001
0020
0000
0000
0000
0130
0000
1000
0010
,
0200
0000
0001
0301
0110
0000
0110
0000
,
1001
0000
1000
0000
0001
0100
0000
0010
0100
0000
0001
0010
0000
0100
0010
0000
,
0001
0000
0001
0000
1000
0010
0000
0100
0010
0000
1000
0100
0000
0010
0100
0000
,
1000
0000
1000
0000
0001
0100
0000
0010
0100
0000
1000
0100
0000
0010
0100
0000
,
0001
0000
0001
0000
1000
0100
0000
0010
0100
0000
0001
0100
0000
0010
0100
0000
,
1001
0000
1000
0000
0001
0100
0000
0100
0010
0000
0010
1000
0000
1000
0001
0000
,
0001
0000
1000
0000
1000
0100
0000
0100
0010
0000
0010
0001
0000
0001
1000
0000
,
1100
0100
1000
0001
0101
0100
0001
0010
,
0110
0000
0100
1000
1001
0000
1001
0000
,
2000
0000
3020
0230
0000
0302
0000
0203
,
0000
0000
0000
0302
0023
0230
2300
3020
,
0230
0000
0302
2003
0000
3002
0000
0203
,
0000
0000
0000
0320
2030
3200
0320
0032
,
2003
3020
0230
0302
0000
0023
0000
0230
,
0000
0000
0000
2300
3020
0230
0302
2003
,
3002
0023
0230
2300
0000
3020
0000
0230
,
0300
0000
0000
0000
,
0110
0000
0100
0001
1000
0100
0000
0100
,
1100
0000
1000
0010
0001
0010
1000
0100
,
0110
0000
0010
0001
0100
1000
0100
0001
,
1001
0000
1000
0010
0100
0001
1000
0100
,
1100
1000
0001
0100
0000
0100
0001
0010
,
0011
0000
0001
0010
0100
1000
0001
0100
,
0101
0001
0100
1000
0100
0001
1000
0100
,
0110
0000
0000
0000
0000
0000
0001
0010
,
1100
0000
1001
0000
0101
0000
0011
1100
,
0000
1000
0100
0010
0001
0010
0100
1000
,
1010
0000
1001
0000
0011
0000
1010
0101
,
0000
0000
0100
0000
0001
0000
1000
0000
0001
0000
0010
0100
1000
0000
1100
0000
,
0101
0000
1001
0000
1100
0000
1010
0101
,
0000
0001
0100
0010
1000
0010
0100
0001
,
0011
1100
1010
0101
,
0120
0000
0130
1001
,
0001
0100
0010
1000
0100
0010
0100
1000
0001
1000
0010
0100
0001
1000
0100
1000
,
0001
0010
0100
1000
0001
0010
0100
1000
0001
0100
0010
1000
0001
0100
0010
1000
,
0001
0010
0100
0010
0001
1000
0100
0010
0001
1000
0010
0100
0010
1000
0001
0100
,
0010
1000
0001
0010
0100
1000
0010
0100
0001
0010
0100
1000
0100
0010
0001
1000
,
0001
0100
0010
0100
1000
0100
0010
0100
0001
0010
0100
0010
1000
0010
0100
0010
,
0001
0100
0010
0100
1000
0100
0010
0100
0001
0010
0100
0010
1000
0010
0100
0010
,
0001
0100
1000
0100
0001
0010
1000
0010
0001
0100
1000
0100
0001
0010
1000
0010
,
0001
0000
1000
0010
0000
0100
0001
0000
0010
0100
0000
1000
0001
0100
0000
0000
0010
0000
0100
0000
0000
0010
0000
0000
,
1001
0000
0110
0000
1000
0010
0100
0001
,
1000
0100
0010
0001
1000
0000
0010
0000
1010
0000
0101
0000
0000
0000
0001
0010
,
0100
0000
1000
0000
0001
0000
1000
0000
0101
0000
1100
0000
0000
1000
0001
1000
,
0100
0001
0100
1000
0001
0100
0000
0000
0110
0000
0000
0000
1001
0000
0000
0000
,
0001
0100
1000
0100
0001
0000
1000
0100
0002
0000
0000
0000
0103
1000
0001
0010
,
0100
1000
0100
0001
0100
1000
0001
0100
2000
0000
0000
0000
3100
0000
0001
0010
,
0100
0000
1000
0010
0100
0010
1000
0001
0010
0000
0100
1000
0010
0000
0100
0001
,
0010
0100
1000
0010
0100
0001
1000
0100
0010
0000
1001
0000
0000
0000
0001
0000
,
1100
0000
1010
0000
0101
0000
1100
1000
,
0010
0000
0100
0001
0010
0000
0100
1000
0010
0000
0100
0001
0010
0000
0100
0000
,
0011
0000
1001
0000
1100
0000
1010
0100
,
0001
0000
0010
0100
1000
0000
0010
0000
0100
0000
0001
0010
0100
0000
1000
0000
,
0110
0000
1001
0000
0110
0000
1000
0001
,
0100
0000
1000
0100
0010
0000
1000
0000
0100
0000
0001
0100
0010
0000
0100
0000
,
1100
0000
0011
0000
0100
1000
0011
0000
,
1100
0110
0110
1001
,
0101
0000
0001
0010
0100
0000
0010
0001
1000
0000
0001
0100
0010
0000
1000
0000
,
1010
0000
0010
0100
0001
0000
0010
0000
0011
0000
0001
1000
0100
0000
0010
0000
,
0110
0000
0100
1000
0001
0000
0100
0010
0001
0000
1000
0100
0010
0000
1000
0000
,
1001
0000
0001
0010
0100
0000
1000
0000
1100
0000
0100
1000
0010
0000
0100
0000
,
0101
0000
0000
0000
1001
0000
1000
0010
0100
0000
0010
1000
0001
0000
0010
0000
,
1100
0000
1000
0001
0100
0000
0010
0000
0101
0000
0001
1000
0100
0000
0010
0000
,
1001
0000
0001
0010
1000
0000
0001
0100
2000
0000
3002
0000
0203
0000
1300
0100
,
0001
1000
0001
1000
0001
0010
1000
0001
0100
0000
0100
1000
0001
0000
0001
0100
,
2000
0000
0000
0000
,
0000
0000
0000
3000
;

//--------------- dance-single - ----------------
#NOTES:
     dance-single:
     :
     Challenge:
     17:
     0.902276,1.215377,0.65424,0.383737,0.754893,1004,900,104,61,0,0,0.902276,1.215377,0.65424,0.383737,0.754893,1004,900,104,61,0,0:
0000
0000
0000
0000
,
0000
0000
0000
0000
,
0000
0000
0000
0000
,
0001
0010
0100
1000
0001
1000
0010
0100
,
0001
0010
0100
1000
0001
0010
1000
0010
,
0001
0100
0010
1000
0100
0010
0001
1000
,
0010
0100
0001
1000
0001
0100
1000
0100
,
0001
0000
0000
0000
1000
0000
0100
0000
0000
0000
1000
0000
0001
0000
0000
0000
0100
0000
0010
0000
0000
0000
1000
0000
0100
0000
0000
0000
1000
0001
1000
0000
0000
0000
0010
0000
0100
0000
0000
0000
0001
0000
1000
0000
0000
0000
0001
0100
,
0001
0000
0000
0000
1000
0000
0100
0000
0000
0000
1000
0000
0010
0000
0000
0000
0100
0000
0010
0000
0000
0000
1000
0000
0001
0000
0000
0000
0010
0000
0100
0000
0000
0000
1000
0000
0001
0000
0000
0000
0100
0000
0001
0000
0000
0000
1000
0100
,
1000
0000
0000
0000
0001
0000
0100
0000
0000
0000
0010
0000
0100
0000
0000
0000
0001
0000
1000
0000
0000
0000
0001
0100
0001
0000
0000
0000
1000
0000
0100
0000
0000
0000
1000
0000
0001
0000
0000
0000
0100
0000
0010
0000
0000
0000
1000
0001
,
1000
0000
0000
0000
0001
0000
0010
0000
0000
0000
0100
0000
1000
0000
0000
0000
0001
0000
0010
0000
0000
0000
0100
0000
1000
0000
0000
0000
0010
0000
0000
0000
0000
0000
0010
0000
0100
0000
0000
0000
0000
0000
0100
0000
0000
0001
0000
0000
,
0020
0100
0032
0100
2003
0100
3020
0230
,
0001
0302
0023
0230
2300
3020
0230
0320
,
2030
0100
3002
0100
2003
0001
3020
0230
,
0001
0000
0302
0000
0023
0000
0230
0000
2300
0000
3001
0100
0020
0000
0230
0000
,
0320
0030
1001
0100
0001
0010
1100
0001
,
1000
0010
0101
0010
1000
0001
0110
1000
,
0001
0100
1010
0001
1000
0100
0011
1000
,
0110
0000
0110
0000
0110
1000
0110
0001
,
0110
0000
0000
0000
0001
0000
1000
0100
0010
0000
0010
0001
0010
0100
1000
0001
,
0010
0000
0100
1000
0001
0000
1000
0010
0100
0000
0010
1000
0001
0000
1000
0010
,
0100
0000
0001
0010
0100
0000
1000
0010
0100
0000
0001
0010
0100
0000
1000
0001
,
1000
0000
0001
0100
0010
0000
0100
0001
1000
0000
0001
0010
0100
0000
1000
0001
,
0100
0000
0010
0100
0001
0000
1000
0001
0010
0000
0100
1000
0010
0000
0100
0001
,
1000
0000
0001
0010
0100
0000
0001
0100
0010
0000
0100
0010
0001
0000
0100
0001
,
1000
0000
0010
0100
1000
0000
0100
0010
1000
0000
0100
0010
1000
0000
0010
0100
,
1000
0000
0001
0100
1000
0000
0100
0001
0010
0000
0001
0010
1000
0000
0010
0001
,
0200
0000
0000
0000
0010
0000
0310
0000
0110
0000
0000
0000
0110
0000
0100
0001
,
1000
0000
0001
0000
1000
0100
0000
0010
0100
0000
1000
0100
0000
1000
0001
0000
,
0101
0000
0100
0000
0001
0010
0000
0100
0010
0000
0001
0010
0000
0001
1000
0000
,
1001
0000
0001
0000
1000
0100
0000
0001
0100
0000
1000
0100
0000
0001
0100
0000
,
1001
0000
1000
0000
0001
0100
0000
1000
0100
0000
0001
0100
0000
1000
0100
0000
,
0110
0000
1000
0000
0001
0010
0000
0010
1000
0000
0001
0100
0000
0100
1000
0000
,
1001
0000
0001
0000
1000
0010
0000
0010
0001
0000
1000
0100
0000
0100
0001
0000
,
0101
0000
0100
0001
0010
0000
0100
0000
1100
0000
0100
1000
0010
0000
0100
0000
,
0110
0000
0100
0000
0001
0000
1000
0000
1001
0000
0000
0000
1001
0000
1000
0010
,
0200
1000
0320
2030
0010
3002
0100
0023
,
0001
0100
1000
0230
2300
3020
0230
0302
,
0023
1000
0230
2300
0010
3002
0100
2003
,
0001
0010
0100
3002
0023
2030
3002
0203
,
2300
3002
0203
0320
1000
0230
0010
0302
,
1000
0100
0010
2003
3020
0230
0302
0023
,
0230
2300
3020
0230
0001
0320
1000
0230
,
0301
0000
0000
0000
,
0110
1000
0001
0100
0101
0001
0010
0100
,
1001
0010
0100
1000
1100
0100
1000
0010
,
1001
0100
0001
0010
0011
0001
0100
0010
,
1001
0100
0010
1000
1010
0010
1000
0001
,
0110
1000
0001
0010
0011
0100
1000
0001
,
0110
1000
0001
0100
0101
0001
0010
0100
,
1001
0010
1000
0001
0101
0100
0001
1000
,
0110
0000
0000
0000
0000
0000
1000
0010
,
0101
0000
1001
0000
1100
0000
1010
0101
,
0001
0010
1000
0010
0001
0100
1000
0100
,
0101
0000
1001
0000
1010
0000
0011
1100
,
0000
0000
1000
0000
0001
0000
0010
0000
1000
0000
0010
0001
0100
0000
0110
0000
,
1001
0000
1010
0000
1100
0000
0011
1100
,
1000
0010
0001
0010
1000
0100
0001
0100
,
1100
0011
0101
1010
,
0210
0000
0000
0000
0000
0000
0000
0000
0310
0000
0010
1000
0001
0000
0000
0000
,
0001
0000
1000
0100
0000
1000
0010
0000
0100
0001
0000
1000
0100
0000
0010
0001
0000
0010
0100
0000
1000
0010
0000
0100
,
0001
0000
0000
0000
1000
0000
0100
0000
0000
0000
0010
0000
0100
0000
0000
0000
0001
0000
0100
0000
0000
0000
1000
0000
0001
0000
0000
0000
1000
0000
0010
0000
0000
0000
0100
0000
0010
0000
0000
0000
0001
0000
0010
0000
0000
0000
1000
0001
,
1000
0000
0000
0000
0100
0000
0010
0000
0000
0000
0001
0000
1000
0000
0000
0000
0010
0000
0100
0000
0000
0000
0001
0000
0100
0000
0000
0000
0010
0000
1000
0000
0000
0000
0100
0000
0001
0000
0000
0000
0010
0000
0100
0000
0000
0000
1000
0100
,
1000
0000
0000
0000
0001
0000
0100
0000
0000
0000
1000
0000
0100
0000
0000
0000
0001
0000
1000
0000
0000
0000
0001
0000
0010
0000
0000
0000
1000
0000
0010
0000
0000
0000
0001
0000
1000
0000
0000
0000
0010
0000
0100
0000
0000
0000
0001
1000
,
0001
0000
0000
0000
0010
0000
1000
0000
0000
0000
0001
0000
0100
0000
0000
0000
1000
0000
0001
0000
0000
0000
1000
0000
0010
0000
0000
0000
0100
0000
0001
0000
0000
0000
0010
0000
1000
0000
0000
0000
0001
0000
0100
0000
0000
0000
1000
0001
,
1000
0000
0010
0001
0000
1000
0100
0000
0001
1000
0000
0001
0010
0000
0100
1000
0000
0010
0001
0000
1000
0100
0000
0010
,
1000
0001
0010
0100
0010
0001
1000
0010
0100
0010
1000
0001
0010
0100
1000
0010
0100
0001
1000
0001
0010
0100
1000
0001
,
0100
0000
0000
0000
0010
0000
1000
0000
0000
0000
0001
0000
0010
0000
0000
0000
0100
0000
1000
0000
0000
0000
0001
0000
0100
0000
0010
0000
0000
0000
0000
0000
0010
0000
0000
0000
0100
0000
0000
0000
0000
0000
0010
0000
0000
1000
0000
0000
,
1001
0100
0101
0010
1100
0010
1001
1000
,
0001
0100
1000
0100
0001
0000
0010
0000
0011
0000
1100
0000
0001
0000
1000
0010
,
0001
0000
0010
0000
1010
0000
0100
0000
0101
0000
1100
0000
1000
0010
0100
1000
,
0001
0010
1000
0001
0010
0100
0000
0000
0110
0000
1000
0000
0101
0000
1000
0000
,
0001
0010
1000
0010
0001
0000
1000
0010
0002
0000
0010
0000
0013
1000
0100
0001
,
0100
1000
0001
0010
1000
0010
0001
0100
2000
0000
3100
0000
0110
0000
0010
1000
,
0001
0000
1000
0100
0010
0100
1000
0001
0100
0000
0100
0001
0010
0000
0100
1000
,
0001
0100
1000
0001
0010
1000
0100
0010
0001
0000
0011
0000
1001
0000
1100
0000
,
0110
1000
0101
0010
1100
0010
1001
1000
,
0001
0100
1000
0100
0010
0000
1010
0000
1000
0100
0001
0100
0010
0000
0011
0000
,
1100
1000
0101
0010
1100
0010
0101
0100
,
0010
1000
0100
0010
2000
0000
0010
0000
3010
0001
0100
0010
0002
0000
0013
0000
,
0110
0100
1001
0010
1100
0010
0101
0001
,
1000
0001
0010
0100
0001
0000
0100
0000
1000
0001
0100
0010
0001
0000
0010
0000
,
1010
0100
0101
0001
0011
0100
1100
0001
,
0110
1000
0110
0001
0110
1000
1001
0010
,
0101
0001
1000
0100
0010
0000
0100
0000
1100
1000
0001
0100
0010
0000
1000
0000
,
1001
0001
0010
0100
1000
0000
1000
0010
0100
0000
0100
0001
1000
0001
0010
0100
,
1100
1000
0001
0100
1000
0000
0100
0000
0101
0001
1000
0100
0001
0000
0100
0000
,
1001
1000
0010
0100
0001
0000
0010
0100
1000
0001
0010
0100
1000
0001
0010
0100
,
0110
0000
0000
0000
0000
0000
1000
0000
0000
0001
0000
0000
0101
0000
0000
0000
0000
0000
1000
0000
0000
0000
0000
0000
0110
0000
0000
0000
0000
0000
0001
0000
0000
1000
0000
0000
1100
0000
0000
0000
0000
0000
1000
0000
0100
0000
0010
0000
,
0001
0000
0010
0000
0100
0000
1000
0000
0000
0100
0000
0000
1100
0000
0000
0000
0000
0000
0001
0000
0100
0000
0010
0000
1000
0000
0010
0000
0100
0000
0001
0000
0000
0100
0000
0000
0101
0000
0000
0000
0000
0000
0100
0000
0000
0001
0000
0000
,
1000
0000
0000
0000
0000
0000
0100
0000
1000
0000
0010
0000
0100
0000
0000
0000
0000
0000
0100
0000
0001
0000
0010
0000
0100
0000
0000
0000
0000
0000
0100
0000
1000
0000
0010
0000
0100
0000
0000
0000
0000
0000
0100
0000
0000
0001
0000
0000
,
0010
1000
0001
0100
1000
0001
0100
1000
0100
0000
0100
0001
1000
0000
0001
0010
,
2000
0000
0000
0000
,
3000
0000
0000
0000
;
