#TITLE:桃源恋歌;
#SUBTITLE:;
#ARTIST:GARNiDELiA;
#TITLETRANSLIT:Togen Renka;
#SUBTITLETRANSLIT:;
#ARTISTTRANSLIT:GARNiDELiA;
#GENRE:POP;
#CREDIT:;
#MUSIC:Tougen Renka.ogg;
#BANNER:Tougen Renka.png;
#BACKGROUND:Tougen Renka-bg.png;
#CDTITLE:;
#SAMPLESTART:63.943;
#SAMPLELENGTH:14.427;
#SELECTABLE:YES;
#OFFSET:-0.050;
#BPMS:0.000=131.000
,221.500=121.000
,222.500=117.000
,224.500=105.000
,225.000=91.000
,226.000=83.000
;
#STOPS:;
#BGCHANGES:3.250=Tougen Renka.avi=1.000=0=0=0=StretchNoLoop====,
99999.000=-nosongbg-=1.000=0=0=0=StretchNoLoop====
;
#FGCHANGES:;

//--------------- dance-single - ----------------
#NOTES:
     dance-single:
     :
     Medium:
     11:
     0.492136,0.474476,0.354494,0.063627,0,379,340,39,7,0,0,0.492136,0.474476,0.354494,0.063627,0,379,340,39,7,0,0:
0000
0000
0000
0000
,
0000
0000
0000
0000
,
1000
0010
0100
0000
0100
0001
1000
0000
,
0100
0001
0100
1000
0001
0100
0010
0000
,
0100
0001
0010
0000
0010
0100
1000
0000
,
0001
0000
1000
0010
0001
0010
0100
0000
,
0000
0001
1000
0000
0100
0010
0100
0000
,
1000
0010
0100
0001
0010
0100
1000
0000
,
1000
0001
0100
0000
1010
0000
0100
0000
,
0011
0000
0001
0010
0100
1000
0001
0000
,
1001
0000
0110
0000
0001
0100
0001
0000
,
1000
0100
1000
0010
0001
1000
0200
0001
,
0301
0000
1001
0000
1000
0100
1000
0000
,
0001
0100
0001
0010
1000
0001
0200
1000
,
1300
0000
0110
0000
1000
0001
1000
0000
,
0010
0100
0110
0000
1001
0000
0110
0000
,
1001
0000
1100
0000
0001
0100
0001
0000
,
1000
0100
1000
0001
0100
0010
1000
0000
,
1001
0000
0110
0000
0001
1000
0010
0100
,
0001
1000
1100
0000
0001
0010
0021
0000
,
0130
0000
1100
0000
1000
0010
1000
0000
,
0001
0100
0001
0010
0100
1000
0001
0000
,
0101
0000
0001
0100
1000
0100
0001
0010
,
1000
0010
0001
1000
0100
0010
1001
0000
,
1000
0010
0100
0000
0010
1000
0001
0010
,
0100
1000
1100
0000
0011
0000
0110
0000
,
1001
0000
1100
0000
1000
0010
0100
0000
,
0100
0001
0010
0000
0010
0100
2000
0000
,
3001
0000
0101
0000
0010
0100
0010
1000
,
0001
0010
0100
1000
0001
1000
0010
0000
,
0110
0000
1001
0000
0001
0010
0100
0000
,
0100
1000
0010
0000
0010
0100
0002
0000
,
1003
0000
0010
0100
0010
0100
0010
0000
,
1000
0001
1000
0001
0010
0100
1000
0000
,
0010
1000
0000
1000
0100
0010
0001
1000
,
0010
1000
0010
0100
0000
0100
0001
0010
,
0000
0010
0100
1000
0001
0000
1000
0001
,
0100
0001
0010
0100
0000
0100
1000
0010
,
0000
0010
0100
0001
1001
0000
1010
0000
,
0101
0000
1000
0010
0001
1000
0100
0001
,
0010
0000
0100
0010
0001
1000
0010
0000
,
0100
0001
0110
0000
1001
1000
0001
0100
,
0010
0100
0001
1000
0100
0010
0001
0000
,
1000
0010
1010
0000
0100
0001
1000
0100
,
1000
0010
0110
0000
1001
0000
0110
0000
,
0000
0000
1000
0100
1000
0100
0001
0100
,
0001
0100
1000
0010
0100
0001
1001
0000
,
1000
0010
0100
0000
0100
0001
0010
0000
,
0010
0100
0010
0001
0100
0010
1000
0000
,
0001
0100
0010
0000
0010
1000
0001
0000
,
0010
0000
0100
1000
0001
0010
1000
0000
,
0000
0010
0001
0000
0100
1000
0100
0000
,
0100
0001
0010
1000
0001
0100
0010
0000
,
0100
1000
1010
0000
0100
0001
0011
0000
,
0100
1000
0001
0100
0010
1000
0001
0000
,
1001
0000
0001
0000
0000
1000
0010
0000
,
1000
0010
0100
0001
0010
0100
2000
0000
,
0000
0002
0000
0000
,
3003
0000
0000
0000
;

//--------------- dance-single - ----------------
#NOTES:
     dance-single:
     :
     Hard:
     14:
     0.763525,0.764434,0.790794,0.263598,0.499927,588,501,87,29,0,0,0.763525,0.764434,0.790794,0.263598,0.499927,588,501,87,29,0,0:
0000
0000
0000
0000
,
0000
0000
0000
0000
,
1000
0000
0010
0000
0100
0000
0000
0100
0000
0000
0001
0000
1000
0100
0000
0100
,
1000
0000
0001
0010
0100
0000
1000
0001
1000
0000
0010
0000
0100
0001
0000
0001
,
1000
0000
0100
0010
0100
0000
0000
0100
0000
0000
1000
0000
0001
0100
0000
0100
,
0001
0000
0010
0000
0100
0000
1000
0001
1000
0000
0010
0000
0100
0001
0000
0001
,
0010
0000
0100
0000
1100
0000
1000
0010
0100
0000
0010
0000
0100
0001
0000
0100
,
0001
0000
0010
0000
0110
0000
0100
1000
0001
0000
0010
0000
0100
1000
0000
0100
,
1000
0001
0101
0001
1001
1000
1100
1000
,
1001
0001
1100
1100
0101
0101
0110
0000
,
1001
0000
0000
0000
1000
0000
0001
0100
0001
0000
1000
0000
0001
0000
1000
0100
,
1000
0000
0001
0000
1000
0000
0010
0100
0001
0000
0001
0010
0200
0000
1000
0000
,
1300
0000
0001
0000
1001
0000
1000
0010
1000
0000
0001
0000
1000
0000
0001
0010
,
0001
0000
1000
0000
0010
0000
1000
0010
0100
0000
0100
0001
0010
0100
0000
1000
,
0001
0000
0100
0000
0101
0000
1000
0010
1000
0000
0100
0000
1100
0000
0001
0010
,
0001
0100
0101
0001
0011
0000
1100
1000
,
1010
0000
0000
0000
1001
0000
1000
0010
0100
0000
0010
0000
1001
0000
0001
0010
,
0100
0000
0010
0000
1100
0000
1001
0000
0011
0000
0110
0000
0100
1000
0100
1000
,
0001
0000
0110
0000
1001
1000
0010
0100
,
0001
1000
1100
0001
0101
1000
2001
0000
,
3100
0000
1010
0000
0101
1000
0101
0000
,
1100
0001
1100
0001
1000
0010
0100
0001
,
1001
0000
0011
0100
1000
0010
1010
0100
,
0001
0010
0011
0100
1100
0010
1001
0000
,
1100
0000
0001
0000
0100
0000
0000
0010
1000
0000
0001
0000
0010
0000
0100
0000
,
1000
0000
0001
0000
1000
0000
0001
0100
0001
0000
1000
0100
1000
0000
0001
0000
,
0011
0000
0000
0000
1100
0000
1000
0010
0100
0000
0010
0000
0101
0000
0001
0010
,
0100
0000
0010
0000
1100
0000
1000
0001
0100
0000
0010
1000
0100
0000
0000
0000
,
0110
0000
0000
0000
1100
0000
0000
0010
0001
0000
1000
0000
0001
0000
0100
1000
,
0001
0000
0010
0000
1000
0000
0001
0010
1000
0000
0001
0000
0100
0000
1000
0000
,
0110
0000
0000
0000
0101
0000
0001
0010
0100
0000
0010
0000
1100
0000
1000
0010
,
0100
0000
0010
0000
0101
0000
0001
1000
0100
0000
0010
0001
0100
0000
0000
0000
,
0110
0000
0101
0001
1001
1000
1100
0000
,
0110
0000
0100
0000
1001
0000
0010
1000
0001
0000
0001
0010
0100
1000
0001
0100
,
0010
0110
0000
0110
1010
1001
0011
0100
,
1001
0000
0001
0000
0010
0000
0001
0100
0010
0000
0100
0000
0010
0000
1000
0100
,
0010
0000
0100
0000
1100
0000
0010
0000
0101
0000
0001
0000
1000
0100
0000
0100
,
1000
0000
0010
0000
0110
0000
0100
0001
0010
0000
0100
0000
0010
0000
0100
1000
,
0010
0000
0100
0000
0001
0000
1000
0000
1001
0000
0001
0000
1000
0010
0000
0010
,
0100
0000
0001
0000
1100
0000
1000
0010
0200
0000
0301
0010
2000
0000
3002
0000
,
0203
0000
2300
0000
3010
1000
0001
0100
2000
0000
3200
0000
0302
0000
0013
0000
,
0110
0100
1001
0000
0110
1000
0001
0100
,
0101
0000
0010
0000
1010
0000
0100
0001
0010
0000
0100
1000
0010
0200
0000
0000
,
0001
0000
0000
0301
0000
0000
1100
0000
0000
0010
0001
0010
0002
0000
0000
1003
0000
0000
0101
0000
0000
0010
1000
0010
,
2000
0000
3001
0000
0001
0100
0001
1000
0100
1000
0100
0010
0002
0000
1000
0000
,
1003
0000
0000
0000
1000
0100
0010
0001
1000
0100
0010
0001
1000
0010
0100
0001
,
1000
0010
0100
0001
1000
0000
1100
0000
0001
0000
0101
0000
0110
0000
0000
0000
,
1001
0000
0100
0000
1001
0000
0001
0100
0010
0000
1000
0000
0001
0010
0000
0001
,
0010
0000
0100
0000
1000
0000
0001
0100
0001
0000
1000
0000
0010
1000
0000
1000
,
0100
0000
0010
0000
1001
0000
1000
0010
0100
0000
0010
0000
1000
0100
0000
1000
,
0001
0000
0010
0000
0100
0000
0001
0100
1000
0000
1000
0000
0001
0100
0000
0001
,
1000
0000
0010
0000
1001
0000
0001
0100
0020
0000
0100
0000
1030
0000
0001
0010
,
0200
0000
0010
0000
1300
0000
0010
1000
0001
0000
0010
0000
0100
1000
0000
1000
,
0001
0000
0010
0000
0011
0000
0100
1000
0100
0000
1000
0000
1010
0000
0100
0001
,
0100
0000
0001
0000
0011
0000
1000
0000
1100
0000
0001
0000
1000
0100
0010
0001
,
2000
0000
0000
0000
3002
0000
0000
0203
0000
0000
0320
0000
2030
0000
0000
3002
,
0000
0023
0230
2300
3002
0203
0320
0000
,
0000
0000
0000
0000
0000
0000
0130
0001
2000
0000
0000
0000
0000
0000
0000
0000
0000
0000
0000
0000
0000
0000
0000
0000
0000
0000
0000
0000
0000
0000
0000
0000
,
3000
0000
0000
0000
;

//--------------- dance-single - ----------------
#NOTES:
     dance-single:
     :
     Challenge:
     16:
     0.805078,0.817154,0.65445,1.608857,0.672629,620,548,72,177,0,0,0.805078,0.817154,0.65445,1.608857,0.672629,620,548,72,177,0,0:
0000
0000
0000
0000
,
0000
0000
0000
0000
,
2100
0000
0010
0000
3200
0000
0000
0010
0000
0000
2300
0000
3001
0200
0000
0310
,
2000
0000
3001
0010
0200
0000
0301
0100
1000
0010
0100
0001
0010
0200
0000
1300
,
0002
0000
1003
0010
0200
0000
0000
1000
0000
0000
0320
0000
1030
0200
0000
0310
,
0002
0000
0100
0000
1003
0010
0100
1000
0100
0010
1000
0100
0010
0002
0000
1003
,
0020
0000
0130
0000
0210
0000
0310
1000
0002
0000
0010
0000
0013
0200
0000
1300
,
0002
0000
0103
0000
0120
0000
1030
0001
0200
0000
0010
0000
0310
2000
0000
0001
,
3020
0130
0021
0031
0102
0103
1200
1300
,
2010
3010
0011
1100
1010
0101
0110
0000
,
1001
0000
0000
0000
0000
0000
1100
0000
0000
1000
0100
0010
0200
0000
0000
0010
0000
0000
2300
0000
0000
3001
0100
0010
,
0200
0000
0010
0000
0302
0000
0013
0100
1000
0000
0100
1000
0010
0000
0110
0000
,
0210
0000
0000
0010
0000
0000
0301
0000
0000
0010
0100
1000
0020
0000
0000
0100
0000
0000
2030
0000
0000
3010
0100
0001
,
0020
0000
0100
0000
0032
0000
0103
0010
0100
0000
0010
1000
0100
0010
0000
0001
,
2000
0000
0000
0100
0000
0000
3001
0000
0000
0001
0010
0100
2000
0000
0000
0010
0000
0000
3020
0000
0000
1030
0010
0100
,
0002
0103
2001
3010
0120
1030
1002
0103
,
0210
0000
0000
0301
0000
0000
1001
0000
0000
1000
0010
0100
2000
0000
0000
3100
0000
0000
1001
0000
0000
0001
0010
0100
,
0002
0000
0103
0000
1001
0000
0011
0000
0110
0000
1100
0000
0001
0010
0100
1000
,
0002
0000
0023
0100
0032
1003
1200
1300
,
0201
0000
0302
0000
0203
0000
0010
2300
0001
0000
3010
0200
0001
0000
0310
0000
,
0220
0330
0002
0100
2003
3001
0201
0301
,
1200
0000
1300
0000
0200
0000
0010
0302
1000
0000
0013
0200
1000
0000
0310
0000
,
2002
3003
0120
1000
0100
1030
0210
0001
,
0010
0301
2001
3100
1002
0103
0220
0330
,
2000
0000
3200
0000
0320
0000
0000
0031
2000
0000
3020
0000
0100
0000
0130
0001
,
0020
0000
1000
0000
1030
0010
0001
1000
0001
1000
0010
0001
2000
0000
3100
0000
,
1001
0000
0000
0000
0000
0000
0002
0000
0000
1003
0010
0100
0020
0000
0000
0100
0000
0000
2030
0000
0000
3001
0010
0100
,
0020
0000
0000
0000
0000
0000
0100
0000
0000
0000
0000
0000
0032
0000
0000
0000
0000
0000
1003
0000
0010
0000
0100
0000
0020
0000
0000
0000
0000
0000
0130
0000
0000
0001
0000
0000
2000
0000
0000
0000
0000
0000
0000
0000
0000
0000
0000
0000
,
3001
0000
0000
0000
0012
0000
0000
0013
0200
0000
0010
0000
2300
0000
3001
0100
,
2000
0000
3100
0000
0120
0000
1030
0001
0200
0000
1000
0000
0302
0000
1003
0100
,
0010
0000
0000
0100
0000
0000
0010
0000
0000
0001
0000
0000
2000
0000
0000
0000
0000
0000
3001
0000
0100
0000
0010
0000
0200
0000
0000
0000
0000
0000
0010
0000
0000
0000
0000
0000
0302
0000
0000
0000
0000
0000
1003
0000
0100
0000
0010
0000
,
0200
0000
0000
0000
0000
0000
0010
0000
0000
0000
0000
0000
2300
0000
0000
0000
0000
0000
3001
0000
0100
0000
0010
0000
0200
0000
0000
0000
0000
0000
0310
0000
0000
1000
0000
0000
0002
0000
0000
0000
0000
0000
0000
0000
0000
0000
0000
0000
,
1003
0000
2010
3100
0012
0103
1001
0000
,
1001
0000
0000
0000
0000
0000
0001
0000
0000
0000
0000
0000
1000
0000
0000
0100
0000
0000
0001
0000
0000
0100
0000
0000
1000
0000
0000
0001
0000
0000
1000
0000
0000
0001
0000
0000
0100
0000
0000
1000
0000
0000
0100
0000
0001
0000
0010
0000
,
0100
0110
0000
1100
1001
0101
1001
1020
,
0130
0000
0201
0000
0320
0000
0130
0001
0020
0000
0130
0000
1200
0000
0310
0001
,
0200
0000
0010
0000
1000
0000
0001
0000
0320
0000
1000
0000
0130
0002
0000
1000
,
0203
0000
0310
0000
1100
0000
1000
0020
0001
0000
0230
0000
0010
0000
0301
0020
,
1000
0000
0230
0000
0010
0000
0310
0000
0120
0000
1000
0000
0031
0200
0000
0310
,
2000
0000
3100
0000
0120
0000
0130
2000
0001
0000
3001
0020
0100
0000
1000
0000
,
0032
0000
0100
0000
1003
0010
0100
0020
0001
0000
0100
0000
2030
0000
0100
0000
,
3002
0010
2003
3010
0120
2030
3020
0130
,
0102
0000
0010
0000
0203
0000
0310
1000
0002
0000
0010
0000
0013
0100
0000
0000
,
2100
0000
0000
0001
0000
0000
3020
0000
0000
0130
0001
1000
0200
0000
0000
0001
0000
0000
2300
0000
0000
3001
1000
0010
,
0200
0000
1000
0000
0301
0010
0100
1000
0010
0001
1000
0100
0001
0000
1001
0000
,
1001
0000
0000
0000
1000
0100
0010
0001
1000
0001
0010
0100
1000
0010
0100
1000
,
0001
0000
0010
0000
0100
0000
0001
0000
1000
0000
0000
0000
1100
0000
0000
0000
0100
0010
0100
0010
0100
0000
1000
0000
0001
0000
0000
0000
0100
0000
0000
0000
,
1002
0000
0010
0000
0203
0000
0301
0020
0100
0000
0001
0000
0130
2000
0000
3010
,
0200
0000
0000
0000
0000
0000
1000
0000
0000
0000
0000
0000
0302
0000
0000
0000
0000
0000
0013
0000
0100
0000
1000
0000
0020
0000
0000
0000
0000
0000
0100
0000
0000
0000
0000
0000
1030
0000
0000
0002
0000
0000
0000
0000
0000
0013
0000
0000
,
0200
0000
1000
0000
0320
0000
0031
0100
0020
0000
0001
0000
1030
0020
0000
0130
,
0002
0000
0000
0000
0000
0000
1000
0000
0000
0000
0000
0000
0023
0000
0000
0000
0000
0000
0130
0000
1000
0000
0010
0000
0200
0000
0000
0000
0000
0000
1000
0000
0000
0000
0000
0000
0301
0000
0000
0020
0000
0000
0000
0000
0000
0031
0000
0000
,
2000
0000
0000
3010
0000
0000
2001
0000
0000
3001
0010
0200
0001
0000
0000
1300
0000
0000
1002
0000
0000
1003
0010
0200
,
1000
0000
0000
0000
0000
0000
0301
0000
0000
0000
0000
0000
2001
0000
0000
0000
0000
0000
3001
0000
0010
0000
0200
0000
1000
0000
0000
0000
0000
0000
0010
0000
0000
0000
0000
0000
1300
0000
0000
0020
0000
0000
0000
0000
0000
0130
0000
0000
,
0002
0103
1020
1030
2100
3100
0201
0301
,
0012
0000
0013
0000
1001
0000
1100
0000
0101
0000
1001
0000
0001
0010
0100
1000
,
0020
0000
0000
0000
0230
0000
0000
0302
0000
0000
0023
0000
0230
0000
0000
2300
,
0000
3002
0203
0320
2030
3002
2003
0000
,
0000
0000
0000
0000
0000
0000
3001
0100
0020
0000
0000
0000
0000
0000
0000
0000
0000
0000
0000
0000
0000
0000
0000
0000
0000
0000
0000
0000
0000
0000
0000
0000
,
0030
0000
0000
0000
;
