#TITLE:Touch off;
#SUBTITLE:;
#ARTIST:UVERworld;
#TITLETRANSLIT:Touch off;
#SUBTITLETRANSLIT:;
#ARTISTTRANSLIT:UVERworld;
#GENRE:ANIME;
#CREDIT:;
#MUSIC:Touch off.ogg;
#BANNER:Touch off.png;
#BACKGROUND:Touch off-bg.png;
#CDTITLE:;
#SAMPLESTART:66.855;
#SAMPLELENGTH:18.787;
#SELECTABLE:YES;
#OFFSET:-0.257;
#BPMS:0.000=100.000;
#STOPS:;
#BGCHANGES:1.500=Touch off.avi=1.000=0=0=0=StretchNoLoop====,
99999.000=-nosongbg-=1.000=0=0=0=StretchNoLoop====
;
#FGCHANGES:;

//--------------- dance-single - ----------------
#NOTES:
     dance-single:
     :
     Hard:
     12:
     0,0,0,0,0:
0000
0000
0000
0000
,
0001
0100
0001
0100
0000
0000
1001
0000
1000
0100
0000
0010
0001
1000
0001
0000
,
1000
0100
1000
0100
0010
0000
0001
0010
0001
1000
0100
1000
0010
0000
0100
0010
,
0100
0000
0000
0000
0000
0000
0000
0000
0001
0000
0000
0000
0100
0000
0000
0000
0001
0000
0000
0000
0000
0000
0000
0000
1000
0000
0000
0000
0001
0000
0000
0000
1000
0000
0000
0000
0000
0000
0000
0000
1100
0000
0000
0000
0000
0000
0000
0000
0110
0000
0000
0000
0000
0000
0000
0110
0000
0000
0000
0000
0000
0000
0000
0001
,
0000
0000
0000
0100
0000
0000
0000
0010
0000
0000
0000
1000
0000
0000
0000
0000
0000
0000
0000
1010
0000
0000
0000
0000
0000
0000
0000
0000
1001
0000
0000
0000
0000
0000
0000
0000
0110
0000
0000
0000
0000
0000
0000
0000
0000
0000
0000
1001
0000
0000
0000
0000
0000
0000
0000
1000
0000
0000
0000
0100
0000
0000
0000
1000
,
0000
0000
0000
0001
0000
0000
0000
0010
0000
0000
0000
0100
0000
0000
0000
0000
0000
0000
0000
1000
0000
0000
0000
0001
0000
0000
0000
0200
0000
0000
0000
0000
0000
0000
0000
0000
0000
0000
0000
0300
0000
0000
0000
0000
0000
0000
0000
0000
1010
0000
0000
0000
0000
0000
0000
0000
0000
0000
0000
0000
0000
0000
0000
0000
,
0001
0100
0000
0001
1000
0000
1000
0001
0000
1000
0100
0000
1000
0100
1000
0010
,
0100
0001
0000
0100
0010
0000
0010
1000
0000
0010
1000
0010
0100
1000
0100
0001
,
0010
0001
0000
0010
0100
0000
0010
1000
0000
0010
0001
0010
0100
1000
0010
0100
,
0001
1000
0000
1000
0001
0000
0001
0100
0000
0100
1000
0000
0100
0001
0100
0001
,
1000
0100
1000
0100
1000
0000
0001
0100
0001
0100
0001
0000
0100
0010
0100
0010
,
1000
0100
0010
0001
1000
0000
0001
0100
0010
1000
0001
0000
0001
0010
0100
0010
,
0001
0000
1001
0000
0000
1000
0010
0100
0010
0000
1001
0000
0000
0001
0100
0010
,
1000
0000
1010
0000
0000
1000
0100
0010
0100
1000
0001
0000
0000
0001
0100
1000
,
0100
1000
0001
0010
1000
0100
0001
0100
0001
1000
0010
0000
0000
0010
0001
0100
,
0010
0000
0010
1000
1001
0000
1001
0000
0000
1000
0100
0010
0100
1000
0001
0100
,
0010
0000
1001
0000
0000
1000
0001
0100
0010
0000
1001
0000
0000
1000
0100
0001
,
0100
0001
1000
0010
0001
0100
1000
0100
0010
0000
1001
0000
0000
0000
2000
0000
,
3002
0000
0103
0001
1000
0100
0010
0100
1000
0001
0100
0001
1000
0000
1010
0000
,
0100
0001
1000
0010
0110
0000
0000
0100
0001
0000
0011
0000
0010
0100
1000
0100
,
1000
0000
0000
1000
0100
0000
0010
0001
0100
0001
0000
0001
1000
0100
1000
0010
,
0000
0110
0000
0000
0110
0000
0000
0000
1010
0000
0100
0001
0000
0001
1000
0100
,
0000
0100
1000
0010
0000
0010
0100
0001
0000
0011
0000
0110
0000
0100
1000
0001
,
0000
0101
0000
0001
1000
0000
0000
1000
0010
0000
0100
0010
0000
0001
0010
0100
,
0000
0100
0001
1000
0000
0000
0000
1000
0100
0010
0000
0011
0000
1100
0000
0011
,
0000
0001
0010
0000
0110
0000
0000
0100
1000
0000
1000
0010
0000
0110
0000
1001
,
0000
0011
0000
0101
0000
0011
0000
1001
0000
1010
0000
1100
0000
1000
0001
0000
,
0110
0000
0000
0000
0110
0000
0000
0000
0110
0000
0000
0000
0000
0001
0100
0010
,
1000
0000
1000
0100
0010
0100
0000
0110
0000
0000
0011
0000
0001
1000
0001
0100
,
0010
0100
1000
0100
0010
1000
0000
1010
0000
0000
1000
0000
0100
1000
0010
0000
,
0100
0000
0000
0000
0001
0000
0000
0000
1000
0000
0000
0000
0000
0000
0000
0000
0100
0000
0000
0000
0010
0000
0000
0000
0100
0000
0000
0000
1000
0000
0000
0000
0000
0000
0000
0000
1100
0000
0000
0000
0000
0000
0000
0000
0000
0000
0000
1001
0000
0000
0000
0000
0000
0000
0000
0001
0000
0000
0000
0100
0000
0000
0000
0001
,
0000
0000
0000
1000
0000
0000
0000
0100
0000
0000
0000
1000
0000
0000
0000
0000
0000
0000
0000
1000
0000
0000
0000
0010
0000
0000
0000
0100
0000
0000
0000
0000
0000
0000
0000
0000
0000
0000
0000
0000
1001
0000
0000
0000
0000
0000
0000
0000
0000
0000
0000
0000
0100
0000
0000
0000
0001
0000
0000
0000
0100
0000
0000
0000
,
0001
0000
0000
0001
0100
0010
0000
1010
0000
0000
1001
0000
0100
1000
0010
0100
,
0001
0000
0001
0010
0100
1000
0010
0001
0000
0000
0110
0000
0010
1000
0010
1000
,
0100
0000
0000
0000
0010
0000
0000
0000
0001
0000
0000
0000
0100
0000
0000
0000
0001
0000
0000
0000
0100
0000
0000
0000
0010
0000
0000
0000
1000
0000
0000
0000
0000
0000
0000
0000
1010
0000
0000
0000
0000
0000
0000
0000
0000
0000
0000
1001
0000
0000
0000
0000
0000
0000
0000
1000
0000
0000
0000
0100
0000
0000
0000
1000
,
0000
0000
0000
0001
0000
0000
0000
0100
0000
0000
0000
0001
0000
0000
0000
0000
0000
0000
0000
0001
0000
0000
0000
0010
0000
0000
0000
0100
0000
0000
0000
0000
0000
0000
0000
0000
0000
0000
0000
0000
0000
0000
0000
0000
0000
0000
0000
0000
1001
0000
0000
0000
0000
0000
0000
0000
1001
0000
0000
0000
0000
0000
0000
0000
,
0001
0000
0000
0000
0100
0000
0000
0000
1000
0000
0000
0000
0000
0000
0000
0000
1000
0000
0000
0000
0100
0000
0000
0000
0001
0000
0000
0000
0010
0000
0000
0000
0000
0000
0000
0000
0110
0000
0000
0000
0000
0000
0000
0000
0000
0000
0000
1001
0000
0000
0000
0000
0000
0000
0000
0001
0000
0000
0000
0010
0000
0000
0000
0100
,
0000
0000
0000
1000
0000
0000
0000
0010
0000
0000
0000
0100
0000
0000
0000
0000
0000
0000
0000
0100
0000
0000
0000
0001
0000
0000
0000
0020
0000
0000
0000
0000
0000
0000
0000
0000
0000
0000
0000
0000
0000
0000
0000
0000
0000
0000
0000
0000
0030
0000
0000
0000
0000
0000
0000
0000
0000
0000
0000
0000
0000
0000
0000
0000
;

//--------------- dance-single - ----------------
#NOTES:
     dance-single:
     :
     Challenge:
     15:
     0.898695,0.853953,1.238784,0.043088,1.335732,584,469,115,4,0,0,0.898695,0.853953,1.238784,0.043088,1.335732,584,469,115,4,0,0:
0000
0000
0000
0000
,
0011
0000
0010
0000
0100
0000
1100
0000
0000
0000
0000
0000
1010
0000
0000
0000
0001
0000
0011
0000
0000
0000
0010
0000
0001
0000
0100
0000
0001
0000
1000
0100
,
1000
0010
0100
0001
0011
0000
0001
0011
0010
0100
1000
0010
1010
0000
0001
0100
,
0101
0000
0000
0000
0000
0000
0000
0000
1000
0000
0000
0000
0100
0000
0000
0000
1100
0000
0000
0000
0000
0000
0000
0000
0001
0000
0000
0000
1000
0000
0000
0000
1001
0000
0000
0000
0000
0000
0000
0000
0011
0000
0000
0000
0000
0000
0000
0000
1100
0000
0000
0000
0000
0000
0000
0011
0000
0000
0000
0000
0000
0000
0000
0010
,
0000
0000
0000
0001
0000
0000
0000
0100
0000
0000
0000
0001
0000
0000
0000
0000
0000
0000
0000
0110
0000
0000
0000
0000
0000
0000
0000
0000
0101
0000
0000
0000
0000
0000
0000
0000
1010
0000
0000
0000
0000
0000
0000
0000
0000
0000
0000
1001
0000
0000
0000
0000
0000
0000
0000
0001
0000
0000
0000
0010
0000
0000
0000
0100
,
0000
0000
0000
1000
0000
0000
0000
0010
0000
0000
0000
0100
0000
0000
0000
0000
0000
0000
0000
0001
0000
0000
0000
0010
0000
0000
0000
0200
0000
0000
0000
0000
0000
0000
0000
0000
0000
0000
0000
0300
0000
0000
0000
0000
0000
0000
0000
0000
0011
0000
0000
0000
0000
0000
0000
0000
0001
0000
0000
0000
0100
0000
0000
0000
,
0001
0011
0000
1000
1100
0000
0010
1010
0000
0001
0011
0000
1000
0100
0010
0001
,
0100
0110
0000
0001
0101
0000
1000
1100
0000
0001
0011
0100
1000
0100
0010
0001
,
0010
0011
0000
0010
0110
0000
1000
1010
0000
0100
1100
0010
0001
0010
1000
0010
,
0001
0011
0000
0100
0101
0000
1000
1100
0000
0010
1010
0000
0100
0101
0001
2000
,
0100
0100
0100
0100
0100
0100
0100
3100
1000
1000
0010
0010
0100
0100
0001
0001
,
0020
0100
0100
0100
0100
0100
0100
0130
0010
0010
0001
0001
0100
0110
0000
0001
,
0011
0000
1001
0000
1100
0100
0010
0001
1001
0000
1001
0000
0011
0001
0100
0010
,
1010
0000
0000
0000
1010
0000
0000
0000
0110
0000
0010
0000
0100
0000
0001
0000
0010
0000
0100
0000
1000
0000
0100
0010
0100
0000
0001
0000
0100
0000
1000
0000
,
0001
0000
0010
0000
0001
0000
0010
0000
0100
0000
1000
0000
0100
0000
1000
0000
0010
0000
0100
0000
0010
0000
0100
0001
1000
0000
0001
0000
0010
0000
0100
0000
,
1100
1000
0010
0100
0101
0000
1001
0000
1010
1000
0100
0001
0100
1000
0001
0010
,
0110
0000
0110
0000
0011
0001
0010
0100
1100
0000
1100
0000
1010
0010
0100
0001
,
1000
0010
0100
0001
0010
0100
1000
0001
0011
0000
0011
0000
1001
0001
0100
0010
,
1000
0100
0010
0001
0100
0010
1000
0100
0010
0001
1000
0001
1001
0000
1100
0000
,
0101
0000
0100
0000
0001
0000
0010
0000
0100
0000
1100
0000
0000
0000
0100
0000
0110
0000
0000
0000
0010
0000
0011
0000
0000
0000
0001
0010
0100
1000
0001
0000
,
0100
0010
0100
0001
0010
0000
0010
0001
0100
0000
0100
0010
1000
0000
1000
0010
,
0001
0010
1000
0001
0010
0000
0010
0001
0100
0000
0100
0001
1000
0000
1000
0100
,
0001
0100
1000
0010
0100
0000
0100
0001
1000
0000
1000
0010
0100
0000
0100
0001
,
1000
0100
0001
0100
1000
0000
1000
0010
0001
0000
0001
0010
1000
0000
1000
0010
,
0100
0001
0010
1000
0010
0001
1000
0100
0001
0100
0010
0001
0100
1000
0100
0010
,
0001
1000
0100
0010
1000
0100
0001
1000
0010
0001
0100
1000
0001
0010
1000
1010
,
0000
0011
0000
0101
0000
1100
0000
1010
0000
0101
0000
0011
0000
1100
0100
0010
,
0011
0000
0000
0000
0110
0000
0000
0000
1001
0000
0000
0000
0000
1001
1000
0100
,
0110
0001
0010
0100
1000
1100
0000
0011
0000
0101
0100
0010
1010
0010
1000
0100
,
0110
0100
0101
0100
1100
1001
0000
1001
0000
1001
1000
0010
0101
0000
1010
0000
,
0011
0000
0000
0000
0001
0000
0000
0000
0101
0000
0000
0000
0000
0000
0000
0000
0011
0000
0000
0000
1000
0000
0000
0000
0100
0000
0000
0000
0010
0000
0000
0000
0001
0000
0000
0000
1100
0000
0000
0000
0000
0000
0000
0000
0000
0000
0000
1001
0000
0000
0000
0000
0000
0000
0000
1000
0000
0000
0000
0010
0000
0000
0000
0100
,
0000
0000
0000
0001
0000
0000
0000
0010
0000
0000
0000
0100
0000
0000
0000
0000
0000
0000
0000
1000
0000
0000
0000
0010
0000
0000
0000
0100
0000
0000
0000
0000
0000
0000
0000
0000
0000
0000
0000
0000
1001
0000
0000
0000
0000
0000
0000
0000
1010
0000
0000
0000
0100
0000
0000
0000
0010
0000
0000
0000
0100
0000
0000
0000
,
1010
0000
0101
0010
1000
0101
0000
0101
0000
0011
0001
0010
0100
1000
0011
1000
,
0010
0100
1010
0001
0010
0100
0011
0011
0000
1100
0010
0100
0011
0000
0011
0001
,
0010
0000
0000
0000
0100
0000
0000
0000
0011
0000
0000
0000
0001
0000
0000
0000
0100
0000
0000
0000
0010
0000
0000
0000
1000
0000
0000
0000
1010
0000
0000
0000
0000
0000
0000
0000
1010
0000
0000
0000
0000
0000
0000
0000
0000
0000
0000
1001
0000
0000
0000
0000
0000
0000
0000
0001
0000
0000
0000
0010
0000
0000
0000
0100
,
0000
0000
0000
1000
0000
0000
0000
0010
0000
0000
0000
0100
0000
0000
0000
0000
0000
0000
0000
0001
0000
0000
0000
0010
0000
0000
0000
0100
0000
0000
0000
0000
0000
0000
0000
0000
0011
0000
0000
0000
0010
0000
0000
0000
0100
0000
0000
0000
1100
0000
0000
0000
0000
0000
0000
0000
0011
0000
0000
0000
0000
0000
0000
0000
,
0001
0000
0000
0000
0100
0000
0000
0000
0010
0000
0000
0000
0000
0000
0000
0000
1000
0000
0000
0000
0100
0000
0000
0000
0010
0000
0000
0000
0001
0000
0000
0000
0000
0000
0000
0000
0010
0000
0000
0000
0000
0000
0000
0000
0000
0000
0000
0100
0000
0000
0000
0000
0000
0000
0000
1000
0000
0000
0000
0100
0000
0000
0000
0010
,
0000
0000
0000
0001
0000
0000
0000
0010
0000
0000
0000
0100
0000
0000
0000
0000
0000
0000
0000
1000
0000
0000
0000
0100
0000
0000
0000
0020
0000
0000
0000
0000
0000
0000
0000
0000
0000
0000
0000
0000
0000
0000
0000
0000
0000
0000
0000
0000
0030
0000
0000
0000
0000
0000
0000
0000
0000
0000
0000
0000
0000
0000
0000
0000
;
