#TITLE:鳥の詩;
#SUBTITLE:;
#ARTIST:Lia;
#TITLETRANSLIT:Tori no Uta;
#SUBTITLETRANSLIT:;
#ARTISTTRANSLIT:Lia;
#GENRE:ANIME;
#CREDIT:;
#BANNER:Tori no Uta.png;
#BACKGROUND:Tori no Uta-bg.png;
#LYRICSPATH:;
#CDTITLE:;
#MUSIC:Tori no Uta.ogg;
#OFFSET:1.905000;
#SAMPLESTART:113.829002;
#SAMPLELENGTH:16.955000;
#LASTBEATHINT:1.799526;
#SELECTABLE:YES;
#BPMS:0.000000=122.091003
;
#STOPS:
;
#BGCHANGES:3.500=Tori no Uta.avi=1.000=0=0=0=====,
99999=-nosongbg-=1.000=0=0=0 // don't automatically add -songbackground-
;
#KEYSOUNDS:;
#ATTACKS:;

//---------------dance-single - ----------------
#NOTES:
     dance-single:
     :
     Hard:
     16:
     0.669218,0.760678,0.223073,0.297430,0.783233,945.000000,900.000000,45.000000,60.000000,0.000000,0.000000,0.669218,0.760678,0.223073,0.297430,0.783233,945.000000,900.000000,45.000000,60.000000,0.000000,0.000000:
0000
0000
0000
0000
,
0000
0000
0000
0000
,
0000
0000
0000
0000
,
0000
0000
0000
0000
,
0000
0000
0000
0000
,
0000
0000
0000
0000
,
0000
0000
0000
0000
,
0000
0000
0000
0000
,
0000
0000
0000
0000
,
0000
0000
0000
0000
0000
0000
0110
0000
1002
0000
0000
0000
1003
0000
0010
0200
,
0000
0301
0010
0100
1000
0000
2000
3002
,
0203
0000
0320
0000
2030
0000
3002
0000
0023
0000
0000
0000
0230
0000
2300
3002
,
0000
0000
0100
0000
0003
0000
0001
1000
0001
0000
0010
0000
0100
0000
2000
0000
,
0000
0000
3001
0000
0200
0000
0320
0000
2030
0000
0000
0000
3002
0000
2003
3200
,
0000
0310
0001
1000
0010
0000
0020
2030
,
3002
0000
0023
0000
0230
0000
2300
0000
3002
0000
0000
2003
0000
0000
3020
0000
,
0000
0130
0001
2000
3200
0000
0320
0000
,
0032
0000
0000
0000
0103
0000
0010
0000
2001
0000
0000
0000
3020
0000
0230
0302
,
0000
1000
1003
0010
0100
0000
0100
0002
,
0203
0000
0320
0000
2030
0000
3002
0000
0023
0000
0000
0000
0230
0000
2300
3002
,
0000
0000
0103
0000
0000
0000
0100
0001
1000
0000
0100
0000
0010
0000
0002
0000
,
0000
0000
0203
0000
0320
0000
2030
0000
3002
0000
0000
0000
2003
0000
3020
0230
,
0000
0001
0301
0010
0100
0000
0020
0032
,
2003
0000
0000
0000
0000
0000
3020
0000
0000
0000
0000
0000
0230
0000
0000
0000
0000
0000
0301
0000
0000
1000
0000
0000
0100
0000
0000
0000
0000
0000
0010
0000
0000
0000
0000
0000
0001
0000
0000
1000
0000
0000
0010
0000
0100
0000
0001
0000
,
1000
0000
0010
0000
0100
0000
0001
0000
1000
0000
0100
0000
0010
0000
0000
0001
0000
0000
1000
0000
0000
0100
0000
0000
0000
0000
0000
0010
0000
0000
0001
0000
0000
0000
0000
0000
1000
0000
0000
0001
0000
0000
0000
0000
0000
1001
0000
0000
,
0000
0001
0010
0100
1000
0000
1100
0000
0100
1000
0010
1000
0100
0000
0010
0001
,
0100
0001
0010
0000
0100
1000
0001
1000
0001
0100
0010
0000
0110
0000
0010
0100
,
0001
0010
0100
1000
0010
0100
0001
0000
0010
0000
0100
0000
1100
0000
1000
0010
,
0100
0000
0001
0010
0000
0100
1000
0000
0001
0000
1000
0010
0000
0100
0001
1000
,
0001
0010
0100
0010
0100
0000
1000
0001
0100
0000
0010
1000
0000
1000
0100
0000
,
0110
0000
0010
0001
0000
0001
0100
0000
0110
0000
0010
1000
0001
0100
0010
0100
,
0001
1000
0001
0010
0100
0000
0010
0000
1001
0000
1000
0000
0100
0000
1000
0001
,
0100
0000
0010
1000
0000
0001
0010
0000
0100
0000
1000
0010
0000
0100
0001
1000
,
0010
0100
0010
1000
0001
0000
0010
0100
1000
0000
0001
0010
0000
0100
1000
0000
,
0001
1000
0001
1000
0001
1000
0001
1000
0001
0010
0100
1000
0001
0100
0010
1000
,
0001
0010
0100
1000
0001
0100
0010
1000
0001
0000
0010
0100
0010
0000
0001
1000
,
0010
0000
0100
0001
0000
0001
0010
0000
0100
0000
1000
0010
0000
0010
0100
0001
,
1000
0100
0010
0001
1000
0000
0010
0000
0110
0000
0100
0001
0000
0001
1000
0000
,
1001
0000
0001
0010
0000
0010
0100
0000
1000
0100
0010
0001
1000
0010
0100
0000
,
0001
1000
0100
1000
0010
0000
0100
0001
1000
0000
0001
0000
1000
0000
0001
0100
,
0010
0000
0010
1000
0000
1000
0001
0000
0010
0000
0100
1000
0001
0000
0100
0000
,
0010
0000
0100
0001
1000
0000
0100
0000
0010
0000
0001
1000
0000
0001
0100
0000
,
0010
0000
1000
0001
0000
1000
0100
0000
0010
0001
0100
0010
0100
0001
0010
0100
,
1000
0010
0100
0010
1000
0100
0010
0001
1001
0000
0001
0100
0010
0000
0100
0001
,
0000
0001
1000
0000
0100
0010
0100
1000
0001
0000
0100
0000
0101
0000
1000
0000
,
1100
0000
0001
0000
0011
0000
0010
0100
1000
0000
0001
0000
0100
0001
0010
0100
,
1000
0000
1000
0010
0000
0100
0001
1000
0100
0000
0110
0000
0001
0000
1000
0000
,
0010
0100
0001
0010
1000
0000
0010
0000
0110
0000
0100
0000
1000
0010
0100
0010
,
1000
0000
0001
0100
0000
0100
0001
0010
0100
0000
1000
0000
0001
1000
0010
1000
,
0001
0000
0010
0000
0100
1000
0001
0100
1000
0000
0100
0010
0100
0000
0001
0010
,
1000
0000
0010
0001
0000
0001
1000
0000
0001
0010
0100
1000
0001
1000
0100
0010
,
0001
1000
0001
0100
0010
1000
0010
0100
0002
0000
1000
0000
0100
0000
1003
0010
,
0100
0000
0001
0010
0000
0100
1000
0000
0001
0100
0010
1000
0002
0000
0010
0000
,
0013
0100
1000
0001
0100
0000
0010
0000
1010
0000
1000
0000
0010
0100
0001
1000
,
0100
0000
0010
0001
0000
1000
0010
0000
0100
0001
0010
0000
0100
1000
0010
0100
,
0001
1000
0001
0010
0100
0000
0110
0000
1001
0000
1000
0000
0001
0010
0100
1000
,
0001
0000
1000
0010
0000
0010
1000
0001
1000
0100
0001
0000
0100
0000
1000
0001
,
0000
1000
0010
0100
0001
0000
0101
0000
1010
0000
0010
0000
1001
0000
0001
0010
,
0100
0000
0000
0000
0000
0000
1000
0000
0000
0001
0000
0000
0000
0000
0000
0001
0000
0000
1000
0000
0100
0000
0010
0000
0001
0000
0000
0000
0000
0000
0000
0000
0000
0000
0000
0000
1001
0000
0000
0000
0000
0000
0001
0000
0010
0000
0100
0000
,
1000
0000
0010
0000
0100
0000
0001
0000
0010
0000
0100
0000
1000
0000
0010
0000
0100
0000
0001
0000
0010
0000
0100
0000
1000
0000
0000
0000
0000
0000
0001
0000
0000
0000
0000
0000
0100
0000
0000
0001
0000
0000
0010
0000
0000
0100
0000
0000
,
1000
0000
0010
1000
0000
0100
0010
0001
1000
0000
0001
0000
1000
0100
0001
0100
,
1000
0000
1001
0000
0001
0100
1000
0100
0001
0000
1000
0010
1000
0001
0010
0100
,
1000
0000
0001
0010
0000
0100
1000
0000
0001
0100
0010
1000
0100
0010
0100
1000
,
0001
0000
0100
0010
0100
0000
0001
0000
1001
0000
1000
0100
0010
0000
0100
1000
,
0000
0001
0100
0000
0010
1000
0100
0010
0001
0000
1000
0010
0001
0000
0010
0100
,
0010
0000
1000
0100
0001
0000
0100
0000
1001
0000
1000
0001
0100
0010
1000
0100
,
0010
0001
0010
0100
1000
0010
0100
0001
0011
0000
1000
0000
1100
0000
0100
1000
,
0010
0000
0100
0001
0010
0000
0100
0000
0110
0000
0010
0001
1000
0000
0001
0100
,
0000
0010
1000
0000
0100
0010
0001
0010
0100
0000
1000
0001
0100
0010
1000
0100
,
0001
0000
0100
0010
0100
0000
1000
0010
0001
0000
0010
0000
0100
0010
0100
0001
,
1000
0000
0001
0010
0000
0100
1000
0000
0010
1000
0010
1000
0100
0000
0010
0001
,
0010
0001
1000
0010
0100
0000
0001
1000
0100
0000
0010
0001
1000
0000
0010
0100
,
0000
0001
1000
0000
0001
0010
0100
1000
0001
0000
1000
0010
0001
0000
0010
0000
,
0100
0001
0010
0100
0010
0001
1000
0010
0100
0000
0110
0000
0010
1000
0000
0001
,
0010
0000
0110
0000
0100
1000
0001
0100
1000
0000
0001
0010
0100
1000
0100
0001
,
0010
0100
1000
0001
0010
0000
0100
1000
0001
0000
0100
0000
1000
0100
0010
1000
,
0100
0010
0001
0010
0100
1000
0001
0100
0010
0000
0110
0000
0100
0001
0010
1000
,
0010
0001
1000
0001
0100
1000
0100
0001
1000
0000
0001
0000
1001
0000
1000
0010
,
0100
0001
0010
1100
0010
0101
0010
0110
,
1000
0000
0000
0000
0000
0000
0001
0000
0000
0010
0000
0000
0100
0000
0000
0000
0000
0000
0010
0000
0000
0100
0000
0000
1000
0000
0000
0000
0000
0000
0001
0000
0100
0000
0001
0000
0100
0000
0000
0000
0000
0000
0110
0000
0000
0000
0000
0000
,
0010
0000
1000
0000
0001
0010
0100
0010
0001
0000
1000
0100
0010
0100
1000
0100
,
0010
0001
0010
0100
0010
0001
1000
0000
1001
0000
0001
0100
0010
0000
0100
0000
,
1001
0000
1000
0100
0010
0000
0011
0000
0001
0000
1000
0010
0100
0000
0101
0000
,
0001
0000
1000
0100
0001
0000
0100
0000
0110
0000
0010
0001
1000
0000
0010
0000
,
0110
0000
0100
0001
1000
0000
0001
0010
0100
0000
0010
0001
0100
0010
0100
0001
,
1000
0100
0010
0100
1000
0010
0001
1000
0100
0000
0001
0000
0010
0000
0100
0000
,
0000
1000
0000
0001
0100
0010
1000
0001
,
0000
0010
0000
0100
1000
0001
0100
0010
,
0000
0100
0000
0010
1000
0001
0010
0100
,
0000
1000
0000
0010
0100
0001
1000
0100
,
0000
0000
0000
0000
0010
0000
0000
0000
0000
0000
0000
0000
0001
0000
0000
0000
0000
1000
0000
0000
0000
0010
0000
0000
0000
0100
0000
0000
0000
0001
0000
0000
,
0000
0000
0010
0000
0000
0000
0100
0000
0000
0000
0000
0000
0000
0000
0000
1000
0000
0000
0000
0000
0001
0000
0010
0000
0100
0000
0000
0000
1000
0000
0000
0000
,
0000
0001
0000
0000
0000
0000
0000
0000
0100
0000
0000
0000
0000
0000
0000
0010
0000
0000
0000
0000
0000
0000
1000
0000
0000
0000
0000
0000
0000
0000
0000
0001
0000
0000
0000
0000
0000
0000
0000
0000
0000
0000
1000
0000
0100
0000
0010
0000
,
0001
0000
0000
0000
;

//---------------dance-single - ----------------
#NOTES:
     dance-single:
     :
     Challenge:
     18:
     0.821474,0.922343,0.317259,0.654346,1.169892,1160.000000,1096.000000,64.000000,132.000000,0.000000,0.000000,0.821474,0.922343,0.317259,0.654346,1.169892,1160.000000,1096.000000,64.000000,132.000000,0.000000,0.000000:
// measure 0
0000
0000
0000
0000
,  // measure 1
0000
0000
0000
0000
,  // measure 2
0000
0000
0000
0000
,  // measure 3
0000
0000
0000
0000
,  // measure 4
0000
0000
0000
0000
,  // measure 5
0000
0000
0000
0000
,  // measure 6
0000
0000
0000
0000
,  // measure 7
0000
0000
0000
0000
,  // measure 8
0000
0000
0000
0000
,  // measure 9
0000
0000
0000
0000
0000
0000
0110
0000
1002
0000
0100
0000
1003
0000
0010
0200
,  // measure 10
0001
0000
0010
0000
0301
0010
0100
1000
0001
0000
0100
0010
2000
0000
3001
0010
,  // measure 11
0200
0000
1300
0001
0020
0000
0130
1000
0002
0000
0100
0000
0203
0000
0302
2003
,  // measure 12
0010
0000
0001
0000
3010
0100
0010
0100
0002
0000
0023
0000
0230
0000
2300
0000
,  // measure 13
0010
0000
3002
0000
0013
0100
1000
0001
2000
0000
0010
0000
3010
0000
0100
0002
,  // measure 14
1000
0000
0100
0000
1003
0010
0100
0001
1000
0000
0100
0010
0002
0000
1003
0010
,  // measure 15
0200
0000
0301
0010
0200
0000
2300
0001
3020
0000
0130
1000
0000
1000
0002
0000
,  // measure 16
0100
0000
1000
0000
0103
0001
0010
0100
2000
0000
0010
0000
3020
0000
0100
0000
,  // measure 17
0230
0000
0001
0000
0301
0000
0010
0100
2001
0000
0010
0000
3020
0000
0130
0002
,  // measure 18
1000
0000
0010
0000
0013
0100
1000
0001
1000
0000
0010
0000
0200
0000
0301
0010
,  // measure 19
0200
0000
1300
0010
0200
0000
0302
0010
0203
0000
1000
0000
1300
0000
0001
0200
,  // measure 20
0010
0000
0001
0000
0301
0010
0100
1000
0002
0000
0203
0000
0320
0000
2030
0000
,  // measure 21
0001
0000
3002
0000
1003
0100
1000
0100
0020
0000
0001
0000
0230
0000
1300
0002
,  // measure 22
0100
0000
1000
0000
1003
0010
0100
0001
2000
0000
0100
0000
3010
0100
0001
0010
,  // measure 23
0100
0000
1000
0000
0001
0000
1000
0000
0010
0000
0100
0000
0001
1000
0001
1000
0100
0000
0000
0000
0010
0000
0000
0000
0001
0000
1000
0000
0100
1000
0100
1000
,  // measure 24
0001
0100
0001
0100
0001
0010
0100
1000
0001
0000
1000
0000
0010
0000
0100
0000
0000
0000
0001
0000
0101
0000
0000
0000
1000
0000
1100
0000
0000
0000
1001
0000
,  // measure 25
0000
0001
0010
0100
1100
0000
1001
0000
0101
0001
1000
0001
0101
0000
1100
1000
,  // measure 26
0001
1000
1100
0000
0100
1000
0001
0100
0110
0010
1000
0000
1001
0001
0000
1000
,  // measure 27
1100
0100
1000
0001
0100
0010
1000
0000
1001
0000
0010
0000
0110
0000
1000
0001
,  // measure 28
0010
0100
1000
0001
0000
0100
0010
0100
0001
0010
0100
0010
0001
1000
0010
1000
,  // measure 29
0001
0100
0001
0100
0001
0000
0010
0000
0100
0000
0000
0000
1000
0001
0100
0000
0010
0000
0000
0000
0100
0000
0001
0000
0000
0000
0001
0000
0010
0000
0000
0000
,  // measure 30
0110
0000
0100
1000
0000
1000
0010
0000
0110
0000
0100
0001
1000
0100
0010
0100
,  // measure 31
1000
0001
1000
0001
1000
0000
0010
0000
0100
0000
0000
0000
0100
0000
0001
0000
1001
0000
0000
0000
1000
0000
0000
0000
0100
0000
0010
0000
0001
0000
1000
0000
,  // measure 32
0010
0000
0100
0001
0000
1000
0100
0000
0010
0000
0001
0010
0000
0100
1000
0001
,  // measure 33
0100
0010
0100
0010
0100
0000
0001
0000
1000
0000
0000
0000
0100
0000
0010
0000
0100
0000
1000
0000
0001
0000
0010
0000
0001
0000
1000
0000
0100
0000
1000
0000
,  // measure 34
0010
0100
0010
0100
0010
0100
0010
0100
0002
0023
0230
2300
3002
0203
0320
2030
,  // measure 35
3002
0023
0230
2300
3002
0203
0320
1030
1001
0000
0001
0100
0010
1000
0001
0010
,  // measure 36
0100
0000
0100
1000
0000
0001
0100
0000
0010
0100
0001
0010
0100
1000
0010
1000
,  // measure 37
0001
0100
0001
0100
0001
0000
1000
0000
0100
0000
0000
0000
0010
0000
0001
0000
1001
0000
0000
0000
1000
0000
0010
0000
0000
0000
0010
0000
0100
0000
0000
0000
,  // measure 38
0110
0000
0001
0010
0000
0010
0100
0000
1000
0100
0010
0001
1000
0010
0100
0001
,  // measure 39
1000
0000
0001
0010
0100
0000
1000
0000
0001
0000
0000
0000
0001
0000
1000
0010
0100
0000
0000
0000
0001
0000
0010
0000
0100
0000
1000
0000
0001
0000
0100
0000
,  // measure 40
0010
0000
0010
1000
0000
1000
0001
0010
0100
0000
0100
1000
0001
0000
0100
0000
,  // measure 41
0010
1000
0100
1000
0001
0000
0100
0000
0010
0100
0001
1000
0100
1000
0001
0010
,  // measure 42
0001
0100
0010
1000
0100
0010
0100
1000
0020
0230
0302
0023
0230
2300
3020
0230
,  // measure 43
0302
0023
0230
2300
3020
0230
0302
1003
1001
0000
0001
0010
0100
0000
0010
0001
,  // measure 44
0000
1000
0001
0000
0100
0010
0100
0001
1000
0010
0100
0001
0101
0100
0001
1000
,  // measure 45
1100
0100
1000
0001
0101
0100
0010
1000
1001
0000
0001
0000
0010
0100
1000
0001
,  // measure 46
1000
0000
0010
0100
0000
0100
0001
1000
0100
0010
0110
0001
1000
0000
1000
0010
,  // measure 47
0100
0001
1000
0001
0100
0000
0110
0000
1001
0000
0001
0000
1000
0010
0100
0010
,  // measure 48
1000
0000
0001
0010
0000
0010
0100
1000
0001
0100
0010
1000
0001
1000
0010
1000
,  // measure 49
0001
0100
0001
1000
0001
0100
0001
1000
1100
0000
0100
0010
0001
1000
0001
0100
,  // measure 50
0101
0000
0001
0010
0100
1000
0001
1000
0002
0023
0230
2300
3002
2003
3200
0320
,  // measure 51
0032
2003
3002
0203
0320
2030
3020
0130
0101
0000
1000
0010
0100
0000
0001
1000
,  // measure 52
0000
0001
0010
0100
1000
0001
0010
0100
1000
0010
0100
0001
1000
0000
0001
0100
,  // measure 53
0001
1000
0010
1000
0001
0100
0001
0010
0110
0000
1000
0100
0010
0100
1000
0001
,  // measure 54
0100
0000
0010
1000
0000
0001
0010
0000
0100
1000
0001
0100
0001
0010
0100
1000
,  // measure 55
0001
1000
0010
0100
0010
0000
0110
0000
1001
0000
1000
0010
0100
0001
0010
0100
,  // measure 56
1000
0000
1000
0010
0000
0010
0100
0001
0010
0100
1000
0010
0100
0001
0100
0010
,  // measure 57
1000
0010
0100
0001
1000
0000
1100
0000
0110
0000
0010
0000
1001
0000
0001
0100
,  // measure 58
0010
0000
0000
0000
1000
0000
0001
0000
0000
0000
0001
0000
1000
0100
0010
0001
1000
0000
0000
0000
0000
0000
0000
0000
1001
0000
0000
0000
0001
1000
0100
1000
,  // measure 59
0001
1000
0100
1000
0001
0100
0001
1000
0001
0100
0001
1000
0001
0010
0100
1000
0010
0000
0000
0000
1000
0000
0000
0000
0001
0000
0100
0000
0010
0000
1000
0000
,  // measure 60
0100
1000
0010
1000
0100
0010
0001
1000
0001
0000
0100
0000
0010
1000
0001
0010
,  // measure 61
1000
0000
0000
0000
0001
0000
0100
0000
1000
0000
0000
0000
0001
0000
0100
0000
0010
0000
0100
0000
0001
1000
0001
1000
0100
0000
0000
0000
0010
0000
0001
0000
,  // measure 62
1000
0000
0010
0100
0000
0100
0001
0000
1000
0010
0100
0001
0010
0100
1000
0001
,  // measure 63
0100
0000
0010
1000
0001
0000
0010
0000
0110
0000
1000
0100
1000
0001
0100
0010
,  // measure 64
0100
0001
0010
0100
1000
0001
0100
0010
1000
0000
0001
0100
1000
0000
1000
0100
,  // measure 65
0001
0000
0001
0010
1000
0000
1000
0010
0001
0100
0010
1000
0001
0010
0100
1000
,  // measure 66
0010
1000
0100
1000
0001
0010
1000
0010
0011
0001
1000
0100
1100
1000
0010
0100
,  // measure 67
0101
0001
1000
0010
0110
0100
0001
1000
1001
0000
0001
0010
0100
0000
1000
0001
,  // measure 68
0000
0100
0010
1000
0100
0010
0001
1000
0010
0000
0010
0100
0001
0010
1000
0010
,  // measure 69
0001
0000
0010
0000
0100
0000
1000
0000
0100
0000
0001
0000
0100
0000
1000
0000
0001
0000
0010
0000
0100
1000
0100
1000
0010
0000
0000
0000
0100
0000
0001
0000
,  // measure 70
1000
0100
1000
0010
0000
0100
0001
0000
0010
0100
1000
0001
0100
0010
1000
0100
,  // measure 71
0010
0100
1000
0100
0010
0001
0100
0010
0110
0000
0100
0001
1000
0000
0001
0010
,  // measure 72
0000
0100
1000
0000
0010
0100
0010
1000
0001
1000
0100
0010
0001
0010
0100
1000
,  // measure 73
0001
0100
1000
0100
0010
1000
0100
0010
0001
0000
0110
0000
1001
0010
0000
0100
,  // measure 74
0010
0000
0110
0000
0001
0010
0100
1000
1100
0000
0101
0001
0100
0010
1000
0100
,  // measure 75
0010
0100
1000
0010
0100
0001
0010
0100
1000
0001
0000
1000
0010
0100
1000
0100
,  // measure 76
0001
0010
1000
0010
0100
1000
0010
1000
1001
0000
1001
0001
0100
1000
0100
0010
,  // measure 77
0001
1000
0001
0010
0100
0001
0010
0100
1000
0000
0100
0000
0011
0000
1000
0010
,  // measure 78
0100
0000
0001
0000
1000
0000
1001
0010
0100
0000
0110
0000
0001
0000
1000
0010
,  // measure 79
0100
0000
0010
0000
1000
0000
0100
0000
0110
0000
0000
0000
0010
0000
0001
0000
1000
0000
0000
0000
0001
0100
0010
1000
0001
0000
0000
0000
1001
0000
0000
0000
,  // measure 80
1000
0000
0001
0100
0001
0010
0100
0010
1001
0000
1000
0000
0010
0100
0001
0100
,  // measure 81
0010
0000
1000
0001
1000
0000
0100
0000
0010
0000
0001
0000
0010
0000
0100
0000
1100
0000
0000
0000
1000
0000
0100
0000
0001
0000
0100
0000
1000
0000
0001
0000
,  // measure 82
1000
0000
0001
0100
1000
0100
0001
1000
0001
0010
0100
1000
1100
0000
0100
1000
,  // measure 83
0001
0000
0100
0000
0010
0000
1000
0000
0001
0000
0000
0000
0010
0000
0100
0000
0010
0000
0001
0000
1000
0010
0100
0001
1000
0000
0010
0000
0100
0000
0001
0000
,  // measure 84
0101
0000
0100
0001
0010
0100
1000
0100
0001
0000
1000
0010
0001
0100
0010
1000
,  // measure 85
0100
0010
0001
0100
1000
0001
0010
1000
0002
0000
0023
0000
0230
0000
2300
0000
,  // measure 86
0100
3020
0100
2030
3002
0203
0320
2030
,  // measure 87
0010
3002
0010
2003
3020
0230
0302
0023
,  // measure 88
0100
0032
0100
2003
3020
0230
0302
2003
,  // measure 89
0010
3002
0100
2003
3002
0203
0320
2030
,  // measure 90
0000
0000
0000
0000
3002
0000
0000
0000
0000
0000
0000
0000
0023
0000
0000
0000
0000
0230
0000
0000
0000
2300
0000
0000
0000
3002
0000
0000
0000
0023
0000
0000
,  // measure 91
0000
0000
0230
0000
0000
0000
2300
0000
0000
0000
0000
0000
0000
0000
0000
3002
0000
0000
0000
0000
0013
0100
1000
0001
0020
0000
0000
0000
0230
0000
0000
0000
,  // measure 92
0000
0000
0000
0000
2300
0000
0000
0000
0000
0000
0000
0000
0000
0000
0000
0000
0000
0000
0000
0000
0000
0000
0000
0000
0000
0000
0000
0000
0000
0000
0000
0000
3002
0000
0000
0000
0000
0000
0000
0000
0000
0000
0000
0000
0000
0000
0000
0000
0000
0000
0000
0000
0000
0000
0000
0000
0000
0000
0000
0000
2003
0000
0000
0000
0000
0000
0000
0000
0000
0000
0000
0000
0000
0000
0000
0000
0000
0000
0000
0000
0000
0000
0000
0000
0000
0000
0000
0000
0020
0000
0000
0000
3000
0000
0000
0000
0000
0000
0000
0000
0000
0000
0000
0000
0000
0000
0000
0000
0000
0000
0000
0000
0000
0000
0000
0000
0000
0000
0000
0000
0000
0000
0000
0000
0230
0000
0000
0000
0000
0000
0000
0000
0000
0000
0000
0000
0000
0000
0000
0000
0000
0000
0000
0000
0000
0000
0000
0000
0000
0000
0000
0000
0000
0000
0000
0000
0000
0000
0000
0000
0000
0000
0000
0000
0000
0000
0000
0000
0301
0000
0000
0000
0000
0000
0010
0000
0000
0000
0000
0000
0100
0000
0000
0000
0000
0000
1000
0000
0000
0000
0000
0000
,  // measure 93
0001
0010
0000
0000
0000
0000
0000
0000
0000
0000
0000
0000
0000
0000
0000
0000
0000
0000
0000
0000
0000
0000
0000
0000
0000
0000
0000
0000
0000
0000
0000
0000
;
