#TITLE:トウキョウ・シャンディ・ランデヴ feat. 花譜, ツミキ;
#SUBTITLE:;
#ARTIST:MAISONdes;
#TITLETRANSLIT:Tokyo Shandy Rendez-vous;
#SUBTITLETRANSLIT:;
#ARTISTTRANSLIT:MAISONdes;
#GENRE:Anime;
#CREDIT:;
#MUSIC:Tokyo Shandy Rendez-vous.ogg;
#BANNER:Tokyo Shandy Rendez-vous.png;
#BACKGROUND:Tokyo Shandy Rendez-vous-bg.png;
#CDTITLE:;
#SAMPLESTART:56.362;
#SAMPLELENGTH:14.891;
#SELECTABLE:YES;
#OFFSET:0.572;
#BPMS:0.000=137.000;
#STOPS:;
#BGCHANGES:1.000=Tokyo Shandy Rendez-vous.avi=1.000=0=0=0=StretchNoLoop====,
99999.000=-nosongbg-=1.000=0=0=0=StretchNoLoop====
;
#FGCHANGES:;

//--------------- dance-single - ----------------
#NOTES:
     dance-single:
     :
     Hard:
     13:
     0.675501,0.675739,0.531293,0.063755,0.664116,445,395,50,6,0,0,0.675501,0.675739,0.531293,0.063755,0.664116,445,395,50,6,0,0:
0000
0000
0000
0000
,
0001
0000
0100
0000
0001
0000
0010
0000
0100
0000
1000
0000
0010
0100
0000
0010
,
0000
0000
1000
0000
0001
0000
1000
0100
0000
0010
0000
0100
0000
1000
0000
0001
,
0100
0000
0010
0000
1000
0000
0010
0000
0100
0000
0001
0000
0010
0100
0000
1000
,
0000
1000
0001
0000
1000
0000
0010
0000
0100
0000
0100
0000
1001
0000
0000
0000
,
1000
0000
0010
0000
0100
0000
0001
0000
0011
0000
0000
1100
0000
1000
0010
0000
,
0100
0001
0000
1000
0000
0100
0000
0010
0100
0000
1000
0000
0001
0000
0100
0010
,
0100
0000
0010
0000
1000
0000
0001
0000
0101
0000
0000
1010
0000
0000
1000
0100
,
0000
0010
0000
0001
1000
0000
0010
0000
0100
0000
0001
1000
0001
0000
0010
0000
,
0100
0000
1000
0000
0100
0000
1000
0000
0001
0000
0100
0001
0000
1000
0000
0100
,
0000
1000
0001
0000
0100
0000
0010
0000
0100
0000
0001
1000
0000
0100
0000
0010
,
0000
0010
0001
0000
1000
0000
0001
0100
0001
0000
1000
0010
0000
0100
0000
0001
,
0000
0001
1000
0000
0100
0000
0010
0000
0001
0000
0010
0000
0100
1000
0000
0001
,
0000
1000
0010
0000
0100
0010
0000
1000
0000
0001
0010
0000
0100
0010
0000
0001
,
0000
1000
0010
0000
0100
0001
0000
1000
0000
0001
0010
0000
0100
1000
0100
1000
,
0000
0000
1001
0000
0001
0000
0100
0010
0000
0000
1010
0000
0001
0000
0010
0100
,
0000
0000
1100
0000
1000
0000
0001
1000
0000
0010
0000
0100
0000
0010
0000
1001
,
0000
0000
0010
0000
0110
0000
0000
0000
1000
0000
0001
0010
0000
1000
0000
0010
,
0000
0001
1000
0000
0001
0000
0100
0000
0010
0000
1000
0010
0000
0001
0000
0010
,
0000
1000
0100
0000
0010
0000
0100
0000
1000
0000
0001
0100
0000
1000
0000
0100
,
0000
0000
0001
0000
2000
0000
0001
0000
3002
0000
0100
0000
0103
0010
0000
0110
,
0000
0000
1000
0000
0001
1000
0000
1001
0000
0000
0001
0000
0010
0100
0000
1100
,
0000
0000
1000
0010
0000
0100
0000
0101
0000
0000
0001
0000
0010
0100
0000
1000
,
0000
0000
1000
0010
0000
0100
0000
0001
0000
0000
0001
0010
0000
0100
0000
1000
,
0000
0000
0001
0000
0101
0000
0000
0000
1010
0000
1000
0000
0001
0100
0000
1010
,
0000
1001
0000
0000
0011
0000
0001
0000
0010
0000
0000
0010
0000
0000
0000
0100
,
0000
0100
1000
0000
0001
0000
0100
0000
0101
0000
0000
0000
0000
1000
0100
1000
,
0100
0000
0011
0000
0100
0000
1010
0000
0100
0000
0001
1000
0000
0010
0000
0100
,
0000
0001
1000
0001
1000
0000
0100
0000
0021
0000
0100
0000
0130
0000
0000
1100
,
0000
0011
0000
0000
0100
0000
1000
0000
1001
0000
0000
0110
0000
0000
0000
1000
,
0000
0001
0010
0100
1000
0000
0110
0000
1001
0000
0000
0000
0000
0010
1000
0010
,
0100
0000
0101
0000
0010
0000
1100
0000
1000
0000
0001
0100
0000
0010
0000
1000
,
0002
0000
1000
0000
0103
0000
0001
1000
,
0110
0000
1001
0000
0110
0000
0001
0010
,
1000
0000
0001
0000
0100
0000
1000
0001
0000
0000
1000
0000
0010
0000
0100
0000
,
0201
0000
0000
0010
0000
0000
0310
0000
1200
0000
0000
0010
0000
0000
0310
0000
,
0001
0000
1000
0010
0100
0000
0001
0000
1002
0000
0100
0000
0103
0000
0000
0000
,
0110
0000
1001
0000
0110
0000
1000
0010
,
0001
0000
1000
0000
0100
0000
0001
1000
0000
0000
0100
0000
0010
0000
0001
0000
,
1002
0000
0000
0100
0000
0000
0103
0000
2001
0000
0000
0100
0000
0000
3100
0000
,
0110
0000
0010
0001
0000
0100
0000
0001
1000
0000
0100
0000
1001
0000
0000
0000
,
0101
0000
1100
0000
1001
0000
0001
0100
,
1000
0000
0100
0000
0001
0000
0010
0100
0000
0000
1000
0000
0001
0000
0100
0000
,
1020
0000
0000
0100
0000
0000
1030
0000
0021
0000
0000
0100
0000
0000
0031
0000
,
1000
0000
0010
0100
0010
0000
1000
0000
0002
0000
0010
0000
0013
0000
0000
0000
,
0011
0000
1010
0000
1001
0000
1000
0010
,
0001
0000
0010
1000
0001
0000
0010
0100
0000
0000
1000
0000
0100
0000
0010
0000
,
0012
0000
0000
1000
0000
0000
0103
0000
2010
0000
0000
0001
0000
0000
3100
0000
,
1001
0000
0010
0100
0000
0001
0000
0010
0100
0000
0110
0000
1001
0000
0000
0000
,
0101
0000
0001
0100
0000
1000
0100
0000
0010
0100
0000
0001
2000
0000
0000
0000
,
3001
0010
0100
1000
0001
0100
0010
1001
;

//--------------- dance-single - ----------------
#NOTES:
     dance-single:
     :
     Challenge:
     16:
     0.90927,0.783857,0.552545,0.053129,1.275104,599,547,52,5,0,0,0.90927,0.783857,0.552545,0.053129,1.275104,599,547,52,5,0,0:
0000
0000
0000
0000
,
0001
0000
0000
0000
0000
0000
1000
0000
0000
0000
0000
0000
0001
0000
0000
0010
0000
0000
0100
0000
0000
1000
0000
0000
0010
0000
0000
0000
0000
0000
0100
0000
0001
0000
0100
0000
0001
0000
0000
1000
0000
0000
0000
0000
0000
0010
0000
0000
,
0000
0100
0001
0000
1000
0100
1000
0001
0000
0100
0010
0100
0000
0001
0000
1000
,
0100
0000
0000
0000
0000
0000
0010
0000
0000
0000
0000
0000
0001
0000
0000
0100
0000
0000
0010
0000
0000
1000
0000
0000
0001
0000
0000
0000
0000
0000
0010
0000
0100
0000
0010
0000
0100
0000
0000
1000
0000
0000
0000
0000
0000
1001
0000
0000
,
0000
0001
0100
1000
0100
0000
0010
0000
0110
0000
0110
0000
1001
0000
0000
0000
,
0011
0000
0001
0010
0100
0000
1000
0000
1010
0000
1000
0001
0000
0001
0010
0100
,
1000
0000
0000
0000
0000
0000
0001
0000
0010
0000
0100
0000
1000
0000
0000
0000
0000
0000
1010
0000
0000
0000
0000
0000
0010
0000
0000
0000
0000
0000
0101
0000
0000
0000
0000
0000
0100
0000
0000
0010
0000
0000
0100
0000
0000
0010
0000
0000
,
0001
0010
1000
0001
0010
0000
0100
0000
1100
0000
0000
0001
1000
0000
1000
0100
,
0010
0000
0000
0001
0000
0000
1000
0000
0100
0000
0010
0000
0001
0000
0000
0000
0000
0000
0010
0000
0000
0000
0000
0000
0100
0000
0000
0000
0000
0000
1000
0000
0000
0001
0000
0000
0100
0000
0000
0010
0000
0000
1000
0000
0000
0100
0000
0000
,
0010
0000
0001
0000
0010
0000
0100
1000
0100
0000
1000
0010
0000
0100
0000
0100
,
0000
0001
0100
0010
0100
0001
0010
0100
1000
0100
0010
0001
1000
0010
0000
0001
,
0000
0000
0000
0010
0000
0000
0000
0000
0000
1000
0000
0000
0001
0000
0000
0000
0000
0000
0010
0000
0100
0000
0010
0000
0100
0000
0000
1000
0000
0000
0001
0000
0000
1000
0000
0000
0000
0000
0000
0010
0000
0000
0000
0000
0000
0100
0000
0000
,
0001
0000
0001
0000
1000
0100
0010
0100
0010
0000
0001
0010
0100
1000
0100
1000
,
0010
0000
0100
0000
1000
0100
0000
0010
0000
1000
0100
0000
0100
0010
0000
1000
,
0000
0010
0001
0100
0010
0100
0000
0010
0000
1000
0001
0000
1000
0100
0010
0001
,
0000
1000
0001
0000
0100
0000
1000
0100
0001
0000
0010
0000
1100
0000
1000
0001
,
0000
0000
0000
0000
0000
0000
0011
0000
0000
0000
0000
0000
1100
0000
0000
0000
0000
0000
0001
0000
0010
0000
0100
0000
1000
0000
0000
0010
0000
0000
0100
0000
0000
0010
0000
0000
0000
0000
0000
0100
0000
0000
0000
0000
0000
1001
0000
0000
,
0000
0000
0010
0000
0110
0000
0000
0000
1000
0000
0001
0100
0000
0010
0000
0001
,
0000
0000
0000
0010
0000
0000
0100
0000
0000
0000
0000
0000
0001
0000
0010
0000
0001
0000
0010
0000
0000
0100
0000
0000
0010
0000
0000
0000
0000
0000
1000
0000
0000
0010
0000
0000
0001
0000
0000
0100
0000
0000
0010
0000
0000
0100
0000
0000
,
0000
0010
0000
0001
0010
0000
0010
1000
0100
0010
0001
1000
0000
0001
0000
1000
,
0010
0000
0100
0000
0001
0100
0001
0100
1000
0001
0010
1000
0010
1000
0001
0010
,
1000
0000
1000
0010
0001
0100
0000
0010
0000
0100
0001
0010
0100
1000
0000
0001
,
0000
1000
0010
1000
0010
0001
1000
0100
0010
0000
0100
0001
1000
0001
0000
0010
,
0000
0100
1000
0001
1000
0100
1000
0010
0000
0100
0001
1000
0001
0010
0000
0110
,
0000
0000
0000
1000
0000
0000
0001
0000
0000
0000
0000
0000
0110
0000
0000
0000
0000
0000
1000
0000
0000
0100
0000
0000
0010
0000
0000
0000
0000
0000
0001
0000
0010
0000
0100
0000
1000
0000
0000
0001
0000
0000
0000
0000
0000
1001
0000
0000
,
0000
1000
0000
0010
0100
0000
0001
0000
1000
0000
0000
0001
0010
0000
0000
0100
,
0000
0100
1000
0001
0010
0000
0100
0000
1100
0000
1000
0010
0000
0100
0010
0100
,
0000
0001
0010
0000
1100
0000
0011
0000
0100
1000
0010
1000
0100
0010
0000
0100
,
0000
1000
0001
1000
0001
0000
0110
0000
2001
0000
0010
0000
3010
0100
0000
0001
,
0000
0001
0000
0010
0100
0000
1000
0000
1001
0000
0000
0100
0010
0000
0000
1000
,
0000
0001
0010
0100
1000
0000
0110
0000
1001
0000
0001
0100
0000
0010
1000
0010
,
0100
0000
0101
0000
0010
0000
1100
0000
1000
0000
0001
0100
0000
0010
0000
1000
,
0100
0010
0000
0100
1000
0001
1000
0001
0100
0010
0000
0010
0100
0000
0110
0000
,
1001
0000
0000
0001
0100
0000
0000
1000
0100
0000
0010
0000
0100
0001
1000
0000
,
0011
0000
0100
0000
1010
0000
0100
0001
0000
0001
1000
0000
0100
0000
0010
0000
,
0011
0000
0000
0001
2000
0000
3010
0000
0101
0000
0000
1000
0002
0000
0013
0000
,
0100
1000
0100
1000
0010
0000
0100
0000
0210
0000
0001
0000
0301
0000
0001
0010
,
0100
0000
0000
1000
0001
0000
0000
0100
0010
0000
1000
0000
0001
0010
0100
0000
,
0001
0100
0010
0001
1000
0000
0010
0100
0000
0100
0010
0000
1010
0000
0110
0000
,
0101
0000
0001
0010
0000
0100
1000
0000
0001
0000
1000
0010
0000
0100
0001
0000
,
1001
0000
1000
0010
0000
0100
0000
0001
1001
0000
0110
0000
1001
0000
0010
0000
,
0110
0000
0000
1000
0001
0000
0000
0010
0100
0000
1000
0001
1000
0000
0010
0000
,
0100
0001
0010
0100
0010
0000
0010
0100
0000
0100
1000
0000
0010
0100
0010
0001
,
0010
0000
0100
0001
0000
0010
1000
0010
0100
0000
1000
0010
0000
0100
1000
0100
,
0001
1000
0100
0010
0011
0000
1001
0000
2100
0000
0010
0000
3010
0000
0010
0100
,
0001
0000
0000
1000
0100
0000
0000
0001
0100
0000
0010
0000
0001
0000
1000
0010
,
0001
1000
0100
0001
1000
0100
0001
0100
0000
0100
1000
0010
0100
0000
0010
0000
,
1010
0000
0000
0100
0001
0000
0010
0000
1100
0000
0000
1000
0010
0000
0100
0000
,
0101
0000
1000
0001
0000
0001
0010
0100
1100
0000
0011
0000
1001
0000
0000
0000
,
0110
0000
0010
1000
0000
1000
0001
0000
0001
0010
0000
0010
0100
0000
1000
0100
,
0010
0001
1000
0100
1000
0001
0010
0100
1000
0001
0100
0001
0010
0100
1000
0000
;
